<?xml version="1.0" encoding="UTF-8" standalone="no"?> <svg xmlns="http://www.w3.org/2000/svg" xmlns:xlink="http://www.w3.org/1999/xlink" version="1.1"><metadata> Created by FontForge 20170924 at Fri Feb 28 08:39:38 2020 By www-data </metadata><defs><font id="HeritageSans"><glyph glyph-name="ff" unicode="ff" d="M460 0h-87v417h-204v-417h-87v417h-67v67h67v15c0 68 16 126 54 165c28 28 68 45 122 45c28 0 54 -9 69 -17l-18 -66c-13 7 -32 13 -52 13c-69 0 -88 -59 -88 -135v-20h204v23c0 68 15 130 56 169c33 32 77 45 117 45c32 0 59 -7 75 -14l-11 -68c-14 6 -31 11 -57 11 c-74 0 -93 -65 -93 -140v-26h116v-67h-116v-417z"></glyph><glyph glyph-name="ffi" unicode="ffi" d="M705 690l-26 -66c-22 14 -58 26 -99 26c-92 0 -120 -65 -120 -142v-24h282v-484h-88v417h-194v-417h-87v417h-204v-417h-87v417h-67v67h67v17c0 60 17 120 58 160c28 29 70 47 124 47c33 0 67 -12 85 -21l-25 -65c-15 9 -38 17 -60 17c-28 0 -48 -10 -63 -25 c-24 -26 -32 -70 -32 -112v-18h204v27c0 127 75 210 211 210c44 0 95 -14 121 -31z"></glyph><glyph glyph-name="f_f_j" unicode="ffj" d="M705 690l-26 -66c-22 14 -58 26 -99 26c-92 0 -120 -65 -120 -142v-24h282v-441c0 -94 -15 -155 -58 -199c-39 -39 -103 -55 -150 -55l-10 69c41 3 75 14 96 37c24 28 34 66 34 182v340h-194v-417h-87v417h-204v-417h-87v417h-67v67h67v17c0 60 17 120 58 160 c28 29 70 47 124 47c33 0 67 -12 85 -21l-25 -65c-15 9 -38 17 -60 17c-28 0 -48 -10 -63 -25c-24 -26 -32 -70 -32 -112v-18h204v27c0 127 75 210 211 210c44 0 95 -14 121 -31z"></glyph><glyph glyph-name="ffl" unicode="ffl" d="M349 690l-23 -66c-18 10 -39 15 -60 15c-29 0 -49 -9 -64 -25c-25 -26 -33 -67 -33 -111v-19h204v21c0 68 23 128 69 167c37 32 87 49 155 49c56 0 108 -12 145 -32v-689h-88v640c-15 8 -38 13 -72 13c-91 0 -122 -67 -122 -144v-25h114v-67h-113v-417h-88v417h-204v-417 h-87v417h-67v67h67v11c0 62 15 124 56 165c31 30 76 48 130 48c33 0 66 -11 81 -18z"></glyph><glyph glyph-name="f_i" unicode="fi" d="M169 0h-87v417h-67v67h67v27c0 127 75 210 211 210c45 0 98 -14 123 -32l-25 -67c-22 15 -59 28 -102 28c-93 0 -120 -65 -120 -142v-24h281v-484h-88v417h-193v-417z"></glyph><glyph glyph-name="f_j" unicode="fj" d="M169 0h-87v417h-67v67h67v27c0 127 75 210 211 210c45 0 98 -14 123 -32l-25 -67c-22 15 -59 28 -102 28c-93 0 -120 -65 -120 -142v-24h281v-441c0 -94 -15 -155 -58 -199c-39 -39 -103 -55 -150 -55l-9 69c40 3 75 14 95 37c24 28 34 66 34 182v340h-193v-417z"></glyph><glyph glyph-name="f_l" unicode="fl" d="M169 0h-87v417h-67v67h67v21c0 68 23 128 68 167c38 32 88 49 156 49c56 0 108 -12 145 -32v-689h-88v640c-15 8 -38 13 -72 13c-91 0 -122 -67 -122 -144v-25h113v-67h-113v-417z"></glyph><glyph glyph-name=".notdef" d="M0 0v700h500v-700h-500zM250 395l170 255h-340zM280 350l170 -255v510zM80 50h340l-170 255zM50 605v-510l170 255z"></glyph><glyph glyph-name=".notdef" d="M0 0v700h500v-700h-500zM250 395l170 255h-340zM280 350l170 -255v510zM80 50h340l-170 255zM50 605v-510l170 255z"></glyph><glyph glyph-name="space" unicode=" "></glyph><glyph glyph-name="exclam" unicode="!" d="M113 181l-17 533h90l-17 -533h-56zM142 -4c-16 0 -30 6 -41 17s-17 25 -17 40s6 29 17 40s25 16 41 16c15 0 29 -5 40 -16s16 -25 16 -40s-5 -29 -16 -40s-25 -17 -40 -17z"></glyph><glyph glyph-name="quotedbl" unicode="&quot;" d="M85 498l-17 267h88l-17 -267h-54zM267 498l-17 267h88l-17 -267h-54z"></glyph><glyph glyph-name="numbersign" unicode="#" d="M123 0l40 206h-126v69h140l33 161h-127v68h140l42 210h70l-42 -210h152l41 210h72l-42 -210h126v-68h-140l-32 -161h126v-69h-140l-42 -206h-70l42 206h-152l-41 -206h-70zM247 275h152l32 161h-151z"></glyph><glyph glyph-name="dollar" unicode="$" d="M557 204c0 -66 -21 -117 -63 -152c-43 -36 -97 -56 -164 -61v-81h-53v81c-130 7 -212 65 -246 176l41 24c25 -50 54 -86 86 -108c31 -23 71 -35 119 -37v292c-1 0 -1 0 -2 1h-3c-19 3 -36 7 -49 10c-14 3 -33 10 -56 20c-24 10 -43 22 -58 35s-28 32 -39 56 c-12 24 -18 51 -18 82c0 59 20 104 59 135s94 47 165 47h1v65h53v-69c88 -12 153 -60 195 -144l-41 -24c-24 35 -48 62 -72 80c-24 17 -51 28 -82 33v-252c35 -8 64 -16 87 -25s46 -21 70 -36c23 -15 41 -35 53 -60c11 -25 17 -54 17 -88zM142 555c0 -40 13 -69 38 -88 s57 -33 97 -42v243c-90 -3 -135 -40 -135 -113zM330 48c91 11 137 57 137 139c0 40 -11 70 -34 91s-57 37 -103 49v-279z"></glyph><glyph glyph-name="percent" unicode="%" d="M202 720c51 0 91 -21 120 -62c29 -42 43 -95 43 -158s-14 -116 -43 -157c-29 -42 -69 -63 -120 -63s-91 21 -120 63c-29 41 -43 94 -43 157s14 116 43 158c29 41 69 62 120 62zM619 714h64l-401 -714h-64zM202 328c56 0 84 57 84 172s-28 172 -84 172 c-57 0 -85 -57 -85 -172s28 -172 85 -172zM699 434c51 0 91 -21 120 -62c29 -42 43 -95 43 -158s-14 -116 -43 -157c-29 -42 -69 -63 -120 -63s-91 21 -120 63c-29 41 -43 94 -43 157s14 116 43 158c29 41 69 62 120 62zM699 42c56 0 84 57 84 172s-28 172 -84 172 c-57 0 -85 -57 -85 -172s28 -172 85 -172z"></glyph><glyph glyph-name="ampersand" unicode="&amp;" d="M705 0h-118l-83 75c-63 -57 -135 -85 -215 -85c-70 0 -128 21 -173 63c-46 41 -69 96 -69 163c0 84 42 154 126 210c-24 42 -36 82 -36 120c0 47 16 88 48 124s76 54 132 54c71 0 124 -29 157 -86l-38 -22c-23 35 -58 53 -105 53c-37 0 -64 -11 -81 -32 c-18 -21 -27 -46 -27 -75c0 -47 24 -100 71 -159s116 -131 209 -216c34 57 51 119 51 185h80c0 -88 -25 -167 -76 -236zM290 47c59 0 113 25 162 74c-122 113 -203 196 -243 251c-48 -38 -72 -90 -72 -156c0 -52 14 -93 43 -123c28 -31 65 -46 110 -46z"></glyph><glyph glyph-name="quoteright" unicode="’" d="M69 529c40 43 60 82 60 117c0 5 0 8 -1 11l-15 3c-12 3 -21 10 -28 20s-10 21 -10 34c0 15 6 29 17 40s25 16 41 16c19 0 35 -8 46 -25s17 -37 17 -62c0 -32 -9 -65 -28 -98c-19 -34 -44 -62 -76 -85c-2 3 -10 12 -23 29z"></glyph><glyph glyph-name="parenleft" unicode="(" d="M214 -174c-114 113 -171 263 -171 448c0 187 57 337 171 449l41 -34c-40 -52 -71 -114 -92 -187s-32 -150 -32 -229s11 -155 32 -227s52 -134 92 -186z"></glyph><glyph glyph-name="parenright" unicode=")" d="M72 -174l-41 34c40 52 71 114 92 186s32 148 32 227s-11 156 -32 229s-52 135 -92 187l41 34c114 -112 171 -262 171 -449c0 -185 -57 -335 -171 -448z"></glyph><glyph glyph-name="asterisk" unicode="*" d="M170 430l-69 51l85 95l-125 27l27 82l116 -51l-13 126h86l-12 -126l116 51l27 -82l-124 -27l85 -95l-70 -51l-64 110z"></glyph><glyph glyph-name="plus" unicode="+" d="M522 388v-69h-198v-208h-74v208h-198v69h198v208h74v-208h198z"></glyph><glyph glyph-name="comma" unicode="," d="M45 -132c40 43 60 82 60 117c0 5 0 8 -1 11l-15 3c-12 3 -21 10 -28 20s-10 21 -10 34c0 15 6 29 17 40s25 16 41 16c19 0 35 -8 46 -25s17 -37 17 -62c0 -32 -9 -65 -28 -98c-19 -34 -44 -62 -76 -85c-2 3 -10 12 -23 29z"></glyph><glyph glyph-name="hyphenminus" unicode="-" d="M40 242v53h257v-53h-257z"></glyph><glyph glyph-name="period" unicode="." d="M102 -4c-16 0 -30 6 -41 17s-17 25 -17 40s6 29 17 40s25 16 41 16c15 0 29 -5 40 -16s16 -25 16 -40s-5 -29 -16 -40s-25 -17 -40 -17z"></glyph><glyph glyph-name="slash" unicode="/" d="M27 0l266 714h73l-266 -714h-73z"></glyph><glyph glyph-name="zero" unicode="0" d="M294 724c85 0 151 -35 198 -104s70 -157 70 -263s-23 -194 -70 -263s-113 -104 -198 -104s-150 35 -197 104s-71 157 -71 263c0 105 24 193 71 263c47 69 112 104 197 104zM294 46c118 0 177 104 177 311s-59 311 -177 311s-177 -104 -177 -311s59 -311 177 -311z"></glyph><glyph glyph-name="one" unicode="1" d="M272 714h88v-660h143v-54h-386v54h155v589l-152 -143l-36 39z"></glyph><glyph glyph-name="two" unicode="2" d="M56 0v54l234 256c2 3 10 12 24 28c14 15 24 27 30 34s15 19 27 36s21 31 27 44c5 12 11 27 16 44s7 33 7 49c0 39 -13 70 -40 91s-65 32 -115 32c-71 0 -122 -26 -153 -77l-41 24c17 33 45 60 82 80c37 19 81 29 133 29c67 0 122 -16 163 -48s61 -77 61 -134 c0 -32 -8 -63 -23 -94c-16 -31 -43 -69 -82 -113c-35 -40 -119 -129 -254 -266h374v-69h-470z"></glyph><glyph glyph-name="three" unicode="3" d="M94 124c19 -28 40 -48 65 -60s55 -18 92 -18c61 0 106 14 137 41c30 27 45 64 45 111c0 25 -4 46 -11 65c-8 19 -19 34 -34 45s-29 19 -43 26s-32 11 -53 14s-38 4 -49 5c-12 1 -27 1 -46 1v50c29 0 54 2 77 6c22 4 40 9 54 14s26 13 36 23c10 9 17 18 22 25s8 16 11 28 c2 12 3 21 4 26v24c0 31 -11 59 -33 83c-23 23 -59 35 -110 35c-66 0 -114 -26 -145 -77l-41 24c17 32 43 58 80 79c36 20 78 30 127 30c35 0 68 -5 99 -16s57 -29 80 -56c22 -27 33 -61 33 -101c0 -47 -13 -83 -40 -110s-58 -45 -94 -54c43 -5 81 -23 115 -54 s51 -75 51 -132c0 -59 -21 -109 -62 -150s-102 -61 -182 -61c-58 0 -106 11 -143 32c-38 21 -66 47 -83 78z"></glyph><glyph glyph-name="four" unicode="4" d="M458 244h98v-54h-98v-190h-88v190h-347v54l347 470h88v-470zM370 244v380l-280 -380h280z"></glyph><glyph glyph-name="five" unicode="5" d="M279 -10c-103 0 -176 38 -217 113l41 23c21 -29 43 -49 67 -61c23 -13 51 -19 83 -19c50 0 92 13 127 40c34 27 51 70 51 130c0 33 -6 62 -17 86c-12 23 -28 41 -47 53c-19 11 -38 20 -57 25s-39 7 -60 7c-47 0 -85 -11 -114 -33l-40 25v335h374v-68h-319v-228 c35 17 73 25 114 25c45 0 85 -7 120 -21c34 -14 61 -32 80 -55s33 -48 42 -73c9 -26 14 -53 14 -80c0 -59 -20 -111 -61 -156s-101 -68 -181 -68z"></glyph><glyph glyph-name="six" unicode="6" d="M338 440c23 0 47 -4 70 -11c23 -8 46 -20 68 -35c22 -16 40 -38 54 -66s21 -60 21 -96c0 -71 -25 -129 -74 -174s-109 -68 -179 -68c-23 0 -45 3 -66 8s-44 14 -67 29c-24 14 -45 33 -62 56s-32 54 -43 94c-11 39 -17 85 -17 136c0 65 9 125 27 178c17 53 41 96 70 129 s62 59 99 77s75 27 115 27c31 0 61 -5 91 -16c29 -11 52 -27 69 -48l-34 -30c-26 29 -64 44 -115 44c-67 0 -121 -28 -162 -85s-64 -136 -69 -238c21 23 51 44 90 62s77 27 114 27zM294 46c47 0 86 16 119 47c32 31 48 76 48 137c0 49 -12 87 -35 114s-58 40 -104 40 c-39 0 -75 -9 -108 -26c-33 -18 -60 -39 -81 -63c3 -166 57 -249 161 -249z"></glyph><glyph glyph-name="seven" unicode="7" d="M137 0c17 69 39 138 67 206c27 67 59 131 95 192s64 106 85 137c20 31 46 68 77 111h-398v68h477v-53c-72 -99 -138 -210 -197 -332c-59 -123 -98 -232 -117 -329h-89z"></glyph><glyph glyph-name="eight" unicode="8" d="M369 395c59 -29 103 -57 131 -86s42 -66 42 -113c0 -63 -24 -113 -71 -150s-106 -56 -175 -56c-15 0 -31 1 -47 3c-17 1 -38 6 -63 14c-25 7 -47 17 -66 30s-36 32 -50 57s-21 55 -21 89c0 92 49 156 147 193c-78 48 -117 106 -117 175c0 59 21 102 64 131 c43 28 96 42 161 42c61 0 111 -13 150 -39c39 -27 58 -67 58 -122c0 -79 -48 -135 -143 -168zM160 566c0 -15 3 -29 9 -42s13 -23 20 -31c7 -9 19 -18 36 -28c17 -11 31 -18 41 -23c9 -5 26 -12 50 -23c41 27 70 51 88 72s27 46 27 76c0 34 -11 61 -34 80s-56 28 -98 28 c-43 0 -77 -10 -102 -29s-37 -46 -37 -80zM296 39c51 0 92 12 121 37s44 59 44 104c0 30 -7 53 -22 70s-41 33 -78 49c-60 25 -98 41 -113 49c-35 -21 -64 -45 -85 -70c-22 -26 -33 -59 -33 -98c0 -43 15 -78 44 -103s70 -38 122 -38z"></glyph><glyph glyph-name="nine" unicode="9" d="M292 724c23 0 45 -2 66 -7s44 -15 68 -29c23 -15 44 -33 61 -56s32 -55 43 -94c11 -40 17 -86 17 -137c0 -65 -9 -124 -26 -177c-18 -53 -42 -97 -71 -130s-62 -59 -99 -77s-75 -27 -115 -27c-31 0 -61 5 -90 16c-30 11 -53 27 -70 48l34 30c26 -29 64 -44 115 -44 c67 0 121 28 162 85s64 136 69 238c-21 -23 -50 -44 -89 -62s-78 -27 -115 -27c-23 0 -47 4 -70 12c-23 7 -46 19 -68 35c-22 15 -40 37 -54 65s-21 60 -21 96c0 71 25 130 74 175s109 67 179 67zM268 330c39 0 75 9 108 27c33 17 60 38 81 62c-3 166 -57 249 -161 249 c-47 0 -86 -15 -118 -46c-33 -31 -49 -77 -49 -138c0 -49 12 -86 35 -113s58 -41 104 -41z"></glyph><glyph glyph-name="colon" unicode=":" d="M103 431c-16 0 -30 6 -41 17s-17 25 -17 40s6 29 17 40s25 16 41 16c15 0 29 -5 40 -16s16 -25 16 -40s-5 -29 -16 -40s-25 -17 -40 -17zM102 -4c-16 0 -30 6 -41 17s-17 25 -17 40s6 29 17 40s25 16 41 16c15 0 29 -5 40 -16s16 -25 16 -40s-5 -29 -16 -40 s-25 -17 -40 -17z"></glyph><glyph glyph-name="semicolon" unicode=";" d="M109 431c-16 0 -30 6 -41 17s-17 25 -17 40s6 29 17 40s25 16 41 16c15 0 29 -5 40 -16s16 -25 16 -40s-5 -29 -16 -40s-25 -17 -40 -17zM45 -132c40 43 60 82 60 117c0 5 0 8 -1 11l-15 3c-12 3 -21 10 -28 20s-10 21 -10 34c0 15 6 29 17 40s25 16 41 16 c19 0 35 -8 46 -25s17 -37 17 -62c0 -32 -9 -65 -28 -98c-19 -34 -44 -62 -76 -85c-2 3 -10 12 -23 29z"></glyph><glyph glyph-name="less" unicode="&lt;" d="M464 558v-75l-297 -131l297 -132v-75l-410 182v49z"></glyph><glyph glyph-name="equal" unicode="=" d="M67 489h456v-69h-456v69zM67 218v69h456v-69h-456z"></glyph><glyph glyph-name="greater" unicode="&gt;" d="M56 145v75l297 131l-297 132v75l410 -182v-49z"></glyph><glyph glyph-name="question" unicode="?" d="M155 181c-6 49 0 89 17 122s42 66 77 99c4 3 12 11 23 22s19 18 22 21s8 8 16 17s13 16 16 21c2 5 5 12 9 21c4 8 7 16 8 25s1 18 1 29c0 77 -39 115 -116 115c-73 0 -124 -39 -152 -116l-43 18c30 99 99 149 207 149c39 0 72 -6 99 -17s47 -27 60 -46s22 -38 27 -57 s8 -38 8 -59c0 -25 -3 -47 -10 -67c-7 -21 -17 -39 -31 -55c-14 -17 -26 -30 -37 -39s-27 -21 -46 -35c-66 -46 -99 -102 -99 -168h-56zM184 -4c-16 0 -30 6 -41 17s-17 25 -17 40s6 29 17 40s25 16 41 16c15 0 29 -5 40 -16s16 -25 16 -40s-5 -29 -16 -40s-25 -17 -40 -17z "></glyph><glyph glyph-name="at" unicode="@" d="M380 -10c-65 0 -122 10 -169 31s-83 49 -108 85c-25 35 -43 75 -52 118c-10 43 -12 88 -6 137c13 110 57 198 132 264s169 99 281 99c65 0 123 -12 172 -35c49 -24 86 -55 111 -92c25 -38 43 -78 53 -120c10 -43 12 -85 6 -127c-7 -53 -27 -99 -58 -137 c-31 -39 -72 -58 -121 -58c-47 0 -79 15 -96 46c-6 13 -10 21 -11 26c-48 -48 -98 -72 -151 -72c-51 0 -91 20 -121 59s-42 88 -37 148c5 61 27 111 64 150c37 38 80 57 130 57c47 0 87 -18 121 -53l4 48h83c-1 -13 -3 -47 -6 -100c-4 -54 -7 -103 -10 -146 c-3 -44 -4 -68 -3 -72c5 -27 19 -41 43 -41c49 0 77 52 86 157c8 99 -10 176 -55 229s-113 79 -204 79c-95 0 -171 -28 -228 -83s-90 -131 -99 -226s10 -171 57 -229c47 -59 115 -88 206 -88c40 0 78 5 115 16s64 23 82 36l19 -49c-51 -38 -127 -57 -230 -57zM383 201 c45 0 86 24 122 72c-1 23 -1 51 1 84c5 50 8 84 9 103c-27 42 -61 63 -102 63s-73 -18 -94 -55s-32 -80 -32 -131c0 -91 32 -136 96 -136z"></glyph><glyph glyph-name="A" unicode="A" d="M555 0l-90 238h-299l-92 -238h-59l278 714h82l277 -714h-97zM187 292h258l-128 337z"></glyph><glyph glyph-name="B" unicode="B" d="M499 377c35 -15 63 -38 82 -69s29 -67 29 -107c0 -58 -20 -106 -59 -144s-91 -57 -154 -57h-309v714h280c67 0 120 -17 159 -51s59 -79 59 -136c0 -67 -29 -117 -87 -150zM176 660v-259h200c13 0 25 2 38 5c12 3 25 9 38 18s24 22 33 41c8 18 12 40 12 65s-4 47 -12 66 c-9 18 -20 31 -33 40c-14 9 -27 15 -39 19c-13 3 -25 5 -38 5h-199zM388 54c13 0 26 2 40 7s28 12 43 22s27 25 36 46s14 45 14 72s-5 51 -14 71s-21 35 -36 45s-29 17 -43 22s-27 7 -40 7h-212v-292h212z"></glyph><glyph glyph-name="C" unicode="C" d="M390 -10c-105 0 -189 37 -252 112c-64 74 -96 161 -96 262c0 72 17 136 52 192s79 98 132 126s110 42 169 42c58 0 111 -14 159 -41c47 -27 83 -63 106 -106l-42 -22c-33 39 -66 67 -100 86c-34 18 -73 27 -118 27c-81 0 -146 -28 -195 -83c-49 -56 -73 -130 -73 -223 c0 -91 24 -167 72 -226c47 -60 113 -90 198 -90c89 0 166 38 231 114l42 -22c-23 -43 -61 -79 -113 -106c-52 -28 -109 -42 -172 -42z"></glyph><glyph glyph-name="D" unicode="D" d="M88 0v714h249c99 0 181 -35 248 -105c67 -71 100 -155 100 -252c0 -98 -34 -182 -101 -252c-68 -70 -149 -105 -243 -105h-253zM176 54h171c79 0 140 29 183 86s64 129 64 218c0 90 -22 163 -65 219c-44 55 -105 83 -182 83h-171v-606z"></glyph><glyph glyph-name="E" unicode="E" d="M176 54h386v-54h-474v714h472v-54h-384v-270h329v-54h-329v-282z"></glyph><glyph glyph-name="F" unicode="F" d="M560 660h-384v-270h329v-54h-329v-336h-88v714h472v-54z"></glyph><glyph glyph-name="G" unicode="G" d="M401 -10c-62 0 -117 12 -165 35s-85 54 -112 92c-27 37 -48 77 -61 120c-14 42 -21 85 -21 128c0 103 35 188 104 257c69 68 151 102 248 102c51 0 101 -11 150 -34s88 -61 119 -114l-40 -20c-35 39 -69 68 -103 86c-34 17 -73 26 -118 26c-47 0 -88 -9 -123 -26 c-36 -17 -64 -41 -85 -70c-21 -30 -36 -63 -46 -98c-11 -35 -16 -73 -16 -112c0 -38 5 -75 15 -110c9 -35 24 -69 45 -100c20 -32 49 -58 86 -77s81 -29 131 -29c69 0 135 18 197 53v179h-133v54h217v-234c-25 -31 -64 -57 -118 -77c-54 -21 -111 -31 -171 -31z"></glyph><glyph glyph-name="H" unicode="H" d="M559 714h88v-714h-88v336h-383v-336h-88v714h88v-324h383v324z"></glyph><glyph glyph-name="I" unicode="I" d="M88 714h88v-714h-88v714z"></glyph><glyph glyph-name="J" unicode="J" d="M219 -10c-51 0 -95 10 -131 30c-37 19 -62 43 -75 72l38 22c37 -45 86 -68 146 -68c17 0 33 2 48 5s31 9 47 17s29 21 39 39c9 18 14 40 14 65v542h88v-536c0 -61 -20 -107 -59 -139c-39 -33 -91 -49 -155 -49z"></glyph><glyph glyph-name="K" unicode="K" d="M295 418l327 -418h-112l-279 358l-55 -52v-306h-88v714h88v-336l357 336h77z"></glyph><glyph glyph-name="L" unicode="L" d="M176 54h380v-54h-468v714h88v-660z"></glyph><glyph glyph-name="M" unicode="M" d="M88 0v714h106l228 -356l229 356h88v-714h-88v618l-249 -388l-260 403v-633h-54z"></glyph><glyph glyph-name="N" unicode="N" d="M88 714h73l443 -596v596h54v-714h-75l-441 595v-595h-54v714z"></glyph><glyph glyph-name="O" unicode="O" d="M390 724c96 0 178 -36 246 -107c68 -72 102 -159 102 -260s-34 -188 -102 -259c-68 -72 -150 -108 -246 -108s-178 36 -246 108c-68 71 -102 158 -102 259s34 188 102 260c68 71 150 107 246 107zM390 46c74 0 136 30 185 90c49 59 73 133 73 221s-24 162 -73 222 c-49 59 -111 89 -185 89c-75 0 -136 -30 -185 -89c-49 -60 -73 -134 -73 -222s24 -162 73 -221c49 -60 110 -90 185 -90z"></glyph><glyph glyph-name="P" unicode="P" d="M88 0v714h267c66 0 120 -19 161 -56c41 -38 61 -88 61 -151s-21 -111 -62 -146s-95 -53 -160 -53h-179v-308h-88zM176 363h179c43 0 76 12 99 36c23 23 34 58 34 103c0 48 -12 86 -37 115s-58 43 -100 43h-175v-297z"></glyph><glyph glyph-name="Q" unicode="Q" d="M760 47l-57 -57l-88 87c-65 -58 -140 -87 -225 -87c-96 0 -178 36 -246 108c-68 71 -102 158 -102 259s34 188 102 260c68 71 150 107 246 107s178 -36 246 -107c68 -72 102 -159 102 -260c0 -81 -23 -155 -69 -220zM390 46c69 0 128 27 176 80l-97 96l55 58l88 -87 c24 50 36 105 36 164c0 88 -24 162 -73 222c-49 59 -111 89 -185 89c-75 0 -136 -30 -185 -89c-49 -60 -73 -134 -73 -222s24 -162 73 -221c49 -60 110 -90 185 -90z"></glyph><glyph glyph-name="R" unicode="R" d="M88 0v714h267c66 0 120 -19 161 -56s61 -87 61 -150c0 -47 -12 -86 -36 -119s-58 -55 -103 -68l173 -321h-100l-166 308h-14h-155v-308h-88zM176 363h179c43 0 76 12 99 36c23 23 34 58 34 103c0 48 -12 86 -37 115s-58 43 -100 43h-175v-297z"></glyph><glyph glyph-name="S" unicode="S" d="M300 -10c-29 0 -56 3 -82 9c-26 5 -51 15 -76 28s-48 31 -67 55c-19 23 -34 52 -44 85l41 24c26 -53 56 -90 90 -112s77 -33 129 -33c63 0 108 13 135 39s41 60 41 102c0 47 -16 81 -47 102s-81 37 -148 50c-19 3 -36 7 -49 10c-14 3 -33 10 -56 20c-24 10 -43 22 -58 35 s-28 32 -39 56c-12 24 -18 51 -18 82c0 59 20 104 59 135s94 47 165 47c60 0 110 -12 151 -36c40 -24 73 -61 98 -112l-41 -24c-29 43 -58 73 -87 90c-30 17 -67 26 -110 26c-97 0 -145 -38 -145 -113c0 -19 4 -37 11 -52s16 -27 26 -36c9 -9 22 -16 39 -23s30 -12 41 -15 c10 -3 24 -6 41 -9c33 -7 59 -14 78 -19s41 -14 67 -25s46 -24 60 -37c14 -14 26 -32 37 -55c10 -23 15 -50 15 -80c0 -71 -24 -124 -73 -160s-110 -54 -184 -54z"></glyph><glyph glyph-name="T" unicode="T" d="M589 714v-54h-242v-660h-88v660h-242v54h572z"></glyph><glyph glyph-name="U" unicode="U" d="M586 714h54v-466c0 -71 -27 -132 -82 -182c-55 -51 -122 -76 -200 -76c-77 0 -143 25 -198 76c-55 50 -82 111 -82 182v466h88v-466c0 -57 21 -104 62 -143s90 -59 148 -59s107 20 148 59s61 86 61 143z"></glyph><glyph glyph-name="V" unicode="V" d="M290 0l-274 714h95l240 -634l240 634h57l-273 -714h-85z"></glyph><glyph glyph-name="W" unicode="W" d="M871 714h56l-200 -714h-88l-168 596l-166 -596h-89l-200 714h92l170 -608l171 608h82l169 -608z"></glyph><glyph glyph-name="X" unicode="X" d="M31 714h108l191 -287l213 287h67l-246 -327l263 -387h-109l-210 319l-232 -319h-67l264 358z"></glyph><glyph glyph-name="Y" unicode="Y" d="M556 714h66l-262 -412v-302h-88v302l-261 412h105l217 -355z"></glyph><glyph glyph-name="Z" unicode="Z" d="M66 714h501v-51l-427 -609h437v-54h-544v51l425 609h-392v54z"></glyph><glyph glyph-name="bracketleft" unicode="[" d="M88 -159v874h226v-53h-138v-768h138v-53h-226z"></glyph><glyph glyph-name="backslash" unicode="\" d="M294 0l-266 714h73l266 -714h-73z"></glyph><glyph glyph-name="bracketright" unicode="]" d="M276 715v-874h-226v53h138v768h-138v53h226z"></glyph><glyph glyph-name="asciicircum" unicode="^" d="M43 269l206 445h76l206 -445h-77l-167 367l-168 -367h-76z"></glyph><glyph glyph-name="underscore" unicode="_" d="M456 -142v39h-454v-39h454z"></glyph><glyph glyph-name="quoteleft" unicode="‘" d="M196 741c-40 -43 -60 -82 -60 -117c0 -5 0 -8 1 -11l15 -3c12 -3 21 -10 28 -20s10 -21 10 -34c0 -15 -6 -28 -17 -39s-25 -17 -41 -17c-19 0 -35 8 -46 25s-17 37 -17 62c0 32 9 65 28 99c19 33 44 61 76 84c2 -3 10 -12 23 -29z"></glyph><glyph glyph-name="a" unicode="a" d="M219 -11c-57 0 -103 15 -136 45c-34 29 -51 68 -51 117c0 50 18 90 53 121s82 46 139 46c25 0 50 -3 75 -9s44 -12 57 -17l19 -9v81c0 40 -10 71 -31 94c-21 22 -50 33 -86 33c-20 0 -39 -3 -57 -10s-33 -16 -45 -25c-12 -10 -22 -20 -31 -29c-9 -10 -16 -18 -20 -25 l-6 -11l-40 27c49 85 123 127 224 127c119 0 178 -62 178 -186v-359h-86v38l-3 -2c-3 -2 -6 -4 -11 -7s-10 -7 -16 -10c-7 -3 -14 -7 -23 -10c-9 -4 -19 -7 -29 -10s-21 -6 -34 -7c-13 -2 -27 -3 -40 -3zM245 43c23 0 45 4 67 11c21 7 37 14 48 21l15 11v154 c-39 16 -80 24 -121 24c-42 0 -75 -10 -99 -31c-25 -21 -37 -48 -37 -81s12 -60 35 -79c23 -20 54 -30 92 -30z"></glyph><glyph glyph-name="b" unicode="b" d="M325 545c69 0 128 -26 175 -77c47 -52 70 -119 70 -200s-23 -148 -70 -200s-106 -78 -175 -78c-61 0 -117 27 -167 81v-71h-86v760h86v-296c50 54 106 81 167 81zM308 44c49 0 90 22 124 66c33 43 50 96 50 157s-17 114 -50 158c-34 44 -76 66 -125 66 c-53 0 -102 -30 -149 -90v-266c45 -61 95 -91 150 -91z"></glyph><glyph glyph-name="c" unicode="c" d="M479 412c-25 27 -50 47 -74 60s-51 19 -82 19c-61 0 -109 -21 -144 -64s-53 -96 -53 -159c0 -61 17 -113 51 -157c33 -45 82 -67 146 -67c31 0 59 6 83 19s49 33 74 60l38 -25c-50 -72 -120 -108 -209 -108c-79 0 -143 26 -194 79s-77 118 -77 197s25 145 76 199 c51 53 115 80 194 80c89 0 159 -36 209 -108z"></glyph><glyph glyph-name="d" unicode="d" d="M451 760h86v-760h-86v72c-50 -55 -106 -82 -168 -82c-69 0 -127 26 -174 78c-47 51 -71 118 -71 199s24 148 71 200s105 78 174 78c61 0 117 -27 168 -82v297zM301 44c53 0 103 30 150 91v263c-46 62 -96 93 -151 93c-49 0 -90 -22 -123 -65c-34 -44 -51 -97 -51 -158 s17 -114 51 -158c33 -44 75 -66 124 -66z"></glyph><glyph glyph-name="e" unicode="e" d="M332 44c32 0 60 6 84 19c24 12 49 32 75 60l38 -25c-49 -72 -120 -108 -213 -108c-81 0 -148 26 -200 78c-52 51 -78 116 -78 195s25 145 76 200c50 55 111 82 183 82c69 0 127 -25 175 -75c48 -51 72 -119 72 -204h-418c0 -26 4 -51 11 -76s19 -48 34 -70 c15 -23 37 -41 65 -55c27 -14 59 -21 96 -21zM300 491c-39 0 -74 -16 -106 -49s-53 -73 -63 -122h326c-1 43 -18 83 -49 118s-67 53 -108 53z"></glyph><glyph glyph-name="f" unicode="f" d="M248 770c62 0 106 -24 132 -73l-31 -30c-21 32 -48 48 -81 48c-56 0 -84 -37 -84 -110v-70h136v-53h-136v-482h-86v482h-70v53h70v81c0 43 13 80 39 110c26 29 63 44 111 44z"></glyph><glyph glyph-name="g" unicode="g" d="M451 535h86v-575c0 -66 -20 -118 -60 -155s-96 -56 -167 -56c-105 0 -186 38 -244 115l35 29c53 -60 116 -90 188 -90c48 0 87 13 117 40s45 63 45 110v119c-50 -55 -106 -82 -168 -82c-69 0 -127 26 -174 78c-47 51 -71 118 -71 199s24 148 71 200s105 78 174 78 c61 0 117 -27 168 -82v72zM301 44c53 0 103 30 150 91v263c-46 62 -96 93 -151 93c-49 0 -90 -22 -123 -65c-34 -44 -51 -97 -51 -158s17 -114 51 -158c33 -44 75 -66 124 -66z"></glyph><glyph glyph-name="h" unicode="h" d="M342 546c57 0 100 -15 131 -45c30 -30 45 -73 45 -128v-373h-86v371c0 36 -11 65 -33 88c-22 22 -52 33 -90 33c-60 0 -110 -29 -151 -86v-406h-86v760h86v-293c40 53 101 79 184 79z"></glyph><glyph glyph-name="i" unicode="i" d="M116 624c-14 0 -26 5 -36 15c-10 9 -15 21 -15 35c0 13 5 25 15 35s22 15 36 15s26 -5 36 -15c9 -10 14 -22 14 -35c0 -14 -5 -26 -14 -35c-10 -10 -22 -15 -36 -15zM73 0v535h86v-535h-86z"></glyph><glyph glyph-name="j" unicode="j" d="M115 624c-14 0 -26 5 -36 15c-10 9 -15 21 -15 35c0 13 5 25 15 35s22 15 36 15s26 -5 36 -15c9 -10 14 -22 14 -35c0 -14 -5 -26 -14 -35c-10 -10 -22 -15 -36 -15zM8 -251c-62 0 -106 24 -132 73l31 30c21 -32 48 -48 81 -48c56 0 84 37 84 110v621h86v-632 c0 -43 -13 -80 -39 -109c-26 -30 -63 -45 -111 -45z"></glyph><glyph glyph-name="k" unicode="k" d="M276 317l246 -317h-108l-199 258l-57 -53v-205h-86v760h86v-484l278 259h73z"></glyph><glyph glyph-name="l" unicode="l" d="M204 -10c-33 0 -62 12 -88 37c-27 24 -40 62 -40 114v619h86v-607c0 -37 7 -64 21 -79s31 -23 50 -23c15 0 25 3 32 8l19 -42c-19 -18 -46 -27 -80 -27z"></glyph><glyph glyph-name="m" unicode="m" d="M665 546c55 0 97 -15 126 -45s44 -73 44 -128v-373h-86v371c0 35 -10 64 -31 87s-49 34 -82 34c-53 0 -101 -30 -142 -89c1 -13 2 -23 2 -30v-373h-86v371c0 35 -10 64 -31 87s-49 34 -82 34c-52 0 -98 -29 -139 -86v-406h-86v535h86v-70c38 54 94 81 168 81 c83 0 136 -33 159 -99c39 66 99 99 180 99z"></glyph><glyph glyph-name="n" unicode="n" d="M342 546c57 0 100 -15 131 -45c30 -30 45 -73 45 -128v-373h-86v371c0 36 -11 65 -33 88c-22 22 -52 33 -90 33c-60 0 -110 -29 -151 -86v-406h-86v535h86v-68c40 53 101 79 184 79z"></glyph><glyph glyph-name="o" unicode="o" d="M306 -10c-77 0 -141 26 -192 79c-51 52 -76 118 -76 199c0 80 25 146 76 199c51 52 115 78 192 78s141 -26 192 -78c51 -53 76 -119 76 -199c0 -81 -25 -147 -76 -199c-51 -53 -115 -79 -192 -79zM306 44c50 0 93 22 128 67c35 44 52 96 52 157s-17 113 -52 157 s-78 66 -128 66c-49 0 -91 -22 -126 -66s-53 -96 -54 -157c1 -61 19 -113 54 -157c35 -45 77 -67 126 -67z"></glyph><glyph glyph-name="p" unicode="p" d="M325 545c69 0 128 -26 175 -77c47 -52 70 -119 70 -200s-23 -148 -70 -200s-106 -78 -175 -78c-61 0 -117 27 -167 81v-312h-86v776h86v-71c50 54 106 81 167 81zM308 44c49 0 90 22 124 66c33 43 50 96 50 157s-17 114 -50 158c-34 44 -76 66 -125 66 c-53 0 -102 -30 -149 -90v-266c45 -61 95 -91 150 -91z"></glyph><glyph glyph-name="q" unicode="q" d="M451 535h86v-776h-86v313c-50 -55 -106 -82 -168 -82c-69 0 -127 26 -174 78c-47 51 -71 118 -71 199s24 148 71 200s105 78 174 78c61 0 117 -27 168 -82v72zM301 44c53 0 103 30 150 91v263c-46 62 -96 93 -151 93c-49 0 -90 -22 -123 -65c-34 -44 -51 -97 -51 -158 s17 -114 51 -158c33 -44 75 -66 124 -66z"></glyph><glyph glyph-name="r" unicode="r" d="M72 0v535h86v-68c21 25 47 44 78 58c31 13 61 20 91 20c45 0 82 -14 111 -42l-33 -50c-24 24 -56 36 -96 36c-31 0 -61 -9 -88 -26s-48 -36 -63 -57v-406h-86z"></glyph><glyph glyph-name="s" unicode="s" d="M240 -10c-56 0 -102 12 -139 37c-37 24 -63 56 -78 97l41 24c34 -69 91 -104 171 -104c41 0 73 9 95 28c22 18 33 42 33 72c0 31 -12 52 -35 65s-64 26 -122 39c-21 5 -38 10 -53 15s-33 14 -52 25c-20 11 -35 26 -46 45s-16 42 -16 68c0 46 17 82 50 107s76 37 130 37 c98 0 166 -40 204 -120l-41 -24c-19 31 -39 54 -62 69c-23 14 -52 21 -87 21c-71 0 -106 -25 -106 -76c0 -14 4 -26 11 -37s14 -20 21 -26s19 -11 34 -16s26 -9 33 -10c6 -2 17 -4 32 -7c61 -12 109 -30 143 -53c33 -23 50 -60 50 -109c0 -55 -20 -96 -60 -124 c-41 -29 -91 -43 -151 -43z"></glyph><glyph glyph-name="t" unicode="t" d="M25 482v53h69v143h86v-143h137v-53h-137v-331c0 -40 5 -67 15 -82s28 -23 53 -23c20 0 44 9 71 26l24 -39c-28 -29 -67 -43 -116 -43c-89 0 -133 54 -133 162v330h-69z"></glyph><glyph glyph-name="u" unicode="u" d="M432 535h86v-535h-86v68c-40 -53 -101 -79 -184 -79c-57 0 -100 15 -130 45c-31 30 -46 73 -46 128v373h86v-371c0 -36 11 -65 33 -87c22 -23 52 -34 90 -34c60 0 110 29 151 86v406z"></glyph><glyph glyph-name="v" unicode="v" d="M219 0l-201 535h93l168 -455l168 455h58l-201 -535h-85z"></glyph><glyph glyph-name="w" unicode="w" d="M18 535h91l133 -445l136 445h83l131 -440l132 440h57l-162 -535h-88l-128 432l-132 -432h-89z"></glyph><glyph glyph-name="x" unicode="x" d="M16 0l201 264l-194 271h106l145 -203l160 203h66l-194 -245l201 -290h-104l-154 221l-167 -221h-66z"></glyph><glyph glyph-name="y" unicode="y" d="M152 -241l86 218l-220 558h92l171 -452l175 452h59l-306 -776h-57z"></glyph><glyph glyph-name="z" unicode="z" d="M39 0v53l303 429h-282v53h389v-53l-307 -429h310v-53h-413z"></glyph><glyph glyph-name="braceleft" unicode="{" d="M303 -161c-25 0 -49 8 -72 24c-24 15 -44 38 -61 68c-16 29 -26 62 -31 99s-7 68 -4 95s3 52 2 75s-7 38 -17 45c-15 11 -38 21 -68 28v10c31 7 53 17 68 29c10 8 16 24 17 47s1 48 -2 75c-3 26 -1 57 4 94c5 36 15 69 31 98c33 61 78 91 133 91c9 0 19 -1 31 -3v-26 c-32 0 -57 -11 -75 -33c-29 -37 -46 -104 -49 -200c-1 -44 -3 -75 -5 -94c-3 -19 -8 -36 -15 -50c-11 -19 -22 -30 -32 -33c11 -3 21 -14 32 -33c11 -21 18 -68 20 -143c3 -96 20 -163 49 -201c19 -21 44 -31 75 -31v-27c-8 -3 -18 -4 -31 -4z"></glyph><glyph glyph-name="bar" unicode="|" d="M86 760h63v-1001h-63v1001z"></glyph><glyph glyph-name="braceright" unicode="}" d="M81 717c25 0 49 -8 73 -23c23 -16 43 -39 60 -69c16 -29 27 -62 32 -99s6 -68 3 -95s-3 -51 -2 -74s7 -39 17 -46c15 -11 38 -21 68 -28v-10c-31 -7 -53 -17 -68 -29c-10 -8 -16 -24 -17 -47s-1 -48 2 -74c3 -27 2 -58 -3 -94c-5 -37 -16 -70 -32 -99 c-33 -61 -78 -91 -133 -91c-9 0 -19 1 -31 3v26c32 0 57 11 75 33c29 37 46 104 49 200c1 44 3 76 6 95c2 19 7 35 14 49c11 19 22 30 32 33c-11 3 -21 14 -32 33c-11 21 -18 68 -20 143c-3 96 -20 163 -49 201c-19 21 -44 31 -75 31v27c8 3 18 4 31 4z"></glyph><glyph glyph-name="asciitilde" unicode="~" d="M397 293c-30 0 -68 10 -115 29s-80 29 -100 29c-39 0 -78 -19 -117 -58v33c11 23 29 44 53 61c23 17 52 25 86 25c29 0 68 -10 115 -29s81 -29 101 -29c38 0 76 19 115 58v-33c-11 -23 -29 -43 -52 -60s-52 -26 -86 -26z"></glyph><glyph glyph-name="exclamdown" unicode="¡" d="M140 539c16 0 30 -6 41 -17s17 -25 17 -40s-6 -28 -17 -39s-25 -17 -41 -17c-15 0 -28 6 -39 17s-17 24 -17 39s6 29 17 40s24 17 39 17zM169 354l17 -533h-90l17 533h56z"></glyph><glyph glyph-name="cent" unicode="¢" d="M518 98c-46 -66 -109 -102 -188 -107v-114h-53v115c-71 7 -128 37 -172 88c-45 51 -67 113 -67 186s22 136 67 189c44 52 101 81 172 88v117h53v-116c79 -6 142 -42 187 -107l-38 -25c-47 51 -96 77 -149 79v-447c29 1 56 7 79 20s46 32 71 59zM126 268 c0 -53 13 -100 39 -141c25 -41 63 -67 112 -78v437c-47 -11 -84 -36 -111 -76c-27 -41 -40 -88 -40 -142z"></glyph><glyph glyph-name="sterling" unicode="£" d="M135 54h420v-54h-503v54c47 12 79 39 95 81c15 42 20 105 14 189h-105v54h100c-9 96 -14 150 -14 161c0 60 18 106 54 138c36 31 81 47 135 47c39 0 78 -8 116 -25c37 -17 66 -43 87 -78l-43 -23c-28 47 -74 70 -137 70c-35 0 -64 -9 -87 -26c-24 -17 -36 -43 -36 -76 c0 -70 2 -133 5 -188h204v-54h-202c1 -35 -2 -67 -7 -98s-12 -57 -20 -77c-9 -20 -18 -37 -28 -52s-19 -26 -27 -33c-9 -7 -16 -10 -21 -10z"></glyph><glyph glyph-name="fraction" unicode="⁄" d="M215 714h64l-401 -714h-64z"></glyph><glyph glyph-name="yen" unicode="¥" d="M637 714l-231 -364h122v-53h-153v-92h153v-53h-153v-152h-88v152h-153v53h153v92h-153v53h123l-231 364h105l217 -355l223 355h66z"></glyph><glyph glyph-name="fhook" unicode="ƒ" d="M248 770c62 0 106 -24 132 -73l-31 -30c-21 32 -48 48 -81 48c-56 0 -84 -37 -84 -110v-70h136v-53h-135v-579c0 -43 -13 -80 -39 -109c-26 -30 -63 -45 -111 -45c-62 0 -106 24 -132 73l31 30c21 -32 48 -48 81 -48c56 0 84 37 84 110v86h-1v482h-70v53h70v81 c0 43 13 80 39 110c26 29 63 44 111 44z"></glyph><glyph glyph-name="section" unicode="§" d="M372 207c43 -27 64 -68 64 -123s-18 -97 -55 -125c-37 -29 -83 -43 -138 -43c-49 0 -91 12 -125 35s-58 56 -73 97l38 23c21 -35 43 -61 66 -77c23 -17 51 -25 86 -25c39 0 67 9 86 27c19 17 28 41 28 70c0 15 -3 27 -8 38s-11 19 -18 26s-17 13 -31 19 c-15 6 -27 11 -37 14c-11 3 -26 6 -47 11c-18 4 -34 9 -48 15c-14 5 -29 14 -46 25s-30 26 -39 45s-14 41 -14 67c0 63 26 105 79 128c-47 27 -71 69 -71 125c0 47 15 83 46 108c30 25 70 37 121 37c89 0 151 -39 184 -118l-38 -23c-17 31 -36 53 -56 66s-45 20 -76 20 c-63 0 -94 -25 -94 -75c0 -14 3 -26 9 -37s13 -20 20 -26s17 -11 31 -16c13 -5 23 -9 30 -10c6 -2 16 -4 29 -7c25 -5 47 -11 65 -18c17 -7 35 -16 52 -28s30 -27 39 -46s13 -42 13 -69c0 -61 -24 -104 -72 -130zM148 341c0 -14 3 -26 9 -37s13 -20 20 -26s17 -11 31 -16 c13 -5 23 -9 30 -10c6 -2 16 -4 29 -7c3 -1 9 -2 17 -3c7 -2 13 -4 16 -5c38 15 57 42 57 83c0 27 -8 47 -24 61s-40 25 -71 34c-4 1 -10 1 -17 1c-65 0 -97 -25 -97 -75z"></glyph><glyph glyph-name="currency" unicode="¤" d="M114 120l-61 61l86 67c-23 33 -34 68 -34 105c0 39 12 74 35 106l-86 67l60 60l67 -86c31 23 66 34 105 34c40 0 75 -11 106 -34l67 86l60 -61l-86 -67c23 -31 34 -66 34 -105c0 -38 -11 -73 -34 -106l86 -66l-61 -61l-66 86c-31 -22 -67 -33 -106 -33 c-40 0 -75 11 -106 34zM286 228c35 0 64 12 89 37c25 24 37 53 37 88s-12 65 -37 90c-25 24 -54 36 -89 36s-64 -12 -88 -37c-25 -25 -37 -54 -37 -89s12 -64 37 -88c24 -25 53 -37 88 -37z"></glyph><glyph glyph-name="quotesingle" unicode="'" d="M85 498l-17 267h88l-17 -267h-54z"></glyph><glyph glyph-name="quotedblleft" unicode="“" d="M195 741c-40 -43 -60 -82 -60 -117c0 -5 0 -8 1 -11l15 -3c12 -3 21 -10 28 -20s10 -21 10 -34c0 -15 -6 -28 -17 -39s-25 -17 -41 -17c-19 0 -35 8 -46 25s-17 37 -17 62c0 32 9 65 28 99c19 33 44 61 76 84c2 -3 10 -12 23 -29zM366 741c-40 -43 -60 -82 -60 -117 c0 -5 0 -8 1 -11l15 -3c12 -3 21 -10 28 -20s10 -21 10 -34c0 -15 -6 -28 -17 -39s-25 -17 -41 -17c-19 0 -35 8 -46 25s-17 37 -17 62c0 32 9 65 28 99c19 33 44 61 76 84c2 -3 10 -12 23 -29z"></glyph><glyph glyph-name="guillemotleft" unicode="«" d="M262 58l-222 205l222 204l36 -34l-139 -170l139 -171zM486 58l-223 205l223 204l35 -34l-138 -170l138 -171z"></glyph><glyph glyph-name="guilsinglleft" unicode="‹" d="M262 58l-222 205l222 204l36 -34l-139 -170l139 -171z"></glyph><glyph glyph-name="guilsinglright" unicode="›" d="M97 467l222 -205l-222 -204l-36 34l139 170l-139 171z"></glyph><glyph glyph-name="fi" unicode="ﬁ" d="M500 535v-535h-86v482h-230v-482h-86v482h-70v53h70v81c0 43 13 80 39 110c26 29 63 44 111 44c62 0 106 -24 132 -73l-31 -30c-21 32 -48 48 -81 48c-56 0 -84 -37 -84 -110v-70h316z"></glyph><glyph glyph-name="fl" unicode="ﬂ" d="M600 43l19 -25c-7 -7 -18 -13 -33 -19s-31 -9 -48 -9c-31 0 -60 12 -86 36c-27 24 -40 62 -40 115v565c-31 9 -67 13 -109 13c-41 0 -71 -7 -90 -22s-29 -47 -29 -97v-65h136v-53h-136v-482h-86v482h-70v53h70v40c0 49 4 85 12 107c19 59 80 88 185 88 c55 0 123 -11 203 -32v-600c0 -68 23 -102 70 -102c13 0 24 2 32 7z"></glyph><glyph glyph-name="endash" unicode="–" d="M72 242v53h444v-53h-444z"></glyph><glyph glyph-name="dagger" unicode="†" d="M424 610v-95l-167 19l22 -534h-96l22 534l-166 -19v95l164 -20l-20 170h96l-20 -170z"></glyph><glyph glyph-name="daggerdbl" unicode="‡" d="M185 760h97l-20 -169l165 20v-96l-165 20l20 -155l-20 -155l165 20v-96l-165 20l20 -169h-97l21 169l-165 -20v96l165 -20l-21 155l21 155l-165 -20v96l165 -20z"></glyph><glyph glyph-name="periodcentered" unicode="·" d="M194 353c0 -18 -6 -33 -19 -46s-28 -19 -45 -19c-19 0 -34 6 -47 19s-19 28 -19 46s6 33 19 46c13 12 28 18 47 18c17 0 32 -6 45 -18c13 -13 19 -28 19 -46z"></glyph><glyph glyph-name="paragraph" unicode="¶" d="M255 -127v445c-61 0 -113 22 -156 65s-65 95 -65 156s22 113 65 156s95 65 156 65h228v-887h-64v835h-100v-835h-64z"></glyph><glyph glyph-name="bullet" unicode="•" d="M320 365c0 -32 -11 -59 -34 -82s-51 -35 -83 -35c-33 0 -60 12 -83 35s-35 50 -35 82c0 33 12 61 35 84s50 34 83 34c32 0 60 -11 83 -34s34 -51 34 -84z"></glyph><glyph glyph-name="quotesinglbase" unicode="‚" d="M45 -132c40 43 60 82 60 117c0 5 0 8 -1 11l-15 3c-12 3 -21 10 -28 20s-10 21 -10 34c0 15 6 29 17 40s25 16 41 16c19 0 35 -8 46 -25s17 -37 17 -62c0 -32 -9 -65 -28 -98c-19 -34 -44 -62 -76 -85c-2 3 -10 12 -23 29z"></glyph><glyph glyph-name="quotedblbase" unicode="„" d="M45 -132c40 43 60 82 60 117c0 5 0 8 -1 11l-15 3c-12 3 -21 10 -28 20s-10 21 -10 34c0 15 6 29 17 40s25 16 41 16c19 0 35 -8 46 -25s17 -37 17 -62c0 -32 -9 -65 -28 -98c-19 -34 -44 -62 -76 -85c-2 3 -10 12 -23 29zM216 -132c40 43 60 82 60 117c0 5 0 8 -1 11 l-15 3c-12 3 -21 10 -28 20s-10 21 -10 34c0 15 6 29 17 40s25 16 41 16c19 0 35 -8 46 -25s17 -37 17 -62c0 -32 -9 -65 -28 -98c-19 -34 -44 -62 -76 -85c-2 3 -10 12 -23 29z"></glyph><glyph glyph-name="quotedblright" unicode="”" d="M70 529c40 43 60 82 60 117c0 5 0 8 -1 11l-15 3c-12 3 -21 10 -28 20s-10 21 -10 34c0 15 6 29 17 40s25 16 41 16c19 0 35 -8 46 -25s17 -37 17 -62c0 -32 -9 -65 -28 -98c-19 -34 -44 -62 -76 -85c-2 3 -10 12 -23 29zM241 529c40 43 60 82 60 117c0 5 0 8 -1 11 l-15 3c-12 3 -21 10 -28 20s-10 21 -10 34c0 15 6 29 17 40s25 16 41 16c19 0 35 -8 46 -25s17 -37 17 -62c0 -32 -9 -65 -28 -98c-19 -34 -44 -62 -76 -85c-2 3 -10 12 -23 29z"></glyph><glyph glyph-name="guillemotright" unicode="»" d="M96 467l223 -205l-223 -204l-35 34l138 170l-138 171zM320 467l222 -205l-222 -204l-36 34l139 170l-139 171z"></glyph><glyph glyph-name="ellipsis" unicode="…" d="M102 -4c-16 0 -30 6 -41 17s-17 25 -17 40s6 29 17 40s25 16 41 16c15 0 29 -5 40 -16s16 -25 16 -40s-5 -29 -16 -40s-25 -17 -40 -17zM363 -4c-16 0 -30 6 -41 17s-17 25 -17 40s6 29 17 40s25 16 41 16c15 0 29 -5 40 -16s16 -25 16 -40s-5 -29 -16 -40 s-25 -17 -40 -17zM624 -4c-16 0 -30 6 -41 17s-17 25 -17 40s6 29 17 40s25 16 41 16c15 0 29 -5 40 -16s16 -25 16 -40s-5 -29 -16 -40s-25 -17 -40 -17z"></glyph><glyph glyph-name="perthousand" unicode="‰" d="M202 720c51 0 91 -21 120 -62c29 -42 43 -95 43 -158s-14 -116 -43 -157c-29 -42 -69 -63 -120 -63s-91 21 -120 63c-29 41 -43 94 -43 157s14 116 43 158c29 41 69 62 120 62zM619 714h64l-401 -714h-64zM202 328c56 0 84 57 84 172s-28 172 -84 172 c-57 0 -85 -57 -85 -172s28 -172 85 -172zM699 434c51 0 91 -21 120 -62c29 -42 43 -95 43 -158s-14 -116 -43 -157c-29 -42 -69 -63 -120 -63s-91 21 -120 63c-29 41 -43 94 -43 157s14 116 43 158c29 41 69 62 120 62zM1103 434c51 0 91 -21 120 -62 c29 -42 43 -95 43 -158s-14 -116 -43 -157c-29 -42 -69 -63 -120 -63s-91 21 -120 63c-29 41 -43 94 -43 157s14 116 43 158c29 41 69 62 120 62zM699 42c56 0 84 57 84 172s-28 172 -84 172c-57 0 -85 -57 -85 -172s28 -172 85 -172zM1103 42c56 0 84 57 84 172 s-28 172 -84 172c-57 0 -85 -57 -85 -172s28 -172 85 -172z"></glyph><glyph glyph-name="questiondown" unicode="¿" d="M284 539c16 0 30 -6 41 -17s17 -25 17 -40s-6 -28 -17 -39s-25 -17 -41 -17c-15 0 -28 6 -39 17s-17 24 -17 39s6 29 17 40s24 17 39 17zM313 354c6 -49 1 -89 -16 -122s-43 -66 -78 -99c-4 -3 -12 -10 -23 -21l-21 -21s-9 -9 -17 -18s-13 -16 -15 -21 c-3 -5 -6 -12 -10 -20c-4 -9 -6 -17 -7 -26s-2 -18 -2 -29c0 -77 39 -115 116 -115c73 0 124 39 152 116l43 -18c-30 -99 -99 -149 -207 -149c-39 0 -71 6 -98 17s-47 27 -60 46s-23 38 -28 57s-8 38 -8 59c0 25 3 47 10 68c7 20 17 38 31 55c14 16 27 29 38 38s26 21 45 35 c66 46 99 102 99 168h56z"></glyph><glyph glyph-name="grave" unicode="`" d="M189 605l-149 156h112l105 -156h-68z"></glyph><glyph glyph-name="acute" unicode="´" d="M-256 605l104 156h113l-150 -156h-67z"></glyph><glyph glyph-name="circumflexmod" unicode="ˆ" d="M-356 605l102 154h112l102 -154h-68l-90 95l-90 -95h-68z"></glyph><glyph glyph-name="tildemod" unicode="˜" d="M-348 642v42c7 15 18 29 34 42c15 12 34 18 56 18c21 0 46 -8 77 -23c30 -16 51 -24 64 -24c26 0 52 16 77 47v-42c-7 -15 -18 -29 -33 -41c-16 -13 -35 -19 -57 -19c-20 0 -45 8 -76 24s-52 24 -65 24c-25 0 -50 -16 -77 -48z"></glyph><glyph glyph-name="macron" unicode="¯" d="M-335 631v50h295v-50h-295z"></glyph><glyph glyph-name="brevemod" unicode="˘" d="M-92 757h53c-1 -39 -14 -75 -40 -106c-26 -32 -64 -48 -115 -48c-50 0 -88 16 -113 48c-26 31 -40 67 -41 106h52c0 -21 9 -41 26 -58c17 -18 42 -27 76 -27s60 9 77 27c17 17 25 37 25 58z"></glyph><glyph glyph-name="dotaccentmod" unicode="˙" d="M-81 624c-15 0 -27 5 -37 15c-10 9 -15 21 -15 35c0 13 5 25 15 35s22 15 37 15c13 0 25 -5 35 -15c9 -10 14 -22 14 -35c0 -14 -5 -26 -14 -35c-10 -10 -22 -15 -35 -15z"></glyph><glyph glyph-name="dieresis" unicode="¨" d="M-268 646c-14 0 -26 5 -35 15c-10 9 -15 21 -15 34s5 25 15 35c9 9 21 14 35 14c13 0 25 -5 34 -14c9 -10 14 -22 14 -35s-5 -25 -14 -34c-9 -10 -21 -15 -34 -15zM-99 646c-13 0 -25 5 -35 15c-10 9 -15 21 -15 34s5 25 15 35c10 9 22 14 35 14s25 -5 35 -14 c9 -10 14 -22 14 -35s-5 -25 -14 -34c-10 -10 -22 -15 -35 -15z"></glyph><glyph glyph-name="ringmod" unicode="˚" d="M-140 793c28 0 52 -10 72 -31c19 -21 29 -45 29 -74s-10 -54 -29 -74c-20 -21 -44 -31 -72 -31c-27 0 -51 10 -71 31s-30 45 -30 74s10 53 30 74s44 31 71 31zM-140 623c14 0 26 6 36 18c9 11 14 27 14 47c0 19 -5 35 -14 47c-10 11 -22 17 -36 17s-26 -6 -35 -17 c-10 -12 -15 -28 -15 -47c0 -20 5 -36 15 -47c9 -12 21 -18 35 -18z"></glyph><glyph glyph-name="cedilla" unicode="¸" d="M-148 -241c-35 0 -64 8 -87 24l14 28c18 -11 39 -16 62 -16c20 0 36 5 49 14c12 9 18 20 18 32c0 29 -33 51 -98 68l46 99h43l-25 -55c23 -5 44 -16 61 -33s26 -40 26 -69c0 -23 -7 -42 -20 -57s-27 -24 -42 -28c-15 -5 -31 -7 -47 -7z"></glyph><glyph glyph-name="doubleacutemod" unicode="˝" d="M-401 605l104 156h113l-150 -156h-67zM-257 605l104 156h113l-150 -156h-67z"></glyph><glyph glyph-name="ogonekmod" unicode="˛" d="M-117 -215c-29 0 -54 10 -75 30s-32 44 -32 72c0 25 8 48 24 71c15 22 32 40 51 55h51v-7c-19 -11 -37 -28 -54 -50c-18 -22 -24 -44 -19 -67c2 -13 8 -22 17 -29s19 -10 29 -10c14 0 28 6 43 17l43 -61c-22 -14 -48 -21 -78 -21z"></glyph><glyph glyph-name="caronmod" unicode="ˇ" d="M142 605l-102 154h68l90 -95l90 95h68l-102 -154h-112z"></glyph><glyph glyph-name="emdash" unicode="—" d="M72 242v53h763v-53h-763z"></glyph><glyph glyph-name="AE" unicode="Æ" d="M514 54h386v-54h-474v238h-234l-131 -238h-61l393 714h505v-54h-384v-270h329v-54h-329v-282zM222 292h204v369z"></glyph><glyph glyph-name="ordfeminine" unicode="ª" d="M134 394c-35 0 -63 9 -82 28s-29 42 -29 70s10 52 30 71s47 28 81 28c16 0 32 -2 47 -6c15 -5 27 -9 34 -13l11 -6v46c0 47 -21 71 -63 71c-17 0 -32 -4 -46 -12c-15 -9 -25 -17 -31 -26l-8 -13l-35 17c27 52 73 78 136 78c40 0 71 -10 92 -30c21 -21 32 -50 32 -87v-210 h-77v23c-28 -19 -59 -29 -92 -29zM164 438c10 0 20 2 31 5c10 3 18 6 23 9l8 4v77l-8 3c-5 2 -13 4 -23 7s-20 4 -29 4c-19 0 -34 -5 -47 -14c-13 -10 -19 -24 -19 -41s6 -31 19 -40s28 -14 45 -14z"></glyph><glyph glyph-name="Lslash" unicode="Ł" d="M181 54h380v-54h-468v248l-45 -27l-33 57l78 46v390h88v-339l134 79l33 -56l-167 -99v-245z"></glyph><glyph glyph-name="Oslash" unicode="Ø" d="M613 639c39 -34 69 -76 92 -125c22 -49 33 -102 33 -157c0 -101 -34 -188 -102 -259c-68 -72 -150 -108 -246 -108c-63 0 -122 17 -176 50l-27 -40h-72l51 76c-39 35 -69 76 -91 125s-33 101 -33 156c0 101 34 188 102 260c68 71 150 107 246 107c62 0 120 -16 174 -49 l26 39h73zM132 357c0 -89 24 -163 73 -222l324 487c-42 31 -88 46 -139 46c-75 0 -136 -30 -185 -89c-49 -60 -73 -134 -73 -222zM390 46c74 0 136 30 185 90c49 59 73 133 73 221c0 89 -25 163 -74 223l-325 -487c42 -31 89 -47 141 -47z"></glyph><glyph glyph-name="OE" unicode="Œ" d="M705 54h386v-54h-474v68c-62 -52 -138 -78 -227 -78c-105 0 -189 37 -252 112c-64 74 -96 161 -96 262c0 72 17 136 52 192s79 98 132 126s110 42 169 42c90 0 164 -30 222 -89v79h472v-54h-384v-270h329v-54h-329v-282zM402 46c82 0 154 32 215 96v414 c-33 38 -66 66 -100 85c-34 18 -73 27 -117 27c-81 0 -146 -28 -195 -83c-49 -56 -73 -130 -73 -223c0 -91 24 -167 72 -226c47 -60 113 -90 198 -90z"></glyph><glyph glyph-name="ordmasculine" unicode="º" d="M195 395c-47 0 -87 16 -120 49c-33 32 -49 71 -49 118s16 86 49 118c32 32 72 48 120 48c47 0 86 -16 119 -48c32 -32 48 -71 48 -118s-16 -86 -48 -118c-33 -33 -72 -49 -119 -49zM195 440c25 0 47 12 64 36s25 53 25 86s-8 62 -25 86c-17 23 -39 35 -64 35 s-47 -12 -64 -35c-17 -24 -26 -53 -26 -86s9 -62 26 -86s39 -36 64 -36z"></glyph><glyph glyph-name="ae" unicode="æ" d="M669 44c32 0 60 6 84 19c24 12 49 32 75 60l38 -25c-49 -72 -120 -108 -213 -108c-91 0 -162 31 -215 94c-66 -63 -138 -94 -215 -94c-55 0 -100 14 -136 43c-37 29 -55 68 -55 119c0 52 19 93 56 122s82 44 136 44c23 0 47 -3 72 -8c25 -6 44 -12 58 -17 c13 -5 20 -9 21 -10v88c0 31 -9 59 -28 84c-19 24 -49 36 -90 36c-64 0 -117 -33 -158 -100l-40 27c50 85 124 127 222 127c81 0 135 -31 161 -92c51 61 115 92 192 92c69 0 127 -25 175 -75c48 -51 72 -119 72 -204h-418c0 -26 4 -51 11 -76s19 -48 34 -70 c15 -23 37 -41 65 -55c27 -14 59 -21 96 -21zM637 491c-39 0 -74 -16 -106 -49s-53 -73 -63 -122h326c-1 43 -18 83 -49 118s-67 53 -108 53zM245 43c30 0 60 7 91 21c31 13 57 30 80 49c-24 38 -37 80 -40 127c-40 16 -80 24 -121 24c-38 0 -70 -9 -97 -26s-40 -46 -40 -85 s13 -67 40 -84s56 -26 87 -26z"></glyph><glyph glyph-name="idotless" unicode="ı" d="M72 0v535h86v-535h-86z"></glyph><glyph glyph-name="lslash" unicode="ł" d="M292 59l19 -42c-19 -18 -46 -27 -80 -27c-33 0 -62 12 -88 37c-27 24 -40 62 -40 114v149l-41 -24l-34 56l75 44v394h86v-344l88 52l33 -57l-121 -71v-187c0 -37 7 -64 21 -79s31 -23 50 -23c15 0 25 3 32 8z"></glyph><glyph glyph-name="oslash" unicode="ø" d="M484 480c60 -53 90 -123 90 -212c0 -81 -25 -147 -76 -199c-51 -53 -115 -79 -192 -79c-47 0 -90 10 -129 31l-14 -21h-72l37 55c-60 53 -90 124 -90 213c0 80 25 146 76 199c51 52 115 78 192 78c47 0 90 -10 129 -31l14 21h71zM126 268c0 -54 15 -103 46 -147l226 338 c-29 21 -59 32 -92 32c-49 0 -91 -22 -126 -66s-53 -96 -54 -157zM306 44c50 0 93 22 128 67c35 44 52 96 52 157c0 57 -15 106 -46 148l-226 -339c28 -22 59 -33 92 -33z"></glyph><glyph glyph-name="oe" unicode="œ" d="M782 44c32 0 60 6 84 19c24 12 49 32 75 60l38 -25c-49 -72 -120 -108 -213 -108c-51 0 -97 11 -137 32c-41 21 -73 51 -98 89c-24 -38 -55 -68 -94 -89s-83 -32 -131 -32c-77 0 -141 26 -192 79c-51 52 -76 118 -76 199c0 80 25 146 76 199c51 52 115 78 192 78 c49 0 93 -11 132 -32c39 -22 71 -52 95 -91c23 38 54 68 91 90s78 33 123 33c69 0 127 -25 175 -75c48 -51 72 -119 72 -204h-418c0 -26 4 -51 11 -76s19 -48 34 -70c15 -23 37 -41 65 -55c27 -14 59 -21 96 -21zM306 44c50 0 93 22 128 67c35 44 52 96 52 157 s-17 113 -52 157s-78 66 -128 66c-49 0 -91 -22 -126 -66s-53 -96 -54 -157c1 -61 19 -113 54 -157c35 -45 77 -67 126 -67zM750 491c-39 0 -74 -16 -106 -49s-53 -73 -63 -122h326c-1 43 -18 83 -49 118s-67 53 -108 53z"></glyph><glyph glyph-name="germandbls" unicode="ß" d="M250 -10v54c67 14 120 35 159 64c38 29 57 69 57 122c0 51 -18 93 -54 126c-36 32 -82 53 -138 62v46c41 0 73 12 98 37s37 56 37 93c0 35 -11 64 -34 87s-58 34 -104 34c-42 0 -71 -10 -88 -30c-17 -21 -25 -51 -25 -91v-594h-86v593c0 51 15 93 46 127 c31 33 81 50 151 50c73 0 129 -18 168 -54s59 -77 59 -122c0 -32 -9 -61 -28 -88s-44 -48 -73 -61c41 -11 77 -36 110 -73c33 -38 49 -86 49 -143c0 -53 -16 -98 -47 -135s-69 -64 -113 -80c-45 -16 -93 -24 -144 -24z"></glyph><glyph glyph-name="onesuperior" unicode="¹" d="M180 764h77v-381h80v-47h-242v47h85v320l-80 -75l-31 33z"></glyph><glyph glyph-name="logicalnot" unicode="¬" d="M72 383h472v-254h-63v202h-409v52z"></glyph><glyph glyph-name="mu" unicode="µ" d="M432 535h86v-535h-86v68c-40 -53 -101 -79 -184 -79c-36 0 -66 6 -91 18v-248h-85v776h86v-371c0 -36 11 -65 33 -87c22 -23 52 -34 90 -34c60 0 110 29 151 86v406z"></glyph><glyph glyph-name="trademark" unicode="™" d="M172 362v315h-110v37h282v-37h-110v-315h-62zM391 362v352h72l106 -159l104 159h60v-352h-60v283l-116 -180l-129 193v-296h-37z"></glyph><glyph glyph-name="Eth" unicode="Ð" d="M355 714c99 0 181 -35 248 -105c67 -71 100 -155 100 -252c0 -98 -34 -182 -101 -252c-68 -70 -149 -105 -243 -105h-253v327h-72v54h72v333h249zM365 54c79 0 140 29 183 86s64 129 64 218c0 90 -22 163 -65 219c-44 55 -105 83 -182 83h-171v-279l186 1v-55h-186v-273 h171z"></glyph><glyph glyph-name="onehalf" unicode="½" d="M180 714h77v-381h80v-47h-242v47h85v320l-80 -75l-31 33zM619 714h64l-401 -714h-64zM553 0v47l141 161c38 42 57 80 57 113c0 20 -7 36 -20 48c-14 11 -33 17 -58 17c-37 0 -64 -13 -83 -39l-28 24c26 42 71 63 134 63c42 0 75 -10 98 -30s35 -47 35 -80 c0 -35 -20 -75 -59 -119c-8 -9 -54 -59 -139 -149h209v-56h-287z"></glyph><glyph glyph-name="plusminus" unicode="±" d="M523 411v-69h-198v-208h-74v208h-198v69h198v208h74v-208h198zM51 69h471v-69h-471v69z"></glyph><glyph glyph-name="Thorn" unicode="Þ" d="M83 -1454v0h2c0 -1 1 -1 3 -1c1 0 2 0 4 1h1h1v0v0v1v0c-1 0 -1 1 -1 1c-1 0 -1 1 -2 1h-1v0v0v-1c-1 0 -1 0 -2 -1h-1h-1v0v0v0v0v0v0c2 0 3 1 4 2c0 0 1 1 1 2h1v1c0 1 1 1 1 1v0v1v0h-2c0 0 -1 0 -2 -1c-1 0 -1 0 -1 -1v0v0v0v0c0 -2 -1 -3 -1 -3c0 -1 -1 -1 -1 -1 c0 -1 0 -1 -1 -1v0v0v0v1c1 0 2 1 2 1v3v3s0 1 -1 1v0v1v1v0v0s-1 0 -1 -1v0l-1 -1v-3v-1v-1v-1v0v0c1 0 1 -1 1 -1s0 -1 -1 -1v0v0v0v0v0v0v0v0v0c1 0 1 1 1 1v1h-2h-1v-1s0 -1 1 -1v0v0v0v0v0h-1v0v0v0l-1 1l1 1v0h1v1v1v1s0 2 -1 3c0 1 -1 1 -1 1v0v0v1v0h-1v-1v-1v0v-1 s-1 -2 -1 -3s0 -2 1 -3l1 -1c0 -1 1 -1 1 -1v0v0h-1v1c0 0 -1 0 -1 1c-1 0 -1 1 -1 3v0v0v0c0 1 -1 1 -1 1c-1 1 -2 1 -3 1h-1v0v-1v0l1 -1v-1v0c1 -1 1 -2 2 -2c1 -1 2 -2 4 -2v0v0v0v0h-1v0h-1c-1 1 -2 1 -2 1v1v0v0h-1c-1 0 -1 -1 -2 -1l-1 -1v0v-1v0v0h1h1 c1 -1 3 -1 4 -1s2 0 3 1h1v0zM83 -1454v0h2c0 -1 1 -1 3 -1c1 0 2 0 4 1h1h1v0v0v1v0c-1 0 -1 1 -1 1c-1 0 -1 1 -2 1h-1v0v0v-1c-1 0 -1 0 -2 -1h-1h-1v0v0v0v0v0v0c2 0 3 1 4 2c0 0 1 1 1 2h1v1c0 1 1 1 1 1v0v1v0h-2c0 0 -1 0 -2 -1c-1 0 -1 0 -1 -1v0v0v0v0 c0 -2 -1 -3 -1 -3c0 -1 -1 -1 -1 -1c0 -1 0 -1 -1 -1v0v0v0v1c1 0 2 1 2 1v3v3s0 1 -1 1v0v1v1v0v0s-1 0 -1 -1v0l-1 -1v-3v-1v-1v-1v0v0c1 0 1 -1 1 -1s0 -1 -1 -1v0v0v0v0v0v0v0v0v0c1 0 1 1 1 1v1h-2h-1v-1s0 -1 1 -1v0v0v0v0v0h-1v0v0v0l-1 1l1 1v0h1v1v1v1s0 2 -1 3 c0 1 -1 1 -1 1v0v0v1v0h-1v-1v-1v0v-1s-1 -2 -1 -3s0 -2 1 -3l1 -1c0 -1 1 -1 1 -1v0v0h-1v1c0 0 -1 0 -1 1c-1 0 -1 1 -1 3v0v0v0c0 1 -1 1 -1 1c-1 1 -2 1 -3 1h-1v0v-1v0l1 -1v-1v0c1 -1 1 -2 2 -2c1 -1 2 -2 4 -2v0v0v0v0h-1v0h-1c-1 1 -2 1 -2 1v1v0v0h-1 c-1 0 -1 -1 -2 -1l-1 -1v0v-1v0v0h1h1c1 -1 3 -1 4 -1s2 0 3 1h1v0zM642 68c1 -1 3 -2 5 -4c5 -4 14 -9 25 -16c12 -7 26 -13 44 -20c18 -8 39 -14 64 -19c24 -5 52 -7 83 -7c25 0 50 2 74 7c25 4 49 9 71 15c23 7 44 13 63 19c36 11 62 18 78 18c14 0 25 -2 34 -6 c8 -3 15 -3 20 1c4 3 6 7 6 13c-1 4 -5 11 -10 18l-15 21c-13 17 -30 32 -51 47c-29 18 -55 29 -79 33c-23 4 -41 4 -53 2h-1c-2 0 -5 -1 -10 -3s-11 -7 -18 -14c-21 -19 -46 -38 -75 -57c-30 -18 -59 -30 -86 -36h-11c-4 -1 -9 -1 -13 0s-6 2 -6 4s0 3 1 3c1 1 2 2 4 2 c1 1 2 1 3 1v0c42 11 77 25 106 44c28 18 53 39 76 60c38 37 68 77 90 121c3 6 6 12 9 20c8 18 19 37 31 57s27 35 46 45c3 2 5 5 6 8c1 4 0 8 -3 12c-2 3 -7 6 -14 8c-5 1 -17 2 -36 2c-20 0 -44 -3 -73 -9c-29 -7 -61 -19 -97 -38c-20 -11 -34 -22 -42 -32 s-13 -17 -13 -21v0s-1 0 -1 -1c0 0 0 -1 -1 -2c0 -1 0 -2 -1 -3v-6c-3 -49 -10 -89 -22 -119c-13 -30 -27 -53 -42 -69s-28 -28 -39 -35c-7 -5 -14 -8 -20 -10c-7 -2 -11 -2 -14 0v3c1 1 2 3 3 4s3 2 4 3c44 30 74 64 90 103c15 38 23 78 24 121c2 35 -2 69 -11 101 c-9 31 -19 61 -31 88c-4 9 -7 19 -11 28c-2 5 -5 15 -8 30c-3 16 -2 32 2 49c3 11 3 19 1 23c-3 4 -7 6 -14 7c-6 0 -12 -4 -19 -11s-12 -13 -16 -19c-1 0 -2 -1 -2 -2c-3 -3 -8 -10 -16 -21s-18 -29 -31 -54c-16 -33 -27 -65 -34 -97c-7 -31 -12 -58 -13 -80 c-2 -22 -2 -35 -2 -40c0 -23 2 -39 5 -50c3 -12 8 -20 14 -25c7 -5 15 -10 25 -15c1 0 2 -1 3 -1c14 -6 25 -13 32 -23c8 -10 11 -21 11 -32s-4 -21 -12 -29c-7 -8 -19 -16 -34 -22h-1c-1 -1 -2 -1 -3 -2h-3c-7 -2 -13 -2 -17 -1c-5 1 -7 3 -8 5c0 1 1 2 2 3c2 1 3 2 5 2 c2 1 3 1 4 1c2 0 2 1 2 1c34 9 50 23 50 42c0 13 -8 25 -24 36s-35 16 -58 16h-2h-3c-23 0 -42 -5 -58 -16s-24 -23 -24 -36c0 -19 17 -33 50 -42c0 0 0 -1 2 -1c1 0 3 0 4 -1c2 0 3 -1 5 -2c1 -1 2 -2 2 -3c0 -2 -3 -4 -7 -5c-5 -1 -11 -1 -18 1h-2c-1 1 -2 1 -3 1 c0 0 -1 1 -2 1c-15 6 -26 14 -34 22s-12 18 -12 29s3 21 11 31c7 11 18 18 32 24c1 1 2 1 3 1c10 5 19 10 25 15c7 5 11 14 14 25s5 27 5 50c0 4 0 17 -2 40c-1 22 -5 49 -12 80c-7 32 -19 64 -35 97c-12 24 -22 42 -30 53s-13 18 -16 21v1l-3 3c-4 6 -10 12 -16 19 c-7 6 -13 10 -19 10c-6 -1 -11 -3 -13 -7c-3 -4 -3 -12 0 -23c4 -17 5 -33 2 -49c-3 -15 -6 -25 -8 -30c-4 -9 -7 -18 -11 -28c-11 -27 -22 -56 -31 -88s-13 -65 -11 -101c1 -43 9 -83 24 -121c16 -39 46 -73 90 -103c2 -1 3 -2 4 -3s2 -3 3 -4s1 -2 0 -3c-2 -2 -7 -2 -14 0 c-6 2 -13 5 -19 10c-12 7 -25 19 -40 35s-29 39 -42 69c-12 30 -19 70 -22 119v5s-1 2 -1 3v2c-1 1 -1 1 -1 2h-1v0c0 4 -5 11 -13 21s-22 21 -42 32c-35 19 -67 31 -97 38c-29 6 -53 9 -72 9c-20 0 -32 -1 -37 -2c-7 -2 -11 -5 -14 -8c-3 -4 -4 -8 -3 -12c1 -3 3 -6 7 -8 c18 -10 33 -25 45 -45c12 -19 23 -39 31 -57c3 -8 6 -14 9 -20c22 -44 52 -84 90 -121c23 -21 48 -42 76 -60c29 -19 64 -34 106 -44c1 0 2 0 3 -1c2 0 3 -1 4 -2c1 0 2 -1 2 -3c-1 -2 -3 -3 -7 -4s-9 -1 -13 0h-11c-27 6 -56 18 -86 36c-29 19 -54 38 -74 57 c-8 7 -14 12 -19 14s-8 3 -10 3h-1c-12 2 -30 2 -53 -2c-24 -4 -50 -15 -79 -33c-21 -15 -38 -31 -51 -47l-15 -21s-9 -14 -10 -18c0 -6 2 -10 7 -13c4 -4 11 -4 19 -1c9 4 20 6 34 6c16 0 42 -6 78 -18c19 -6 40 -12 63 -19c22 -6 46 -11 71 -15c24 -5 49 -7 74 -7 c31 0 59 2 84 7c24 5 45 12 63 19s33 14 44 20c12 7 20 12 25 16c3 2 4 3 6 4z"></glyph><glyph glyph-name="onequarter" unicode="¼" d="M180 714h77v-381h80v-47h-242v47h85v320l-80 -75l-31 33zM619 714h64l-401 -714h-64zM774 159h50v-47h-50v-112h-77v112h-200v47l200 274h77v-274zM697 159v191l-139 -191h139z"></glyph><glyph glyph-name="divide" unicode="÷" d="M302 472c-14 0 -26 5 -36 15c-10 9 -15 21 -15 34s5 25 15 35s22 15 36 15c13 0 24 -5 34 -15c9 -10 14 -22 14 -35s-5 -25 -14 -34c-10 -10 -21 -15 -34 -15zM66 327v52h472v-52h-472zM302 135c-14 0 -26 5 -36 15s-15 22 -15 35s5 25 15 35c10 9 22 14 36 14 c13 0 24 -5 34 -14c9 -10 14 -22 14 -35s-5 -25 -14 -35c-10 -10 -21 -15 -34 -15z"></glyph><glyph glyph-name="brokenbar" unicode="¦" d="M150 337h-63v423h63v-423zM87 183h63v-424h-63v424z"></glyph><glyph glyph-name="degree" unicode="°" d="M195 395c-47 0 -87 16 -120 49c-33 32 -49 71 -49 118s16 86 49 118c32 32 72 48 120 48c47 0 86 -16 119 -48c32 -32 48 -71 48 -118s-16 -86 -48 -118c-33 -33 -72 -49 -119 -49zM195 440c25 0 47 12 64 36s25 53 25 86s-8 62 -25 86c-17 23 -39 35 -64 35 s-47 -12 -64 -35c-17 -24 -26 -53 -26 -86s9 -62 26 -86s39 -36 64 -36z"></glyph><glyph glyph-name="thorn" unicode="þ" d="M83 -1454v0h2c0 -1 1 -1 3 -1c1 0 2 0 4 1h1h1v0v0v1v0c-1 0 -1 1 -1 1c-1 0 -1 1 -2 1h-1v0v0v-1c-1 0 -1 0 -2 -1h-1h-1v0v0v0v0v0v0c2 0 3 1 4 2c0 0 1 1 1 2h1v1c0 1 1 1 1 1v0v1v0h-2c0 0 -1 0 -2 -1c-1 0 -1 0 -1 -1v0v0v0v0c0 -2 -1 -3 -1 -3c0 -1 -1 -1 -1 -1 c0 -1 0 -1 -1 -1v0v0v0v1c1 0 2 1 2 1v3v3s0 1 -1 1v0v1v1v0v0s-1 0 -1 -1v0l-1 -1v-3v-1v-1v-1v0v0c1 0 1 -1 1 -1s0 -1 -1 -1v0v0v0v0v0v0v0v0v0c1 0 1 1 1 1v1h-2h-1v-1s0 -1 1 -1v0v0v0v0v0h-1v0v0v0l-1 1l1 1v0h1v1v1v1s0 2 -1 3c0 1 -1 1 -1 1v0v0v1v0h-1v-1v-1v0v-1 s-1 -2 -1 -3s0 -2 1 -3l1 -1c0 -1 1 -1 1 -1v0v0h-1v1c0 0 -1 0 -1 1c-1 0 -1 1 -1 3v0v0v0c0 1 -1 1 -1 1c-1 1 -2 1 -3 1h-1v0v-1v0l1 -1v-1v0c1 -1 1 -2 2 -2c1 -1 2 -2 4 -2v0v0v0v0h-1v0h-1c-1 1 -2 1 -2 1v1v0v0h-1c-1 0 -1 -1 -2 -1l-1 -1v0v-1v0v0h1h1 c1 -1 3 -1 4 -1s2 0 3 1h1v0zM83 -1454v0h2c0 -1 1 -1 3 -1c1 0 2 0 4 1h1h1v0v0v1v0c-1 0 -1 1 -1 1c-1 0 -1 1 -2 1h-1v0v0v-1c-1 0 -1 0 -2 -1h-1h-1v0v0v0v0v0v0c2 0 3 1 4 2c0 0 1 1 1 2h1v1c0 1 1 1 1 1v0v1v0h-2c0 0 -1 0 -2 -1c-1 0 -1 0 -1 -1v0v0v0v0 c0 -2 -1 -3 -1 -3c0 -1 -1 -1 -1 -1c0 -1 0 -1 -1 -1v0v0v0v1c1 0 2 1 2 1v3v3s0 1 -1 1v0v1v1v0v0s-1 0 -1 -1v0l-1 -1v-3v-1v-1v-1v0v0c1 0 1 -1 1 -1s0 -1 -1 -1v0v0v0v0v0v0v0v0v0c1 0 1 1 1 1v1h-2h-1v-1s0 -1 1 -1v0v0v0v0v0h-1v0v0v0l-1 1l1 1v0h1v1v1v1s0 2 -1 3 c0 1 -1 1 -1 1v0v0v1v0h-1v-1v-1v0v-1s-1 -2 -1 -3s0 -2 1 -3l1 -1c0 -1 1 -1 1 -1v0v0h-1v1c0 0 -1 0 -1 1c-1 0 -1 1 -1 3v0v0v0c0 1 -1 1 -1 1c-1 1 -2 1 -3 1h-1v0v-1v0l1 -1v-1v0c1 -1 1 -2 2 -2c1 -1 2 -2 4 -2v0v0v0v0h-1v0h-1c-1 1 -2 1 -2 1v1v0v0h-1 c-1 0 -1 -1 -2 -1l-1 -1v0v-1v0v0h1h1c1 -1 3 -1 4 -1s2 0 3 1h1v0zM642 68c1 -1 3 -2 5 -4c5 -4 14 -9 25 -16c12 -7 26 -13 44 -20c18 -8 39 -14 64 -19c24 -5 52 -7 83 -7c25 0 50 2 74 7c25 4 49 9 71 15c23 7 44 13 63 19c36 11 62 18 78 18c14 0 25 -2 34 -6 c8 -3 15 -3 20 1c4 3 6 7 6 13c-1 4 -5 11 -10 18l-15 21c-13 17 -30 32 -51 47c-29 18 -55 29 -79 33c-23 4 -41 4 -53 2h-1c-2 0 -5 -1 -10 -3s-11 -7 -18 -14c-21 -19 -46 -38 -75 -57c-30 -18 -59 -30 -86 -36h-11c-4 -1 -9 -1 -13 0s-6 2 -6 4s0 3 1 3c1 1 2 2 4 2 c1 1 2 1 3 1v0c42 11 77 25 106 44c28 18 53 39 76 60c38 37 68 77 90 121c3 6 6 12 9 20c8 18 19 37 31 57s27 35 46 45c3 2 5 5 6 8c1 4 0 8 -3 12c-2 3 -7 6 -14 8c-5 1 -17 2 -36 2c-20 0 -44 -3 -73 -9c-29 -7 -61 -19 -97 -38c-20 -11 -34 -22 -42 -32 s-13 -17 -13 -21v0s-1 0 -1 -1c0 0 0 -1 -1 -2c0 -1 0 -2 -1 -3v-6c-3 -49 -10 -89 -22 -119c-13 -30 -27 -53 -42 -69s-28 -28 -39 -35c-7 -5 -14 -8 -20 -10c-7 -2 -11 -2 -14 0v3c1 1 2 3 3 4s3 2 4 3c44 30 74 64 90 103c15 38 23 78 24 121c2 35 -2 69 -11 101 c-9 31 -19 61 -31 88c-4 9 -7 19 -11 28c-2 5 -5 15 -8 30c-3 16 -2 32 2 49c3 11 3 19 1 23c-3 4 -7 6 -14 7c-6 0 -12 -4 -19 -11s-12 -13 -16 -19c-1 0 -2 -1 -2 -2c-3 -3 -8 -10 -16 -21s-18 -29 -31 -54c-16 -33 -27 -65 -34 -97c-7 -31 -12 -58 -13 -80 c-2 -22 -2 -35 -2 -40c0 -23 2 -39 5 -50c3 -12 8 -20 14 -25c7 -5 15 -10 25 -15c1 0 2 -1 3 -1c14 -6 25 -13 32 -23c8 -10 11 -21 11 -32s-4 -21 -12 -29c-7 -8 -19 -16 -34 -22h-1c-1 -1 -2 -1 -3 -2h-3c-7 -2 -13 -2 -17 -1c-5 1 -7 3 -8 5c0 1 1 2 2 3c2 1 3 2 5 2 c2 1 3 1 4 1c2 0 2 1 2 1c34 9 50 23 50 42c0 13 -8 25 -24 36s-35 16 -58 16h-2h-3c-23 0 -42 -5 -58 -16s-24 -23 -24 -36c0 -19 17 -33 50 -42c0 0 0 -1 2 -1c1 0 3 0 4 -1c2 0 3 -1 5 -2c1 -1 2 -2 2 -3c0 -2 -3 -4 -7 -5c-5 -1 -11 -1 -18 1h-2c-1 1 -2 1 -3 1 c0 0 -1 1 -2 1c-15 6 -26 14 -34 22s-12 18 -12 29s3 21 11 31c7 11 18 18 32 24c1 1 2 1 3 1c10 5 19 10 25 15c7 5 11 14 14 25s5 27 5 50c0 4 0 17 -2 40c-1 22 -5 49 -12 80c-7 32 -19 64 -35 97c-12 24 -22 42 -30 53s-13 18 -16 21v1l-3 3c-4 6 -10 12 -16 19 c-7 6 -13 10 -19 10c-6 -1 -11 -3 -13 -7c-3 -4 -3 -12 0 -23c4 -17 5 -33 2 -49c-3 -15 -6 -25 -8 -30c-4 -9 -7 -18 -11 -28c-11 -27 -22 -56 -31 -88s-13 -65 -11 -101c1 -43 9 -83 24 -121c16 -39 46 -73 90 -103c2 -1 3 -2 4 -3s2 -3 3 -4s1 -2 0 -3c-2 -2 -7 -2 -14 0 c-6 2 -13 5 -19 10c-12 7 -25 19 -40 35s-29 39 -42 69c-12 30 -19 70 -22 119v5s-1 2 -1 3v2c-1 1 -1 1 -1 2h-1v0c0 4 -5 11 -13 21s-22 21 -42 32c-35 19 -67 31 -97 38c-29 6 -53 9 -72 9c-20 0 -32 -1 -37 -2c-7 -2 -11 -5 -14 -8c-3 -4 -4 -8 -3 -12c1 -3 3 -6 7 -8 c18 -10 33 -25 45 -45c12 -19 23 -39 31 -57c3 -8 6 -14 9 -20c22 -44 52 -84 90 -121c23 -21 48 -42 76 -60c29 -19 64 -34 106 -44c1 0 2 0 3 -1c2 0 3 -1 4 -2c1 0 2 -1 2 -3c-1 -2 -3 -3 -7 -4s-9 -1 -13 0h-11c-27 6 -56 18 -86 36c-29 19 -54 38 -74 57 c-8 7 -14 12 -19 14s-8 3 -10 3h-1c-12 2 -30 2 -53 -2c-24 -4 -50 -15 -79 -33c-21 -15 -38 -31 -51 -47l-15 -21s-9 -14 -10 -18c0 -6 2 -10 7 -13c4 -4 11 -4 19 -1c9 4 20 6 34 6c16 0 42 -6 78 -18c19 -6 40 -12 63 -19c22 -6 46 -11 71 -15c24 -5 49 -7 74 -7 c31 0 59 2 84 7c24 5 45 12 63 19s33 14 44 20c12 7 20 12 25 16c3 2 4 3 6 4z"></glyph><glyph glyph-name="threequarters" unicode="¾" d="M82 372c23 -29 55 -44 96 -44c29 0 52 8 69 23s25 35 25 60c0 17 -4 32 -12 44c-8 11 -19 19 -34 24s-28 8 -41 10c-13 1 -27 2 -44 2v43c75 0 112 24 112 73c0 21 -6 37 -19 48s-32 17 -55 17c-37 0 -64 -13 -82 -39l-28 24c11 19 29 34 52 46c23 11 48 17 77 17 c35 0 66 -8 93 -25c26 -17 39 -43 39 -77c0 -28 -9 -51 -27 -68c-18 -18 -40 -29 -67 -33c32 -4 59 -15 81 -34c21 -19 32 -44 32 -75c0 -33 -12 -62 -36 -88c-25 -27 -64 -40 -117 -40c-65 0 -112 23 -142 68zM619 714h64l-401 -714h-64zM774 159h50v-47h-50v-112h-77v112 h-200v47l200 274h77v-274zM697 159v191l-139 -191h139z"></glyph><glyph glyph-name="twosuperior" unicode="²" d="M56 336v47l141 161c38 42 57 80 57 113c0 20 -7 36 -20 48c-14 11 -33 17 -58 17c-37 0 -64 -13 -83 -39l-28 24c26 42 71 63 134 63c42 0 75 -10 98 -30s35 -47 35 -80c0 -35 -20 -75 -59 -119c-8 -9 -54 -59 -139 -149h209v-56h-287z"></glyph><glyph glyph-name="registered" unicode="®" d="M409 -10c-101 0 -188 36 -259 108c-72 71 -108 158 -108 259s36 188 108 260c71 71 158 107 259 107s188 -36 260 -107c71 -72 107 -159 107 -260s-36 -188 -107 -259c-72 -72 -159 -108 -260 -108zM409 36c89 0 164 31 227 94s94 138 94 227s-31 164 -94 227 s-138 94 -227 94s-164 -31 -227 -94s-94 -138 -94 -227s31 -164 94 -227s138 -94 227 -94zM250 145v427h181c39 0 71 -12 96 -35c25 -24 38 -55 38 -93c0 -54 -23 -91 -70 -111l100 -188h-96l-90 175h-9h-67v-175h-83zM333 371h85c43 0 64 24 64 72c0 25 -6 44 -17 58 c-12 13 -28 20 -49 20h-83v-150z"></glyph><glyph glyph-name="minus" unicode="−" d="M67 388h471v-69h-471v69z"></glyph><glyph glyph-name="eth" unicode="ð" d="M443 648c87 -83 131 -196 131 -337c0 -60 -8 -112 -23 -155c-16 -44 -37 -77 -63 -100c-27 -23 -54 -40 -83 -50c-29 -11 -59 -16 -91 -16c-73 0 -138 24 -193 73c-55 48 -83 113 -83 194s27 146 82 195c54 49 116 73 186 73c37 0 72 -7 103 -21c31 -15 54 -31 69 -48 c-16 73 -45 129 -88 168l-100 -47l-21 47l74 34c-34 21 -83 43 -146 65l15 47c71 -19 134 -47 188 -85l111 51l22 -46zM306 44c55 0 99 20 132 59c32 39 48 90 48 155s-16 116 -49 155s-77 58 -131 58c-55 0 -98 -19 -130 -58c-33 -39 -49 -91 -50 -155 c1 -66 17 -118 50 -156c33 -39 76 -58 130 -58z"></glyph><glyph glyph-name="multiply" unicode="×" d="M408 560l49 -49l-145 -145l147 -147l-53 -53l-147 148l-145 -146l-49 49l145 145l-147 148l52 52l148 -147z"></glyph><glyph glyph-name="threesuperior" unicode="³" d="M82 422c23 -29 55 -44 96 -44c29 0 52 8 69 23s25 35 25 60c0 17 -4 32 -12 44c-8 11 -19 19 -34 24s-28 8 -41 10c-13 1 -27 2 -44 2v43c75 0 112 24 112 73c0 21 -6 37 -19 48s-32 17 -55 17c-37 0 -64 -13 -82 -39l-28 24c11 19 29 34 52 46c23 11 48 17 77 17 c35 0 66 -8 93 -25c26 -17 39 -43 39 -77c0 -28 -9 -51 -27 -68c-18 -18 -40 -29 -67 -33c32 -4 59 -15 81 -34c21 -19 32 -44 32 -75c0 -33 -12 -62 -36 -88c-25 -27 -64 -40 -117 -40c-65 0 -112 23 -142 68z"></glyph><glyph glyph-name="copyright" unicode="©" d="M409 724c101 0 188 -36 260 -107c71 -72 107 -159 107 -260s-36 -188 -107 -259c-72 -72 -159 -108 -260 -108s-188 36 -259 108c-72 71 -108 158 -108 259s36 188 108 260c71 71 158 107 259 107zM409 36c89 0 164 31 227 94s94 138 94 227s-31 164 -94 227 s-138 94 -227 94s-164 -31 -227 -94s-94 -138 -94 -227s31 -164 94 -227s138 -94 227 -94zM416 139c-64 0 -116 22 -156 65c-41 43 -61 95 -61 156c0 63 22 116 65 157s95 62 154 62c36 0 69 -8 99 -25c29 -17 52 -40 67 -69l-34 -21c-33 42 -72 63 -119 63 c-45 0 -80 -15 -107 -44c-27 -30 -40 -70 -40 -120s14 -91 41 -123s64 -48 109 -48c49 0 90 21 123 63l33 -21c-15 -29 -38 -52 -69 -69s-66 -26 -105 -26z"></glyph><glyph glyph-name="Aacute" unicode="Á" d="M555 0l-90 238h-299l-92 -238h-59l278 714h82l277 -714h-97zM187 292h258l-128 337zM439 883l-95 -99h-53l66 99h82z"></glyph><glyph glyph-name="Acircumflex" unicode="Â" d="M555 0l-90 238h-299l-92 -238h-59l278 714h82l277 -714h-97zM187 292h258l-128 337zM334 829l-69 -59h-52l78 96h86l78 -96h-52z"></glyph><glyph glyph-name="Adieresis" unicode="Ä" d="M273 799c-11 0 -19 4 -26 11s-11 15 -11 25s4 18 11 25s15 11 26 11c10 0 18 -4 25 -11s10 -15 10 -25s-3 -18 -10 -25s-15 -11 -25 -11zM397 799c-10 0 -18 4 -26 11c-7 7 -11 15 -11 25s4 18 11 25c8 7 16 11 26 11s18 -4 25 -11s11 -15 11 -25s-4 -18 -11 -25 s-15 -11 -25 -11zM555 0l-90 238h-299l-92 -238h-59l278 714h82l277 -714h-97zM187 292h258l-128 337z"></glyph><glyph glyph-name="Agrave" unicode="À" d="M555 0l-90 238h-299l-92 -238h-59l278 714h82l277 -714h-97zM187 292h258l-128 337zM369 785h-54l-96 101h83z"></glyph><glyph glyph-name="Aring" unicode="Å" d="M332 762c-18 0 -34 7 -47 21c-13 13 -20 30 -20 49s7 36 20 49c13 14 29 21 47 21c19 0 35 -7 48 -21c13 -13 20 -30 20 -49c0 -20 -7 -36 -20 -50c-13 -13 -29 -20 -48 -20zM332 875c-9 0 -17 -4 -23 -12c-7 -8 -10 -18 -10 -31s3 -24 10 -32c6 -7 14 -11 23 -11 c10 0 18 4 24 11c6 8 10 19 10 32s-4 23 -10 31s-14 12 -24 12zM555 0l-90 238h-299l-92 -238h-59l278 714h82l277 -714h-97zM187 292h258l-128 337z"></glyph><glyph glyph-name="Atilde" unicode="Ã" d="M555 0l-90 238h-299l-92 -238h-59l278 714h82l277 -714h-97zM187 292h258l-128 337zM295 834c-15 0 -31 -9 -47 -29v36c4 9 11 18 21 25c9 8 21 12 34 12s29 -5 47 -15c19 -9 32 -14 40 -14c16 0 31 9 47 29v-36c-4 -10 -11 -18 -21 -26c-9 -7 -21 -11 -34 -11 c-12 0 -28 5 -47 15s-32 14 -40 14z"></glyph><glyph glyph-name="Ccedilla" unicode="Ç" d="M675 138c-23 -42 -59 -77 -108 -104c-50 -27 -105 -42 -165 -44l-17 -37c23 -5 44 -16 61 -33s26 -40 26 -69c0 -23 -7 -42 -20 -57s-27 -24 -42 -28c-15 -5 -31 -7 -47 -7c-35 0 -64 8 -87 24l14 28c18 -11 39 -16 62 -16c20 0 36 5 49 14c12 9 18 20 18 32 c0 29 -33 51 -98 68l38 82c-96 8 -173 48 -230 121c-58 73 -87 157 -87 252c0 72 17 136 52 192s79 98 132 126s110 42 169 42c58 0 111 -14 159 -41c47 -27 83 -63 106 -106l-42 -22c-33 39 -66 67 -100 86c-34 18 -73 27 -118 27c-81 0 -146 -28 -195 -83 c-49 -56 -73 -130 -73 -223c0 -91 24 -167 72 -226c47 -60 113 -90 198 -90c89 0 166 38 231 114z"></glyph><glyph glyph-name="Eacute" unicode="É" d="M176 54h386v-54h-474v714h472v-54h-384v-270h329v-54h-329v-282zM444 883l-95 -99h-53l66 99h82z"></glyph><glyph glyph-name="Ecircumflex" unicode="Ê" d="M176 54h386v-54h-474v714h472v-54h-384v-270h329v-54h-329v-282zM338 829l-69 -59h-52l78 96h86l78 -96h-52z"></glyph><glyph glyph-name="Edieresis" unicode="Ë" d="M176 54h386v-54h-474v714h472v-54h-384v-270h329v-54h-329v-282zM273 799c-11 0 -19 4 -26 11s-11 15 -11 25s4 18 11 25s15 11 26 11c10 0 18 -4 25 -11s10 -15 10 -25s-3 -18 -10 -25s-15 -11 -25 -11zM397 799c-10 0 -18 4 -26 11c-7 7 -11 15 -11 25s4 18 11 25 c8 7 16 11 26 11s18 -4 25 -11s11 -15 11 -25s-4 -18 -11 -25s-15 -11 -25 -11z"></glyph><glyph glyph-name="Egrave" unicode="È" d="M176 54h386v-54h-474v714h472v-54h-384v-270h329v-54h-329v-282zM383 785h-54l-96 101h83z"></glyph><glyph glyph-name="Iacute" unicode="Í" d="M88 714h88v-714h-88v714zM236 883l-95 -99h-53l66 99h82z"></glyph><glyph glyph-name="Icircumflex" unicode="Î" d="M88 714h88v-714h-88v714zM133 829l-56 -59h-42l64 96h69l64 -96h-42z"></glyph><glyph glyph-name="Idieresis" unicode="Ï" d="M88 714h88v-714h-88v714zM72 799c-11 0 -19 4 -26 11s-11 15 -11 25s4 18 11 25s15 11 26 11c10 0 18 -4 25 -11s10 -15 10 -25s-3 -18 -10 -25s-15 -11 -25 -11zM196 799c-10 0 -18 4 -26 11c-7 7 -11 15 -11 25s4 18 11 25c8 7 16 11 26 11s18 -4 25 -11s11 -15 11 -25 s-4 -18 -11 -25s-15 -11 -25 -11z"></glyph><glyph glyph-name="Igrave" unicode="Ì" d="M88 714h88v-714h-88v714zM174 785h-54l-96 101h83z"></glyph><glyph glyph-name="Ntilde" unicode="Ñ" d="M88 714h73l443 -596v596h54v-714h-75l-441 595v-595h-54v714zM345 844c-15 0 -31 -9 -47 -29v36c4 9 11 18 21 25c9 8 21 12 34 12s29 -5 47 -15c19 -9 32 -14 40 -14c16 0 31 9 47 29v-36c-4 -10 -11 -18 -21 -26c-9 -7 -21 -11 -34 -11c-12 0 -28 5 -47 15 s-32 14 -40 14z"></glyph><glyph glyph-name="Oacute" unicode="Ó" d="M390 724c96 0 178 -36 246 -107c68 -72 102 -159 102 -260s-34 -188 -102 -259c-68 -72 -150 -108 -246 -108s-178 36 -246 108c-68 71 -102 158 -102 259s34 188 102 260c68 71 150 107 246 107zM390 46c74 0 136 30 185 90c49 59 73 133 73 221s-24 162 -73 222 c-49 59 -111 89 -185 89c-75 0 -136 -30 -185 -89c-49 -60 -73 -134 -73 -222s24 -162 73 -221c49 -60 110 -90 185 -90zM515 883l-95 -99h-53l66 99h82z"></glyph><glyph glyph-name="Ocircumflex" unicode="Ô" d="M390 724c96 0 178 -36 246 -107c68 -72 102 -159 102 -260s-34 -188 -102 -259c-68 -72 -150 -108 -246 -108s-178 36 -246 108c-68 71 -102 158 -102 259s34 188 102 260c68 71 150 107 246 107zM390 46c74 0 136 30 185 90c49 59 73 133 73 221s-24 162 -73 222 c-49 59 -111 89 -185 89c-75 0 -136 -30 -185 -89c-49 -60 -73 -134 -73 -222s24 -162 73 -221c49 -60 110 -90 185 -90zM390 829l-69 -59h-52l78 96h86l78 -96h-52z"></glyph><glyph glyph-name="Odieresis" unicode="Ö" d="M390 724c96 0 178 -36 246 -107c68 -72 102 -159 102 -260s-34 -188 -102 -259c-68 -72 -150 -108 -246 -108s-178 36 -246 108c-68 71 -102 158 -102 259s34 188 102 260c68 71 150 107 246 107zM390 46c74 0 136 30 185 90c49 59 73 133 73 221s-24 162 -73 222 c-49 59 -111 89 -185 89c-75 0 -136 -30 -185 -89c-49 -60 -73 -134 -73 -222s24 -162 73 -221c49 -60 110 -90 185 -90zM332 799c-11 0 -19 4 -26 11s-11 15 -11 25s4 18 11 25s15 11 26 11c10 0 18 -4 25 -11s10 -15 10 -25s-3 -18 -10 -25s-15 -11 -25 -11zM456 799 c-10 0 -18 4 -26 11c-7 7 -11 15 -11 25s4 18 11 25c8 7 16 11 26 11s18 -4 25 -11s11 -15 11 -25s-4 -18 -11 -25s-15 -11 -25 -11z"></glyph><glyph glyph-name="Ograve" unicode="Ò" d="M390 724c96 0 178 -36 246 -107c68 -72 102 -159 102 -260s-34 -188 -102 -259c-68 -72 -150 -108 -246 -108s-178 36 -246 108c-68 71 -102 158 -102 259s34 188 102 260c68 71 150 107 246 107zM390 46c74 0 136 30 185 90c49 59 73 133 73 221s-24 162 -73 222 c-49 59 -111 89 -185 89c-75 0 -136 -30 -185 -89c-49 -60 -73 -134 -73 -222s24 -162 73 -221c49 -60 110 -90 185 -90zM418 785h-54l-96 101h83z"></glyph><glyph glyph-name="Otilde" unicode="Õ" d="M390 724c96 0 178 -36 246 -107c68 -72 102 -159 102 -260s-34 -188 -102 -259c-68 -72 -150 -108 -246 -108s-178 36 -246 108c-68 71 -102 158 -102 259s34 188 102 260c68 71 150 107 246 107zM390 46c74 0 136 30 185 90c49 59 73 133 73 221s-24 162 -73 222 c-49 59 -111 89 -185 89c-75 0 -136 -30 -185 -89c-49 -60 -73 -134 -73 -222s24 -162 73 -221c49 -60 110 -90 185 -90zM345 834c-15 0 -31 -9 -47 -29v36c4 9 11 18 21 25c9 8 21 12 34 12s29 -5 47 -15c19 -9 32 -14 40 -14c16 0 31 9 47 29v-36c-4 -10 -11 -18 -21 -26 c-9 -7 -21 -11 -34 -11c-12 0 -28 5 -47 15s-32 14 -40 14z"></glyph><glyph glyph-name="Scaron" unicode="Š" d="M266 782l-59 89h39l52 -55l52 55h39l-59 -89h-64zM300 -10c-29 0 -56 3 -82 9c-26 5 -51 15 -76 28s-48 31 -67 55c-19 23 -34 52 -44 85l41 24c26 -53 56 -90 90 -112s77 -33 129 -33c63 0 108 13 135 39s41 60 41 102c0 47 -16 81 -47 102s-81 37 -148 50 c-19 3 -36 7 -49 10c-14 3 -33 10 -56 20c-24 10 -43 22 -58 35s-28 32 -39 56c-12 24 -18 51 -18 82c0 59 20 104 59 135s94 47 165 47c60 0 110 -12 151 -36c40 -24 73 -61 98 -112l-41 -24c-29 43 -58 73 -87 90c-30 17 -67 26 -110 26c-97 0 -145 -38 -145 -113 c0 -19 4 -37 11 -52s16 -27 26 -36c9 -9 22 -16 39 -23s30 -12 41 -15c10 -3 24 -6 41 -9c33 -7 59 -14 78 -19s41 -14 67 -25s46 -24 60 -37c14 -14 26 -32 37 -55c10 -23 15 -50 15 -80c0 -71 -24 -124 -73 -160s-110 -54 -184 -54z"></glyph><glyph glyph-name="Uacute" unicode="Ú" d="M586 714h54v-466c0 -71 -27 -132 -82 -182c-55 -51 -122 -76 -200 -76c-77 0 -143 25 -198 76c-55 50 -82 111 -82 182v466h88v-466c0 -57 21 -104 62 -143s90 -59 148 -59s107 20 148 59s61 86 61 143zM486 883l-95 -99h-53l66 99h82z"></glyph><glyph glyph-name="Ucircumflex" unicode="Û" d="M586 714h54v-466c0 -71 -27 -132 -82 -182c-55 -51 -122 -76 -200 -76c-77 0 -143 25 -198 76c-55 50 -82 111 -82 182v466h88v-466c0 -57 21 -104 62 -143s90 -59 148 -59s107 20 148 59s61 86 61 143zM373 829l-56 -59h-42l64 96h69l64 -96h-42z"></glyph><glyph glyph-name="Udieresis" unicode="Ü" d="M586 714h54v-466c0 -71 -27 -132 -82 -182c-55 -51 -122 -76 -200 -76c-77 0 -143 25 -198 76c-55 50 -82 111 -82 182v466h88v-466c0 -57 21 -104 62 -143s90 -59 148 -59s107 20 148 59s61 86 61 143zM314 799c-11 0 -19 4 -26 11s-11 15 -11 25s4 18 11 25 s15 11 26 11c10 0 18 -4 25 -11s10 -15 10 -25s-3 -18 -10 -25s-15 -11 -25 -11zM438 799c-10 0 -18 4 -26 11c-7 7 -11 15 -11 25s4 18 11 25c8 7 16 11 26 11s18 -4 25 -11s11 -15 11 -25s-4 -18 -11 -25s-15 -11 -25 -11z"></glyph><glyph glyph-name="Ugrave" unicode="Ù" d="M586 714h54v-466c0 -71 -27 -132 -82 -182c-55 -51 -122 -76 -200 -76c-77 0 -143 25 -198 76c-55 50 -82 111 -82 182v466h88v-466c0 -57 21 -104 62 -143s90 -59 148 -59s107 20 148 59s61 86 61 143zM418 785h-54l-96 101h83z"></glyph><glyph glyph-name="Yacute" unicode="Ý" d="M556 714h66l-262 -412v-302h-88v302l-261 412h105l217 -355zM439 883l-95 -99h-53l66 99h82z"></glyph><glyph glyph-name="Ydieresis" unicode="Ÿ" d="M556 714h66l-262 -412v-302h-88v302l-261 412h105l217 -355zM263 799c-11 0 -19 4 -26 11s-11 15 -11 25s4 18 11 25s15 11 26 11c10 0 18 -4 25 -11s10 -15 10 -25s-3 -18 -10 -25s-15 -11 -25 -11zM387 799c-10 0 -18 4 -26 11c-7 7 -11 15 -11 25s4 18 11 25 c8 7 16 11 26 11s18 -4 25 -11s11 -15 11 -25s-4 -18 -11 -25s-15 -11 -25 -11z"></glyph><glyph glyph-name="Zcaron" unicode="Ž" d="M66 714h501v-51l-427 -609h437v-54h-544v51l425 609h-392v54zM296 782l-59 89h39l52 -55l52 55h39l-59 -89h-64z"></glyph><glyph glyph-name="aacute" unicode="á" d="M219 -11c-57 0 -103 15 -136 45c-34 29 -51 68 -51 117c0 50 18 90 53 121s82 46 139 46c25 0 50 -3 75 -9s44 -12 57 -17l19 -9v81c0 40 -10 71 -31 94c-21 22 -50 33 -86 33c-20 0 -39 -3 -57 -10s-33 -16 -45 -25c-12 -10 -22 -20 -31 -29c-9 -10 -16 -18 -20 -25 l-6 -11l-40 27c49 85 123 127 224 127c119 0 178 -62 178 -186v-359h-86v38l-3 -2c-3 -2 -6 -4 -11 -7s-10 -7 -16 -10c-7 -3 -14 -7 -23 -10c-9 -4 -19 -7 -29 -10s-21 -6 -34 -7c-13 -2 -27 -3 -40 -3zM245 43c23 0 45 4 67 11c21 7 37 14 48 21l15 11v154 c-39 16 -80 24 -121 24c-42 0 -75 -10 -99 -31c-25 -21 -37 -48 -37 -81s12 -60 35 -79c23 -20 54 -30 92 -30zM395 706l-95 -99h-53l66 99h82z"></glyph><glyph glyph-name="acircumflex" unicode="â" d="M219 -11c-57 0 -103 15 -136 45c-34 29 -51 68 -51 117c0 50 18 90 53 121s82 46 139 46c25 0 50 -3 75 -9s44 -12 57 -17l19 -9v81c0 40 -10 71 -31 94c-21 22 -50 33 -86 33c-20 0 -39 -3 -57 -10s-33 -16 -45 -25c-12 -10 -22 -20 -31 -29c-9 -10 -16 -18 -20 -25 l-6 -11l-40 27c49 85 123 127 224 127c119 0 178 -62 178 -186v-359h-86v38l-3 -2c-3 -2 -6 -4 -11 -7s-10 -7 -16 -10c-7 -3 -14 -7 -23 -10c-9 -4 -19 -7 -29 -10s-21 -6 -34 -7c-13 -2 -27 -3 -40 -3zM245 43c23 0 45 4 67 11c21 7 37 14 48 21l15 11v154 c-39 16 -80 24 -121 24c-42 0 -75 -10 -99 -31c-25 -21 -37 -48 -37 -81s12 -60 35 -79c23 -20 54 -30 92 -30zM273 648l-69 -59h-52l78 96h86l78 -96h-52z"></glyph><glyph glyph-name="adieresis" unicode="ä" d="M219 -11c-57 0 -103 15 -136 45c-34 29 -51 68 -51 117c0 50 18 90 53 121s82 46 139 46c25 0 50 -3 75 -9s44 -12 57 -17l19 -9v81c0 40 -10 71 -31 94c-21 22 -50 33 -86 33c-20 0 -39 -3 -57 -10s-33 -16 -45 -25c-12 -10 -22 -20 -31 -29c-9 -10 -16 -18 -20 -25 l-6 -11l-40 27c49 85 123 127 224 127c119 0 178 -62 178 -186v-359h-86v38l-3 -2c-3 -2 -6 -4 -11 -7s-10 -7 -16 -10c-7 -3 -14 -7 -23 -10c-9 -4 -19 -7 -29 -10s-21 -6 -34 -7c-13 -2 -27 -3 -40 -3zM245 43c23 0 45 4 67 11c21 7 37 14 48 21l15 11v154 c-39 16 -80 24 -121 24c-42 0 -75 -10 -99 -31c-25 -21 -37 -48 -37 -81s12 -60 35 -79c23 -20 54 -30 92 -30zM220 602c-11 0 -19 4 -26 11s-11 15 -11 25s4 18 11 25s15 11 26 11c10 0 18 -4 25 -11s10 -15 10 -25s-3 -18 -10 -25s-15 -11 -25 -11zM344 602 c-10 0 -18 4 -26 11c-7 7 -11 15 -11 25s4 18 11 25c8 7 16 11 26 11s18 -4 25 -11s11 -15 11 -25s-4 -18 -11 -25s-15 -11 -25 -11z"></glyph><glyph glyph-name="agrave" unicode="à" d="M219 -11c-57 0 -103 15 -136 45c-34 29 -51 68 -51 117c0 50 18 90 53 121s82 46 139 46c25 0 50 -3 75 -9s44 -12 57 -17l19 -9v81c0 40 -10 71 -31 94c-21 22 -50 33 -86 33c-20 0 -39 -3 -57 -10s-33 -16 -45 -25c-12 -10 -22 -20 -31 -29c-9 -10 -16 -18 -20 -25 l-6 -11l-40 27c49 85 123 127 224 127c119 0 178 -62 178 -186v-359h-86v38l-3 -2c-3 -2 -6 -4 -11 -7s-10 -7 -16 -10c-7 -3 -14 -7 -23 -10c-9 -4 -19 -7 -29 -10s-21 -6 -34 -7c-13 -2 -27 -3 -40 -3zM245 43c23 0 45 4 67 11c21 7 37 14 48 21l15 11v154 c-39 16 -80 24 -121 24c-42 0 -75 -10 -99 -31c-25 -21 -37 -48 -37 -81s12 -60 35 -79c23 -20 54 -30 92 -30zM311 599h-54l-96 101h83z"></glyph><glyph glyph-name="aring" unicode="å" d="M219 -11c-57 0 -103 15 -136 45c-34 29 -51 68 -51 117c0 50 18 90 53 121s82 46 139 46c25 0 50 -3 75 -9s44 -12 57 -17l19 -9v81c0 40 -10 71 -31 94c-21 22 -50 33 -86 33c-20 0 -39 -3 -57 -10s-33 -16 -45 -25c-12 -10 -22 -20 -31 -29c-9 -10 -16 -18 -20 -25 l-6 -11l-40 27c49 85 123 127 224 127c119 0 178 -62 178 -186v-359h-86v38l-3 -2c-3 -2 -6 -4 -11 -7s-10 -7 -16 -10c-7 -3 -14 -7 -23 -10c-9 -4 -19 -7 -29 -10s-21 -6 -34 -7c-13 -2 -27 -3 -40 -3zM245 43c23 0 45 4 67 11c21 7 37 14 48 21l15 11v154 c-39 16 -80 24 -121 24c-42 0 -75 -10 -99 -31c-25 -21 -37 -48 -37 -81s12 -60 35 -79c23 -20 54 -30 92 -30zM283 595c-18 0 -34 7 -47 21c-13 13 -20 30 -20 49s7 36 20 49c13 14 29 21 47 21c19 0 35 -7 48 -21c13 -13 20 -30 20 -49c0 -20 -7 -36 -20 -50 c-13 -13 -29 -20 -48 -20zM283 708c-9 0 -17 -4 -23 -12c-7 -8 -10 -18 -10 -31s3 -24 10 -32c6 -7 14 -11 23 -11c10 0 18 4 24 11c6 8 10 19 10 32s-4 23 -10 31s-14 12 -24 12z"></glyph><glyph glyph-name="atilde" unicode="ã" d="M219 -11c-57 0 -103 15 -136 45c-34 29 -51 68 -51 117c0 50 18 90 53 121s82 46 139 46c25 0 50 -3 75 -9s44 -12 57 -17l19 -9v81c0 40 -10 71 -31 94c-21 22 -50 33 -86 33c-20 0 -39 -3 -57 -10s-33 -16 -45 -25c-12 -10 -22 -20 -31 -29c-9 -10 -16 -18 -20 -25 l-6 -11l-40 27c49 85 123 127 224 127c119 0 178 -62 178 -186v-359h-86v38l-3 -2c-3 -2 -6 -4 -11 -7s-10 -7 -16 -10c-7 -3 -14 -7 -23 -10c-9 -4 -19 -7 -29 -10s-21 -6 -34 -7c-13 -2 -27 -3 -40 -3zM245 43c23 0 45 4 67 11c21 7 37 14 48 21l15 11v154 c-39 16 -80 24 -121 24c-42 0 -75 -10 -99 -31c-25 -21 -37 -48 -37 -81s12 -60 35 -79c23 -20 54 -30 92 -30zM225 635c-15 0 -31 -9 -47 -29v36c4 9 11 18 21 25c9 8 21 12 34 12s29 -5 47 -15c19 -9 32 -14 40 -14c16 0 31 9 47 29v-36c-4 -10 -11 -18 -21 -26 c-9 -7 -21 -11 -34 -11c-12 0 -28 5 -47 15s-32 14 -40 14z"></glyph><glyph glyph-name="ccedilla" unicode="ç" d="M309 -10h-7l-17 -37c23 -5 44 -16 61 -33s26 -40 26 -69c0 -23 -7 -42 -20 -57s-27 -24 -42 -28c-15 -5 -31 -7 -47 -7c-35 0 -64 8 -87 24l14 28c18 -11 39 -16 62 -16c20 0 36 5 49 14c12 9 18 20 18 32c0 29 -33 51 -98 68l39 85c-66 11 -119 42 -160 92 s-62 110 -62 180c0 79 25 145 76 199c51 53 115 80 194 80c89 0 159 -36 209 -108l-38 -25c-25 27 -50 47 -74 60s-51 19 -82 19c-61 0 -109 -21 -144 -64s-53 -96 -53 -159c0 -61 17 -113 51 -157c33 -45 82 -67 146 -67c31 0 59 6 83 19s49 33 74 60l38 -25 c-50 -72 -120 -108 -209 -108z"></glyph><glyph glyph-name="eacute" unicode="é" d="M332 44c32 0 60 6 84 19c24 12 49 32 75 60l38 -25c-49 -72 -120 -108 -213 -108c-81 0 -148 26 -200 78c-52 51 -78 116 -78 195s25 145 76 200c50 55 111 82 183 82c69 0 127 -25 175 -75c48 -51 72 -119 72 -204h-418c0 -26 4 -51 11 -76s19 -48 34 -70 c15 -23 37 -41 65 -55c27 -14 59 -21 96 -21zM300 491c-39 0 -74 -16 -106 -49s-53 -73 -63 -122h326c-1 43 -18 83 -49 118s-67 53 -108 53zM415 706l-95 -99h-53l66 99h82z"></glyph><glyph glyph-name="ecircumflex" unicode="ê" d="M332 44c32 0 60 6 84 19c24 12 49 32 75 60l38 -25c-49 -72 -120 -108 -213 -108c-81 0 -148 26 -200 78c-52 51 -78 116 -78 195s25 145 76 200c50 55 111 82 183 82c69 0 127 -25 175 -75c48 -51 72 -119 72 -204h-418c0 -26 4 -51 11 -76s19 -48 34 -70 c15 -23 37 -41 65 -55c27 -14 59 -21 96 -21zM300 491c-39 0 -74 -16 -106 -49s-53 -73 -63 -122h326c-1 43 -18 83 -49 118s-67 53 -108 53zM301 648l-69 -59h-52l78 96h86l78 -96h-52z"></glyph><glyph glyph-name="edieresis" unicode="ë" d="M332 44c32 0 60 6 84 19c24 12 49 32 75 60l38 -25c-49 -72 -120 -108 -213 -108c-81 0 -148 26 -200 78c-52 51 -78 116 -78 195s25 145 76 200c50 55 111 82 183 82c69 0 127 -25 175 -75c48 -51 72 -119 72 -204h-418c0 -26 4 -51 11 -76s19 -48 34 -70 c15 -23 37 -41 65 -55c27 -14 59 -21 96 -21zM300 491c-39 0 -74 -16 -106 -49s-53 -73 -63 -122h326c-1 43 -18 83 -49 118s-67 53 -108 53zM240 602c-11 0 -19 4 -26 11s-11 15 -11 25s4 18 11 25s15 11 26 11c10 0 18 -4 25 -11s10 -15 10 -25s-3 -18 -10 -25 s-15 -11 -25 -11zM364 602c-10 0 -18 4 -26 11c-7 7 -11 15 -11 25s4 18 11 25c8 7 16 11 26 11s18 -4 25 -11s11 -15 11 -25s-4 -18 -11 -25s-15 -11 -25 -11z"></glyph><glyph glyph-name="egrave" unicode="è" d="M332 44c32 0 60 6 84 19c24 12 49 32 75 60l38 -25c-49 -72 -120 -108 -213 -108c-81 0 -148 26 -200 78c-52 51 -78 116 -78 195s25 145 76 200c50 55 111 82 183 82c69 0 127 -25 175 -75c48 -51 72 -119 72 -204h-418c0 -26 4 -51 11 -76s19 -48 34 -70 c15 -23 37 -41 65 -55c27 -14 59 -21 96 -21zM300 491c-39 0 -74 -16 -106 -49s-53 -73 -63 -122h326c-1 43 -18 83 -49 118s-67 53 -108 53zM341 599h-54l-96 101h83z"></glyph><glyph glyph-name="iacute" unicode="í" d="M72 0v535h86v-535h-86zM220 706l-95 -99h-53l66 99h82z"></glyph><glyph glyph-name="icircumflex" unicode="î" d="M72 0v535h86v-535h-86zM114 648l-56 -59h-42l64 96h69l64 -96h-42z"></glyph><glyph glyph-name="idieresis" unicode="ï" d="M72 0v535h86v-535h-86zM53 602c-11 0 -19 4 -26 11s-11 15 -11 25s4 18 11 25s15 11 26 11c10 0 18 -4 25 -11s10 -15 10 -25s-3 -18 -10 -25s-15 -11 -25 -11zM177 602c-10 0 -18 4 -26 11c-7 7 -11 15 -11 25s4 18 11 25c8 7 16 11 26 11s18 -4 25 -11s11 -15 11 -25 s-4 -18 -11 -25s-15 -11 -25 -11z"></glyph><glyph glyph-name="igrave" unicode="ì" d="M72 0v535h86v-535h-86zM155 599h-54l-96 101h83z"></glyph><glyph glyph-name="ntilde" unicode="ñ" d="M342 546c57 0 100 -15 131 -45c30 -30 45 -73 45 -128v-373h-86v371c0 36 -11 65 -33 88c-22 22 -52 33 -90 33c-60 0 -110 -29 -151 -86v-406h-86v535h86v-68c40 53 101 79 184 79zM265 638c-15 0 -31 -9 -47 -29v36c4 9 11 18 21 25c9 8 21 12 34 12s29 -5 47 -15 c19 -9 32 -14 40 -14c16 0 31 9 47 29v-36c-4 -10 -11 -18 -21 -26c-9 -7 -21 -11 -34 -11c-12 0 -28 5 -47 15s-32 14 -40 14z"></glyph><glyph glyph-name="oacute" unicode="ó" d="M306 -10c-77 0 -141 26 -192 79c-51 52 -76 118 -76 199c0 80 25 146 76 199c51 52 115 78 192 78s141 -26 192 -78c51 -53 76 -119 76 -199c0 -81 -25 -147 -76 -199c-51 -53 -115 -79 -192 -79zM306 44c50 0 93 22 128 67c35 44 52 96 52 157s-17 113 -52 157 s-78 66 -128 66c-49 0 -91 -22 -126 -66s-53 -96 -54 -157c1 -61 19 -113 54 -157c35 -45 77 -67 126 -67zM415 706l-95 -99h-53l66 99h82z"></glyph><glyph glyph-name="ocircumflex" unicode="ô" d="M306 -10c-77 0 -141 26 -192 79c-51 52 -76 118 -76 199c0 80 25 146 76 199c51 52 115 78 192 78s141 -26 192 -78c51 -53 76 -119 76 -199c0 -81 -25 -147 -76 -199c-51 -53 -115 -79 -192 -79zM306 44c50 0 93 22 128 67c35 44 52 96 52 157s-17 113 -52 157 s-78 66 -128 66c-49 0 -91 -22 -126 -66s-53 -96 -54 -157c1 -61 19 -113 54 -157c35 -45 77 -67 126 -67zM303 648l-69 -59h-52l78 96h86l78 -96h-52z"></glyph><glyph glyph-name="odieresis" unicode="ö" d="M306 -10c-77 0 -141 26 -192 79c-51 52 -76 118 -76 199c0 80 25 146 76 199c51 52 115 78 192 78s141 -26 192 -78c51 -53 76 -119 76 -199c0 -81 -25 -147 -76 -199c-51 -53 -115 -79 -192 -79zM306 44c50 0 93 22 128 67c35 44 52 96 52 157s-17 113 -52 157 s-78 66 -128 66c-49 0 -91 -22 -126 -66s-53 -96 -54 -157c1 -61 19 -113 54 -157c35 -45 77 -67 126 -67zM250 602c-11 0 -19 4 -26 11s-11 15 -11 25s4 18 11 25s15 11 26 11c10 0 18 -4 25 -11s10 -15 10 -25s-3 -18 -10 -25s-15 -11 -25 -11zM374 602 c-10 0 -18 4 -26 11c-7 7 -11 15 -11 25s4 18 11 25c8 7 16 11 26 11s18 -4 25 -11s11 -15 11 -25s-4 -18 -11 -25s-15 -11 -25 -11z"></glyph><glyph glyph-name="ograve" unicode="ò" d="M306 -10c-77 0 -141 26 -192 79c-51 52 -76 118 -76 199c0 80 25 146 76 199c51 52 115 78 192 78s141 -26 192 -78c51 -53 76 -119 76 -199c0 -81 -25 -147 -76 -199c-51 -53 -115 -79 -192 -79zM306 44c50 0 93 22 128 67c35 44 52 96 52 157s-17 113 -52 157 s-78 66 -128 66c-49 0 -91 -22 -126 -66s-53 -96 -54 -157c1 -61 19 -113 54 -157c35 -45 77 -67 126 -67zM341 599h-54l-96 101h83z"></glyph><glyph glyph-name="otilde" unicode="õ" d="M306 -10c-77 0 -141 26 -192 79c-51 52 -76 118 -76 199c0 80 25 146 76 199c51 52 115 78 192 78s141 -26 192 -78c51 -53 76 -119 76 -199c0 -81 -25 -147 -76 -199c-51 -53 -115 -79 -192 -79zM306 44c50 0 93 22 128 67c35 44 52 96 52 157s-17 113 -52 157 s-78 66 -128 66c-49 0 -91 -22 -126 -66s-53 -96 -54 -157c1 -61 19 -113 54 -157c35 -45 77 -67 126 -67zM263 638c-15 0 -31 -9 -47 -29v36c4 9 11 18 21 25c9 8 21 12 34 12s29 -5 47 -15c19 -9 32 -14 40 -14c16 0 31 9 47 29v-36c-4 -10 -11 -18 -21 -26 c-9 -7 -21 -11 -34 -11c-12 0 -28 5 -47 15s-32 14 -40 14z"></glyph><glyph glyph-name="scaron" unicode="š" d="M240 -10c-56 0 -102 12 -139 37c-37 24 -63 56 -78 97l41 24c34 -69 91 -104 171 -104c41 0 73 9 95 28c22 18 33 42 33 72c0 31 -12 52 -35 65s-64 26 -122 39c-21 5 -38 10 -53 15s-33 14 -52 25c-20 11 -35 26 -46 45s-16 42 -16 68c0 46 17 82 50 107s76 37 130 37 c98 0 166 -40 204 -120l-41 -24c-19 31 -39 54 -62 69c-23 14 -52 21 -87 21c-71 0 -106 -25 -106 -76c0 -14 4 -26 11 -37s14 -20 21 -26s19 -11 34 -16s26 -9 33 -10c6 -2 17 -4 32 -7c61 -12 109 -30 143 -53c33 -23 50 -60 50 -109c0 -55 -20 -96 -60 -124 c-41 -29 -91 -43 -151 -43zM209 593l-59 89h39l52 -55l52 55h39l-59 -89h-64z"></glyph><glyph glyph-name="uacute" unicode="ú" d="M432 535h86v-535h-86v68c-40 -53 -101 -79 -184 -79c-57 0 -100 15 -130 45c-31 30 -46 73 -46 128v373h86v-371c0 -36 11 -65 33 -87c22 -23 52 -34 90 -34c60 0 110 29 151 86v406zM405 706l-95 -99h-53l66 99h82z"></glyph><glyph glyph-name="ucircumflex" unicode="û" d="M432 535h86v-535h-86v68c-40 -53 -101 -79 -184 -79c-57 0 -100 15 -130 45c-31 30 -46 73 -46 128v373h86v-371c0 -36 11 -65 33 -87c22 -23 52 -34 90 -34c60 0 110 29 151 86v406zM297 648l-56 -59h-42l64 96h69l64 -96h-42z"></glyph><glyph glyph-name="udieresis" unicode="ü" d="M432 535h86v-535h-86v68c-40 -53 -101 -79 -184 -79c-57 0 -100 15 -130 45c-31 30 -46 73 -46 128v373h86v-371c0 -36 11 -65 33 -87c22 -23 52 -34 90 -34c60 0 110 29 151 86v406zM236 602c-11 0 -19 4 -26 11s-11 15 -11 25s4 18 11 25s15 11 26 11 c10 0 18 -4 25 -11s10 -15 10 -25s-3 -18 -10 -25s-15 -11 -25 -11zM360 602c-10 0 -18 4 -26 11c-7 7 -11 15 -11 25s4 18 11 25c8 7 16 11 26 11s18 -4 25 -11s11 -15 11 -25s-4 -18 -11 -25s-15 -11 -25 -11z"></glyph><glyph glyph-name="ugrave" unicode="ù" d="M432 535h86v-535h-86v68c-40 -53 -101 -79 -184 -79c-57 0 -100 15 -130 45c-31 30 -46 73 -46 128v373h86v-371c0 -36 11 -65 33 -87c22 -23 52 -34 90 -34c60 0 110 29 151 86v406zM341 599h-54l-96 101h83z"></glyph><glyph glyph-name="yacute" unicode="ý" d="M152 -241l86 218l-220 558h92l171 -452l175 452h59l-306 -776h-57zM395 706l-95 -99h-53l66 99h82z"></glyph><glyph glyph-name="ydieresis" unicode="ÿ" d="M152 -241l86 218l-220 558h92l171 -452l175 452h59l-306 -776h-57zM216 602c-11 0 -19 4 -26 11s-11 15 -11 25s4 18 11 25s15 11 26 11c10 0 18 -4 25 -11s10 -15 10 -25s-3 -18 -10 -25s-15 -11 -25 -11zM340 602c-10 0 -18 4 -26 11c-7 7 -11 15 -11 25s4 18 11 25 c8 7 16 11 26 11s18 -4 25 -11s11 -15 11 -25s-4 -18 -11 -25s-15 -11 -25 -11z"></glyph><glyph glyph-name="zcaron" unicode="ž" d="M39 0v53l303 429h-282v53h389v-53l-307 -429h310v-53h-413zM235 593l-59 89h39l52 -55l52 55h39l-59 -89h-64z"></glyph><glyph glyph-name="Dcroat" unicode="Đ" d="M355 714c99 0 181 -35 248 -105c67 -71 100 -155 100 -252c0 -98 -34 -182 -101 -252c-68 -70 -149 -105 -243 -105h-253v327h-72v54h72v333h249zM365 54c79 0 140 29 183 86s64 129 64 218c0 90 -22 163 -65 219c-44 55 -105 83 -182 83h-171v-279l186 1v-55h-186v-273 h171z"></glyph><glyph glyph-name="Eng" unicode="Ŋ" d="M513 -215c-32 0 -59 8 -82 23s-40 33 -51 54l33 27c15 -21 30 -35 43 -43c13 -9 30 -13 51 -13c64 0 96 39 96 116v51l-462 598v-598h-53v714h72l443 -595v595h53v-775c0 -43 -13 -80 -38 -109c-26 -30 -61 -45 -105 -45z"></glyph><glyph glyph-name="Hbar" unicode="Ħ" d="M782 585v-52h-88v-533h-88v336h-383v-336h-88v533h-89v52h89v129h88v-129h383v129h88v-129h88zM606 390v143h-383v-143h383z"></glyph><glyph glyph-name="Tbar" unicode="Ŧ" d="M589 660h-242v-270h146v-52h-146v-338h-88v338h-147v52h147v270h-242v54h572v-54z"></glyph><glyph glyph-name="Yogh" unicode="Ȝ" d="M63 -115l-11 69c160 23 297 110 297 228c0 73 -53 133 -147 131c-21 0 -60 -6 -94 -17l-12 62c113 25 201 87 201 166c0 55 -46 91 -111 92c-53 0 -112 -23 -137 -36l-18 59c32 20 104 47 172 47c108 0 182 -60 182 -148c0 -75 -55 -133 -123 -164v-3 c101 -9 179 -76 179 -184c0 -153 -148 -275 -378 -302z"></glyph><glyph glyph-name="dcroat" unicode="đ" d="M631 665v-52h-94v-613h-86v72c-50 -55 -106 -82 -168 -82c-69 0 -127 26 -174 78c-47 51 -71 118 -71 199s24 148 71 200s105 78 174 78c61 0 117 -27 168 -82v150h-202v52h202v95h86v-95h94zM301 44c53 0 103 30 150 91v263c-46 62 -96 93 -151 93 c-49 0 -90 -22 -123 -65c-34 -44 -51 -97 -51 -158s17 -114 51 -158c33 -44 75 -66 124 -66z"></glyph><glyph glyph-name="eng" unicode="ŋ" d="M342 546c57 0 100 -15 131 -45c30 -30 45 -73 45 -128v-371v-2v-61c0 -43 -13 -80 -39 -109c-26 -30 -63 -45 -111 -45c-62 0 -106 24 -132 73l31 30c21 -32 48 -48 81 -48c56 0 84 37 84 110v421c0 36 -11 65 -33 88c-22 22 -52 33 -90 33c-60 0 -110 -29 -151 -86v-406 h-86v535h86v-68c40 53 101 79 184 79z"></glyph><glyph glyph-name="hbar" unicode="ħ" d="M360 546c57 0 100 -15 131 -45c30 -30 45 -73 45 -128v-373h-86v371c0 36 -11 65 -33 88c-22 22 -52 33 -90 33c-60 0 -110 -29 -151 -86v-406h-86v613h-76v52h76v95h86v-95h220v-52h-220v-146c40 53 101 79 184 79z"></glyph><glyph glyph-name="kra" unicode="ĸ" d="M160 484v-222h2c12 17 28 38 42 55l143 167h105l-186 -199l213 -285h-108l-166 232l-45 -50v-182h-87v484h87z"></glyph><glyph glyph-name="napostrophe" unicode="ŉ" d="M96 770c19 0 35 -8 46 -25s17 -37 17 -62c0 -32 -9 -65 -28 -98c-19 -34 -44 -62 -76 -85c-2 3 -10 12 -23 29c40 43 60 82 60 117c0 5 0 8 -1 11l-15 3c-12 3 -21 10 -28 20s-10 21 -10 34c0 15 6 29 17 40s25 16 41 16zM440 546c57 0 100 -15 131 -45 c30 -30 45 -73 45 -128v-373h-86v371c0 36 -11 65 -33 88c-22 22 -52 33 -90 33c-60 0 -110 -29 -151 -86v-406h-86v535h86v-68c40 53 101 79 184 79z"></glyph><glyph glyph-name="tbar" unicode="ŧ" d="M320 72l24 -39c-28 -29 -67 -43 -116 -43c-89 0 -133 54 -133 162v184h-65v46h65v100h-69v53h69v143h86v-143h137v-53h-137v-100h124v-46h-124v-185c0 -40 5 -67 15 -82s28 -23 53 -23c20 0 44 9 71 26z"></glyph><glyph glyph-name="yogh" unicode="ȝ" d="M43 -209l-8 68c38 3 275 33 275 188c0 59 -40 109 -129 109c-27 0 -60 -7 -88 -15l-12 62c107 25 184 65 184 138c0 53 -40 84 -104 84c-51 0 -99 -25 -123 -38l-19 58c37 24 98 49 163 49c101 0 169 -54 169 -137c0 -66 -43 -115 -106 -141v-2c92 -11 155 -69 155 -157 c0 -130 -124 -247 -357 -266z"></glyph><glyph glyph-name="IJ" unicode="Ĳ" d="M88 714h88v-714h-88v714zM483 -10c-51 0 -95 10 -131 30c-37 19 -62 43 -75 72l38 22c37 -45 86 -68 146 -68c17 0 33 2 48 5s31 9 47 17s29 21 39 39c9 18 14 40 14 65v542h88v-536c0 -61 -20 -107 -59 -139c-39 -33 -91 -49 -155 -49z"></glyph><glyph glyph-name="ij" unicode="ĳ" d="M116 624c-14 0 -26 5 -36 15c-10 9 -15 21 -15 35c0 13 5 25 15 35s22 15 36 15s26 -5 36 -15c9 -10 14 -22 14 -35c0 -14 -5 -26 -14 -35c-10 -10 -22 -15 -36 -15zM346 624c-14 0 -26 5 -36 15c-10 9 -15 21 -15 35c0 13 5 25 15 35s22 15 36 15s26 -5 36 -15 c9 -10 14 -22 14 -35c0 -14 -5 -26 -14 -35c-10 -10 -22 -15 -36 -15zM73 0v535h86v-535h-86zM239 -251c-62 0 -106 24 -132 73l31 30c21 -32 48 -48 81 -48c56 0 84 37 84 110v621h86v-632c0 -43 -13 -80 -39 -109c-26 -30 -63 -45 -111 -45z"></glyph><glyph glyph-name="zero.slash" unicode="" d="M145 168l202 374c-20 32 -50 51 -90 51c-83 0 -135 -105 -136 -265c-1 -63 8 -117 24 -160zM371 482l-202 -376c22 -32 50 -49 86 -49c92 0 137 105 137 271c0 58 -7 110 -21 154zM473 649l-49 -79c35 -57 53 -138 53 -238c0 -221 -82 -343 -225 -343 c-48 0 -91 16 -126 50l-36 -63l-44 31l46 74c-35 55 -55 138 -56 242c-1 220 94 338 226 338c51 0 94 -16 128 -49l39 66z"></glyph><glyph glyph-name="euro" unicode="€" d="M660 160l42 -22c-23 -43 -61 -79 -113 -106c-52 -28 -109 -42 -172 -42c-86 0 -159 26 -218 78c-59 51 -99 117 -118 196h-76v47h67c-2 18 -3 36 -3 53c0 10 1 24 2 43h-66v47h74c19 83 62 148 128 197c65 49 137 73 215 73c58 0 111 -14 159 -41c47 -27 83 -63 106 -106 l-42 -22c-33 39 -66 67 -100 86c-34 18 -73 27 -118 27c-67 0 -123 -19 -168 -57s-75 -90 -90 -157h311v-47h-319c-1 -20 -2 -35 -2 -45c0 -17 1 -34 3 -51h318v-47h-310c15 -66 45 -119 90 -158c45 -40 101 -60 169 -60c89 0 166 38 231 114z"></glyph><glyph glyph-name="Aringacute" unicode="Ǻ" d="M312 692c-57 0 -91 34 -91 77s34 79 92 79c56 0 89 -35 89 -79s-35 -77 -90 -77zM311 729c27 0 45 16 45 41c0 23 -18 42 -46 42s-43 -20 -43 -43c0 -22 18 -40 44 -40zM366 952h114l-143 -86h-78zM425 212h-240l-70 -212h-90l229 674h106l230 -674h-93zM203 280h204 l-67 194c-15 44 -25 84 -35 123h-2c-10 -39 -20 -81 -34 -122z"></glyph><glyph glyph-name="estimated" unicode="℮" d="M782 316h-605c-3 0 -5 -1 -5 -4v-183c0 -8 4 -15 9 -21c57 -61 139 -99 229 -99c96 0 182 43 240 111h55c-68 -79 -176 -131 -296 -131c-206 0 -374 150 -374 336s168 336 374 336s373 -150 373 -336v-9zM646 340v184c0 9 -4 16 -10 22c-58 58 -138 95 -226 95 c-90 0 -170 -38 -228 -98c-6 -6 -10 -14 -10 -23v-180c0 -3 2 -5 5 -5h464c3 0 5 2 5 5z"></glyph><glyph glyph-name="zero.oldstyle" unicode="" d="M264 -11c-123 0 -224 92 -224 254c0 157 100 253 225 253c124 0 225 -92 225 -253c0 -158 -100 -254 -226 -254zM266 56c87 0 139 79 139 187c0 107 -52 186 -140 186s-140 -79 -140 -186c0 -108 52 -187 141 -187z"></glyph><glyph glyph-name="one.oldstyle" unicode="" d="M263 0h-84v408h-2l-135 -62l-16 66l164 73h73v-485z"></glyph><glyph glyph-name="two.oldstyle" unicode="" d="M420 0h-396v48l49 34c150 99 224 167 224 248c0 65 -45 98 -108 98c-51 0 -101 -24 -135 -49l-24 57c36 27 101 62 182 62c101 0 173 -57 173 -156c0 -93 -72 -162 -177 -236l-51 -37v-3c25 3 56 4 82 4h181v-70z"></glyph><glyph glyph-name="three.oldstyle" unicode="" d="M18 -95l10 65c25 -8 67 -16 109 -16c99 0 169 48 169 121c0 63 -60 102 -152 102c-23 0 -43 -1 -55 -2l-2 65l19 1c93 7 163 44 163 106c0 54 -40 80 -105 80c-51 0 -99 -21 -123 -34l-18 58c31 21 94 45 160 45c102 0 174 -51 174 -134c0 -69 -50 -119 -118 -139v-3 c79 -11 147 -59 147 -144c0 -115 -116 -191 -251 -191c-52 0 -105 10 -127 20z"></glyph><glyph glyph-name="four.oldstyle" unicode="" d="M483 50h-91v-167h-82v167h-292v57l279 385h95v-375h91v-67zM310 117v201c0 32 0 62 3 94l-4 1c-16 -32 -35 -65 -54 -94l-150 -199l1 -3h204z"></glyph><glyph glyph-name="five.oldstyle" unicode="" d="M36 -97l11 63c23 -7 64 -13 102 -13c86 0 164 45 164 129c0 28 -11 54 -31 73c-39 38 -118 50 -227 43l51 287h287l-11 -72h-217l-29 -150c83 2 168 -11 220 -61c30 -29 46 -70 46 -113c0 -122 -103 -203 -252 -203c-44 0 -89 7 -114 17z"></glyph><glyph glyph-name="six.oldstyle" unicode="" d="M432 606l6 -65c-180 -11 -275 -106 -297 -219l3 -1c25 36 77 73 146 73c102 0 187 -72 187 -191c0 -135 -104 -214 -208 -214c-134 0 -223 99 -223 247c0 207 146 357 386 370zM270 56c59 0 120 47 120 142c0 82 -49 134 -122 134c-45 0 -82 -23 -101 -43 c-24 -25 -32 -50 -32 -83c0 -81 52 -150 135 -150z"></glyph><glyph glyph-name="seven.oldstyle" unicode="" d="M405 485v-56c-62 -163 -181 -386 -282 -542l-82 15c81 119 221 368 274 508v2h-297v73h387z"></glyph><glyph glyph-name="eight.oldstyle" unicode="" d="M344 320l-1 -3c76 -27 129 -80 129 -151c0 -108 -98 -177 -218 -177c-127 0 -213 69 -213 166c0 72 51 125 125 158v3c-56 24 -101 66 -101 129c0 96 86 162 197 162c113 0 187 -67 187 -151c0 -58 -34 -102 -105 -136zM261 547c-61 0 -111 -36 -111 -95 c0 -54 45 -88 121 -108c53 16 96 52 96 108c0 63 -52 95 -106 95zM256 52c70 0 126 42 126 106c0 63 -51 105 -142 129c-66 -22 -111 -68 -111 -124c0 -65 48 -111 127 -111z"></glyph><glyph glyph-name="nine.oldstyle" unicode="" d="M82 -114l-7 65c172 7 272 91 300 209h-2c-21 -33 -76 -67 -144 -67c-101 0 -186 71 -186 191c0 122 94 214 216 214c119 0 213 -87 213 -241c0 -223 -160 -364 -390 -371zM253 155c50 0 97 30 116 65c10 13 16 35 16 60c0 90 -59 150 -130 150c-60 0 -125 -45 -125 -139 c0 -93 57 -136 123 -136z"></glyph><glyph glyph-name="percent.oldstyle" unicode="" d="M186 603c90 0 149 -70 149 -194c0 -137 -71 -205 -155 -205c-82 0 -151 66 -152 196c0 130 70 203 158 203zM181 550c-54 0 -84 -65 -84 -147c-1 -82 30 -146 85 -146c58 0 84 62 84 148c0 79 -23 145 -85 145zM261 -12h-56l351 620h56zM641 392c90 0 149 -70 149 -194 c0 -137 -71 -205 -155 -205c-82 0 -151 65 -152 196c0 130 70 203 158 203zM636 339c-54 0 -84 -65 -84 -147c-1 -83 30 -146 85 -146c58 0 84 62 84 148c0 79 -23 145 -85 145z"></glyph><glyph glyph-name="zero.fitted" unicode="" d="M263 661c136 0 215 -122 215 -329c0 -221 -83 -343 -226 -343c-127 0 -214 119 -216 334c0 219 95 338 227 338zM257 593c-76 0 -132 -94 -132 -271c0 -169 52 -265 132 -265c89 0 132 105 132 271c0 160 -40 265 -132 265z"></glyph><glyph glyph-name="one.fitted" unicode="" d="M151 0v568h-2l-113 -61l-17 67l142 76h75v-650h-85z"></glyph><glyph glyph-name="two.fitted" unicode="" d="M418 0h-415v54l69 67c166 158 242 242 242 340c0 66 -31 127 -128 127c-59 0 -108 -30 -138 -55l-28 62c44 37 109 66 183 66c140 0 199 -96 199 -189c0 -120 -87 -217 -224 -349l-51 -48v-2h291v-73z"></glyph><glyph glyph-name="three.fitted" unicode="" d="M7 33l24 67c25 -15 82 -40 144 -40c112 0 148 71 147 126c-1 91 -83 130 -168 130h-49v66h49c64 0 145 33 145 110c0 52 -33 98 -114 98c-52 0 -102 -23 -130 -43l-24 64c35 25 101 50 171 50c128 0 186 -76 186 -155c0 -68 -41 -125 -120 -154v-2 c80 -15 144 -75 145 -166c0 -104 -82 -195 -237 -195c-73 0 -137 23 -169 44z"></glyph><glyph glyph-name="four.fitted" unicode="" d="M396 0h-83v178h-302v57l290 415h95v-404h91v-68h-91v-178zM100 246h213v217c0 34 1 68 3 102h-3c-20 -38 -36 -66 -54 -96l-159 -221v-2z"></glyph><glyph glyph-name="five.fitted" unicode="" d="M406 650v-74h-248l-25 -167c15 2 29 3 53 3c51 0 100 -10 140 -35c51 -28 93 -85 93 -166c0 -127 -101 -222 -242 -222c-71 0 -130 20 -162 40l22 67c27 -16 80 -36 140 -36c82 0 154 54 153 141c0 84 -57 143 -186 143c-38 0 -67 -3 -91 -6l42 312h311z"></glyph><glyph glyph-name="six.fitted" unicode="" d="M418 660v-72c-18 1 -41 -1 -66 -5c-139 -22 -211 -122 -226 -230h2c31 42 86 76 158 76c115 0 196 -84 196 -210c0 -120 -81 -230 -217 -230c-138 0 -229 108 -229 277c0 128 45 229 110 293c54 53 126 86 208 96c26 4 48 5 64 5zM267 57c75 0 126 63 126 156 s-53 149 -134 149c-53 0 -103 -32 -127 -80c-5 -10 -9 -22 -9 -38c1 -107 51 -187 144 -187z"></glyph><glyph glyph-name="seven.fitted" unicode="" d="M1 650h410v-58l-283 -592h-91l282 575v2h-318v73z"></glyph><glyph glyph-name="eight.fitted" unicode="" d="M166 339l-1 3c-73 34 -104 90 -104 146c0 103 87 173 202 173c126 0 190 -78 190 -160c0 -55 -28 -115 -108 -152v-3c81 -32 131 -90 131 -168c0 -114 -97 -189 -221 -189c-136 0 -218 80 -218 175c0 82 49 141 129 175zM257 53c79 0 130 49 130 116 c0 78 -55 117 -143 142c-76 -22 -117 -73 -117 -135c-3 -65 47 -123 130 -123zM258 598c-73 0 -113 -48 -113 -104c-1 -65 49 -100 124 -120c56 19 99 59 99 118c0 52 -31 106 -110 106z"></glyph><glyph glyph-name="nine.fitted" unicode="" d="M96 -10v72c19 -2 41 0 71 3c51 7 99 27 136 63c43 39 74 96 86 172h-3c-36 -44 -88 -69 -154 -69c-116 0 -191 88 -191 199c0 123 89 231 222 231s215 -107 215 -275c0 -142 -48 -242 -112 -304c-50 -49 -119 -79 -189 -87c-32 -5 -60 -6 -81 -5zM255 594 c-74 0 -127 -66 -127 -159c0 -81 49 -138 125 -138c59 0 105 29 128 68c5 9 8 18 8 33c0 111 -41 196 -134 196z"></glyph><glyph glyph-name="zero.slashfitted" unicode="" d="M145 168l202 374c-20 32 -50 51 -90 51c-83 0 -135 -105 -136 -265c-1 -63 8 -117 24 -160zM371 482l-202 -376c22 -32 50 -49 86 -49c92 0 137 105 137 271c0 58 -7 110 -21 154zM473 649l-49 -79c35 -57 53 -138 53 -238c0 -221 -82 -343 -225 -343 c-48 0 -91 16 -126 50l-36 -63l-44 31l46 74c-35 55 -55 138 -56 242c-1 220 94 338 226 338c51 0 94 -16 128 -49l39 66z"></glyph><glyph glyph-name="zero.taboldstyle" unicode="" d="M264 -11c-123 0 -224 92 -224 254c0 157 100 253 225 253c124 0 225 -92 225 -253c0 -158 -100 -254 -226 -254zM266 56c87 0 139 79 139 187c0 107 -52 186 -140 186s-140 -79 -140 -186c0 -108 52 -187 141 -187z"></glyph><glyph glyph-name="one.taboldstyle" unicode="" d="M365 0h-84v411h-2l-186 -83l-15 65l214 92h73v-485z"></glyph><glyph glyph-name="two.taboldstyle" unicode="" d="M462 0h-396v48l49 34c150 99 224 167 224 248c0 65 -45 98 -108 98c-51 0 -101 -24 -135 -49l-24 57c36 27 101 62 182 62c101 0 173 -57 173 -156c0 -93 -72 -162 -177 -236l-51 -37v-3c25 3 56 4 82 4h181v-70z"></glyph><glyph glyph-name="three.taboldstyle" unicode="" d="M62 -95l10 65c25 -8 67 -16 109 -16c99 0 169 48 169 121c0 63 -60 102 -152 102c-23 0 -43 -1 -55 -2l-2 65l19 1c93 7 163 44 163 106c0 54 -40 80 -105 80c-51 0 -99 -21 -123 -34l-18 58c31 21 94 45 160 45c102 0 174 -51 174 -134c0 -69 -50 -119 -118 -139v-3 c79 -11 147 -59 147 -144c0 -115 -116 -191 -251 -191c-52 0 -105 10 -127 20z"></glyph><glyph glyph-name="four.taboldstyle" unicode="" d="M497 50h-91v-167h-82v167h-292v57l279 385h95v-375h91v-67zM324 117v201c0 32 0 62 3 94l-4 1c-16 -32 -35 -65 -54 -94l-150 -199l1 -3h204z"></glyph><glyph glyph-name="five.taboldstyle" unicode="" d="M78 -97l11 63c23 -7 64 -13 102 -13c86 0 164 45 164 129c0 28 -11 54 -31 73c-39 38 -118 50 -227 43l51 287h287l-11 -72h-217l-29 -150c83 2 168 -11 220 -61c30 -29 46 -70 46 -113c0 -122 -103 -203 -252 -203c-44 0 -89 7 -114 17z"></glyph><glyph glyph-name="six.taboldstyle" unicode="" d="M441 606l6 -65c-180 -11 -274 -106 -296 -219l3 -1c25 36 76 73 146 73c101 0 186 -72 186 -191c0 -135 -104 -214 -208 -214c-133 0 -222 99 -222 247c0 207 146 357 385 370zM279 56c59 0 120 47 120 142c0 82 -49 134 -121 134c-46 0 -82 -23 -101 -43 c-24 -25 -32 -50 -32 -83c0 -81 52 -150 134 -150z"></glyph><glyph glyph-name="seven.taboldstyle" unicode="" d="M454 485v-56c-62 -163 -181 -386 -282 -542l-82 15c81 119 221 368 274 508v2h-297v73h387z"></glyph><glyph glyph-name="eight.taboldstyle" unicode="" d="M351 320l-1 -3c76 -27 129 -80 129 -151c0 -108 -98 -177 -218 -177c-127 0 -213 69 -213 166c0 72 51 125 125 158v3c-56 24 -101 66 -101 129c0 96 86 162 197 162c113 0 187 -67 187 -151c0 -58 -34 -102 -105 -136zM268 547c-61 0 -111 -36 -111 -95 c0 -54 45 -88 121 -108c53 16 96 52 96 108c0 63 -52 95 -106 95zM263 52c70 0 126 42 126 106c0 63 -51 105 -142 129c-66 -22 -111 -68 -111 -124c0 -65 48 -111 127 -111z"></glyph><glyph glyph-name="nine.taboldstyle" unicode="" d="M89 -114l-7 65c172 7 272 91 300 209h-2c-21 -33 -76 -67 -144 -67c-101 0 -186 71 -186 191c0 122 94 214 216 214c119 0 213 -87 213 -241c0 -223 -160 -364 -390 -371zM260 155c50 0 97 30 116 65c10 13 16 35 16 60c0 90 -59 150 -130 150c-60 0 -125 -45 -125 -139 c0 -93 57 -136 123 -136z"></glyph><glyph glyph-name="dollar.taboldstyle" unicode="" d="M294 -81h-57v80c-53 1 -113 17 -147 40l24 60c28 -20 85 -36 133 -36c58 0 107 27 107 72c0 39 -30 60 -101 84c-102 34 -152 70 -152 137s58 116 143 126v86h57v-83c54 -2 98 -17 123 -31l-23 -60c-24 14 -69 30 -116 30c-55 0 -97 -25 -97 -62c0 -35 23 -54 109 -82 c101 -33 147 -76 147 -141c0 -63 -54 -124 -150 -138v-82z"></glyph><glyph glyph-name="cent.taboldstyle" unicode="" d="M403 129l14 -59c-17 -9 -56 -22 -100 -24v-72h-55v72c-108 13 -181 84 -181 198c0 108 72 189 181 205v68h55v-66c40 -1 78 -11 98 -20l-16 -60c-20 11 -53 18 -94 18c-84 0 -141 -57 -141 -141c0 -92 62 -139 137 -139c47 0 81 10 102 20z"></glyph><glyph glyph-name="euro.taboldstyle" unicode="" d="M660 160l42 -22c-23 -43 -61 -79 -113 -106c-52 -28 -109 -42 -172 -42c-86 0 -159 26 -218 78c-59 51 -99 117 -118 196h-76v47h67c-2 18 -3 36 -3 53c0 10 1 24 2 43h-66v47h74c19 83 62 148 128 197c65 49 137 73 215 73c58 0 111 -14 159 -41c47 -27 83 -63 106 -106 l-42 -22c-33 39 -66 67 -100 86c-34 18 -73 27 -118 27c-67 0 -123 -19 -168 -57s-75 -90 -90 -157h311v-47h-319c-1 -20 -2 -35 -2 -45c0 -17 1 -34 3 -51h318v-47h-310c15 -66 45 -119 90 -158c45 -40 101 -60 169 -60c89 0 166 38 231 114z"></glyph><glyph glyph-name="fhook.taboldstyle" unicode="" d="M128 282v58h99l6 53c12 99 57 215 191 214c30 0 55 -7 69 -15l-17 -64c-15 6 -32 10 -52 10c-68 0 -98 -65 -106 -139l-7 -59h121v-58h-128l-22 -182c-15 -130 -56 -217 -174 -218c-33 0 -61 7 -77 17l16 62c17 -8 35 -11 56 -11c61 0 85 55 97 157l20 175h-92z"></glyph><glyph glyph-name="sterling.taboldstyle" unicode="" d="M478 0h-415v50c66 28 107 74 107 128c0 15 -2 30 -4 44h-97v55h86c-4 21 -8 42 -8 62c0 115 77 194 192 194c50 0 87 -12 109 -25l-19 -64c-18 10 -49 20 -90 20c-73 0 -109 -49 -109 -126c0 -21 3 -42 7 -61h149v-55h-139c2 -11 3 -22 3 -32c-1 -53 -27 -93 -63 -117v-2 h291v-71z"></glyph><glyph glyph-name="yen.taboldstyle" unicode="" d="M305 0h-83v115h-152v49h152v60h-152v49h127l-149 242h93l86 -154c16 -30 28 -54 39 -78h2c11 25 27 52 42 80l91 152h91l-160 -242h127v-49h-154v-60h154v-49h-154v-115z"></glyph><glyph glyph-name="numbersign.taboldstyle" unicode="" d="M205 226h104l19 145h-104zM174 -3h-60l23 170h-83v59h92l19 145h-87v59h95l22 165h59l-22 -165h105l22 165h59l-22 -165h82v-59h-91l-18 -145h86v-59h-95l-22 -170h-61l23 170h-104z"></glyph><glyph glyph-name="zerosuperior" unicode="⁰" d="M202 770c51 0 91 -21 120 -62c29 -42 43 -95 43 -158s-14 -116 -43 -157c-29 -42 -69 -63 -120 -63s-91 21 -120 63c-29 41 -43 94 -43 157s14 116 43 158c29 41 69 62 120 62zM202 378c56 0 84 57 84 172s-28 172 -84 172c-57 0 -85 -57 -85 -172s28 -172 85 -172z"></glyph><glyph glyph-name="one.superior" d="M177 443h-70v328h-2l-72 -35l-11 52l94 45h61v-390z"></glyph><glyph glyph-name="two.superior" d="M12 443v37l63 58c83 76 126 123 126 174c0 38 -24 69 -76 69c-35 0 -65 -17 -84 -31l-21 46c27 22 72 41 123 41c94 0 132 -59 132 -112c0 -75 -57 -130 -133 -197l-30 -28v-2h170v-55h-270z"></glyph><glyph glyph-name="three.superior" d="M45 759l-17 48c23 15 66 31 115 31c86 0 122 -46 122 -94c0 -41 -29 -74 -77 -91v-2c54 -8 93 -46 93 -97c0 -61 -56 -117 -158 -117c-48 0 -92 13 -115 28l18 50c16 -10 56 -26 93 -26c62 0 89 36 88 67c0 51 -53 71 -106 71h-27v46h28c37 0 91 17 91 63 c0 25 -18 50 -63 50c-36 0 -69 -16 -85 -27z"></glyph><glyph glyph-name="foursuperior" unicode="⁴" d="M307 493h50v-47h-50v-112h-77v112h-200v47l200 274h77v-274zM230 493v191l-139 -191h139z"></glyph><glyph glyph-name="fivesuperior" unicode="⁵" d="M196 330c-65 0 -111 23 -138 69l28 24c24 -30 54 -45 91 -45c25 0 46 7 64 21c17 14 26 37 26 68c0 33 -9 56 -27 71c-19 15 -41 22 -66 22c-26 0 -47 -7 -64 -20l-33 23v201h236v-56h-189v-116c17 10 40 15 68 15c47 0 85 -13 113 -40c27 -27 41 -60 41 -101 c0 -39 -13 -72 -40 -97c-27 -26 -63 -39 -110 -39z"></glyph><glyph glyph-name="sixsuperior" unicode="⁶" d="M233 605c33 0 62 -11 88 -34s39 -55 39 -96c0 -43 -15 -78 -44 -105s-65 -40 -107 -40c-19 0 -37 3 -54 10c-18 6 -35 16 -52 30c-17 13 -30 33 -40 60s-15 58 -15 95c0 75 19 134 57 179c38 44 82 66 132 66c21 0 42 -4 61 -12c19 -9 33 -20 43 -35l-27 -25 c-19 20 -41 30 -66 30c-32 0 -59 -14 -81 -43c-23 -29 -36 -71 -40 -126c29 31 65 46 106 46zM205 378c23 0 41 8 56 25c14 16 21 39 21 70c0 27 -6 47 -17 62s-28 22 -49 22c-35 0 -65 -14 -90 -41c1 -92 27 -138 79 -138z"></glyph><glyph glyph-name="sevensuperior" unicode="⁷" d="M92 336c27 123 91 247 192 372h-229v56h302v-46c-45 -53 -84 -113 -118 -181c-35 -69 -58 -136 -69 -201h-78z"></glyph><glyph glyph-name="eightsuperior" unicode="⁸" d="M266 573c32 -17 55 -35 70 -52c14 -17 21 -39 21 -64c0 -40 -15 -71 -44 -93c-30 -23 -68 -34 -113 -34c-24 0 -46 3 -67 9c-21 5 -41 17 -59 36s-27 43 -27 73c0 53 26 91 77 113c-39 28 -58 62 -58 101c0 35 13 61 38 80s59 28 102 28c41 0 74 -8 97 -25s35 -42 35 -74 c0 -43 -24 -76 -72 -98zM204 727c-22 0 -39 -5 -51 -14c-13 -10 -19 -24 -19 -41c0 -12 4 -22 12 -31c7 -9 16 -16 25 -21s24 -13 45 -23c12 9 21 16 28 21c6 5 12 12 18 22c5 9 8 20 8 31c0 37 -22 56 -66 56zM202 374c26 0 47 6 63 19c15 13 23 29 23 50 c0 27 -18 49 -53 65l-23 10c-16 6 -30 12 -41 17c-37 -23 -55 -52 -55 -87c0 -23 8 -41 23 -54s36 -20 63 -20z"></glyph><glyph glyph-name="ninesuperior" unicode="⁹" d="M195 770c19 0 37 -3 55 -9c17 -7 34 -17 51 -30c17 -14 30 -34 40 -61s15 -58 15 -95c0 -75 -19 -134 -57 -178c-38 -45 -82 -67 -132 -67c-21 0 -41 4 -60 13c-19 8 -34 19 -44 34l27 25c19 -20 41 -30 66 -30c32 0 59 14 82 43c22 29 35 71 39 126 c-29 -31 -65 -46 -106 -46c-33 0 -62 11 -88 34s-39 55 -39 96c0 43 15 78 44 105s65 40 107 40zM188 543c35 0 65 14 90 41c-1 92 -27 138 -79 138c-23 0 -41 -8 -55 -24c-15 -17 -22 -40 -22 -71c0 -27 6 -47 17 -62s28 -22 49 -22z"></glyph><glyph glyph-name="period.superior" unicode="" d="M64 437c-25 0 -43 20 -43 45c0 27 19 45 44 45c26 0 44 -18 44 -45c0 -25 -18 -45 -45 -45z"></glyph><glyph glyph-name="comma.superior" unicode="" d="M48 376l-48 -5c16 44 32 106 39 155l74 6c-17 -56 -43 -120 -65 -156z"></glyph><glyph glyph-name="dollar.superior" unicode="" d="M179 391h-45v59c-38 1 -76 12 -99 27l16 50c24 -15 57 -27 94 -27c42 0 69 21 69 51s-21 46 -69 64c-66 24 -105 51 -105 106c0 51 36 90 97 100v59h45v-56c37 -1 65 -11 83 -21l-16 -49c-13 7 -41 21 -82 21c-46 0 -61 -24 -61 -46c0 -27 19 -40 76 -61 c67 -25 98 -57 98 -111c0 -49 -35 -94 -101 -104v-62z"></glyph><glyph glyph-name="cent.superior" unicode="" d="M206 435h-46v60c-40 5 -68 20 -90 44c-21 23 -34 58 -34 99c0 76 47 136 124 149v58h46v-57c25 0 48 -7 64 -14l-13 -50c-13 7 -32 14 -61 14c-57 0 -93 -41 -93 -97c0 -62 41 -96 91 -96c32 0 53 7 68 13l10 -47c-13 -7 -37 -15 -66 -17v-59z"></glyph><glyph glyph-name="hyphenminus.superior" unicode="" d="M18 650h155v-48h-155v48z"></glyph><glyph glyph-name="parenleftsuperior" unicode="⁽" d="M117 868h51c-40 -57 -72 -136 -72 -243c0 -106 33 -182 72 -241h-51c-36 49 -77 126 -77 241c0 117 41 195 77 243z"></glyph><glyph glyph-name="parenrightsuperior" unicode="⁾" d="M64 384h-51c39 59 72 136 72 242s-32 184 -72 242h51c36 -48 77 -125 77 -242c0 -115 -41 -192 -77 -242z"></glyph><glyph glyph-name="zeroinferior" unicode="₀" d="M202 383c51 0 91 -21 120 -62c29 -42 43 -95 43 -158s-14 -116 -43 -157c-29 -42 -69 -63 -120 -63s-91 21 -120 63c-29 41 -43 94 -43 157s14 116 43 158c29 41 69 62 120 62zM202 -9c56 0 84 57 84 172s-28 172 -84 172c-57 0 -85 -57 -85 -172s28 -172 85 -172z"></glyph><glyph glyph-name="oneinferior" unicode="₁" d="M180 377h77v-381h80v-47h-242v47h85v320l-80 -75l-31 33z"></glyph><glyph glyph-name="twoinferior" unicode="₂" d="M56 -51v47l141 161c38 42 57 80 57 113c0 20 -7 36 -20 48c-14 11 -33 17 -58 17c-37 0 -64 -13 -83 -39l-28 24c26 42 71 63 134 63c42 0 75 -10 98 -30s35 -47 35 -80c0 -35 -20 -75 -59 -119c-8 -9 -54 -59 -139 -149h209v-56h-287z"></glyph><glyph glyph-name="threeinferior" unicode="₃" d="M82 35c23 -29 55 -44 96 -44c29 0 52 8 69 23s25 35 25 60c0 17 -4 32 -12 44c-8 11 -19 19 -34 24s-28 8 -41 10c-13 1 -27 2 -44 2v43c75 0 112 24 112 73c0 21 -6 37 -19 48s-32 17 -55 17c-37 0 -64 -13 -82 -39l-28 24c11 19 29 34 52 46c23 11 48 17 77 17 c35 0 66 -8 93 -25c26 -17 39 -43 39 -77c0 -28 -9 -51 -27 -68c-18 -18 -40 -29 -67 -33c32 -4 59 -15 81 -34c21 -19 32 -44 32 -75c0 -33 -12 -62 -36 -88c-25 -27 -64 -40 -117 -40c-65 0 -112 23 -142 68z"></glyph><glyph glyph-name="fourinferior" unicode="₄" d="M307 106h50v-47h-50v-112h-77v112h-200v47l200 274h77v-274zM230 106v191l-139 -191h139z"></glyph><glyph glyph-name="fiveinferior" unicode="₅" d="M196 -57c-65 0 -111 23 -138 69l28 24c24 -30 54 -45 91 -45c25 0 46 7 64 21c17 14 26 37 26 68c0 33 -9 56 -27 71c-19 15 -41 22 -66 22c-26 0 -47 -7 -64 -20l-33 23v201h236v-56h-189v-116c17 10 40 15 68 15c47 0 85 -13 113 -40c27 -27 41 -60 41 -101 c0 -39 -13 -72 -40 -97c-27 -26 -63 -39 -110 -39z"></glyph><glyph glyph-name="sixinferior" unicode="₆" d="M233 218c33 0 62 -11 88 -34s39 -55 39 -96c0 -43 -15 -78 -44 -105s-65 -40 -107 -40c-19 0 -37 3 -54 10c-18 6 -35 16 -52 30c-17 13 -30 33 -40 60s-15 58 -15 95c0 75 19 134 57 179c38 44 82 66 132 66c21 0 42 -4 61 -12c19 -9 33 -20 43 -35l-27 -25 c-19 20 -41 30 -66 30c-32 0 -59 -14 -81 -43c-23 -29 -36 -71 -40 -126c29 31 65 46 106 46zM205 -9c23 0 41 8 56 25c14 16 21 39 21 70c0 27 -6 47 -17 62s-28 22 -49 22c-35 0 -65 -14 -90 -41c1 -92 27 -138 79 -138z"></glyph><glyph glyph-name="seveninferior" unicode="₇" d="M92 -51c27 123 91 247 192 372h-229v56h302v-46c-45 -53 -84 -113 -118 -181c-35 -69 -58 -136 -69 -201h-78z"></glyph><glyph glyph-name="eightinferior" unicode="₈" d="M266 186c32 -17 55 -35 70 -52c14 -17 21 -39 21 -64c0 -40 -15 -71 -44 -93c-30 -23 -68 -34 -113 -34c-24 0 -46 3 -67 9c-21 5 -41 17 -59 36s-27 43 -27 73c0 53 26 91 77 113c-39 28 -58 62 -58 101c0 35 13 61 38 80s59 28 102 28c41 0 74 -8 97 -25s35 -42 35 -74 c0 -43 -24 -76 -72 -98zM204 340c-22 0 -39 -5 -51 -14c-13 -10 -19 -24 -19 -41c0 -12 4 -22 12 -31c7 -9 16 -16 25 -21s24 -13 45 -23c12 9 21 16 28 21c6 5 12 12 18 22c5 9 8 20 8 31c0 37 -22 56 -66 56zM202 -13c26 0 47 6 63 19c15 13 23 29 23 50 c0 27 -18 49 -53 65l-23 9c-16 7 -30 13 -41 18c-37 -23 -55 -52 -55 -87c0 -23 8 -41 23 -54s36 -20 63 -20z"></glyph><glyph glyph-name="nineinferior" unicode="₉" d="M195 383c19 0 37 -3 55 -9c17 -7 34 -17 51 -30c17 -14 30 -34 40 -61s15 -58 15 -95c0 -75 -19 -134 -57 -178c-38 -45 -82 -67 -132 -67c-21 0 -41 4 -60 13c-19 8 -34 19 -44 34l27 25c19 -20 41 -30 66 -30c32 0 59 14 82 43c22 29 35 71 39 126 c-29 -31 -65 -46 -106 -46c-33 0 -62 11 -88 34s-39 55 -39 96c0 43 15 78 44 105s65 40 107 40zM188 156c35 0 65 14 90 41c-1 92 -27 138 -79 138c-23 0 -41 -8 -55 -24c-15 -17 -22 -40 -22 -71c0 -27 6 -47 17 -62s28 -22 49 -22z"></glyph><glyph glyph-name="period.inferior" unicode="" d="M64 -153c-25 0 -43 20 -43 45c0 27 19 45 44 45c26 0 44 -18 44 -45c0 -25 -18 -45 -45 -45z"></glyph><glyph glyph-name="comma.inferior" unicode="" d="M48 -213l-48 -5c16 44 32 106 39 155l74 6c-17 -56 -43 -120 -65 -156z"></glyph><glyph glyph-name="dollar.inferior" unicode="" d="M179 -198h-45v59c-38 1 -76 12 -99 27l16 50c24 -15 57 -27 94 -27c42 0 69 21 69 51s-21 46 -69 64c-66 24 -105 51 -105 106c0 51 36 90 97 100v59h45v-56c37 -1 65 -11 83 -21l-16 -49c-13 7 -41 21 -82 21c-46 0 -61 -24 -61 -46c0 -27 19 -40 76 -61 c67 -25 98 -57 98 -111c0 -49 -35 -94 -101 -104v-62z"></glyph><glyph glyph-name="cent.inferior" unicode="" d="M206 -155h-46v60c-40 5 -68 20 -90 44c-21 23 -34 58 -34 99c0 76 47 137 124 150v58h46v-57c25 0 48 -7 64 -14l-13 -50c-13 7 -32 14 -61 14c-57 0 -93 -41 -93 -97c0 -63 41 -97 91 -97c32 0 53 7 68 13l10 -47c-13 -6 -37 -15 -66 -17v-59z"></glyph><glyph glyph-name="hyphenminus.inferior" unicode="" d="M18 61h155v-48h-155v48z"></glyph><glyph glyph-name="parenleftinferior" unicode="₍" d="M117 278h51c-40 -57 -72 -136 -72 -243c0 -106 33 -182 72 -241h-51c-36 49 -77 126 -77 241c0 117 41 195 77 243z"></glyph><glyph glyph-name="parenrightinferior" unicode="₎" d="M64 -206h-51c39 59 72 136 72 242s-32 184 -72 242h51c36 -48 77 -125 77 -242c0 -115 -41 -192 -77 -242z"></glyph><glyph glyph-name="zero.numerator" unicode="" d="M165 261c-87 0 -142 75 -142 199s57 201 147 201c92 0 143 -76 143 -197c0 -122 -50 -203 -148 -203zM168 312c49 0 75 56 75 150c0 93 -25 148 -75 148c-45 0 -75 -54 -75 -148c0 -96 29 -150 75 -150z"></glyph><glyph glyph-name="one.numerator" unicode="" d="M177 266h-70v329h-2l-72 -35l-11 52l94 44h61v-390z"></glyph><glyph glyph-name="two.numerator" unicode="" d="M12 266v37l63 58c83 77 126 123 126 174c0 39 -24 70 -76 70c-35 0 -65 -17 -84 -31l-21 46c27 22 72 41 123 41c94 0 132 -59 132 -112c0 -76 -57 -131 -133 -198l-30 -28v-2h170v-55h-270z"></glyph><glyph glyph-name="three.numerator" unicode="" d="M45 582l-17 48c23 15 66 31 115 31c86 0 122 -46 122 -94c0 -41 -29 -74 -77 -90v-2c54 -8 93 -46 93 -97c0 -62 -56 -117 -158 -117c-48 0 -92 13 -115 28l18 50c16 -11 56 -26 93 -26c62 0 89 36 88 67c0 51 -53 71 -106 70h-27v46h28c37 0 91 17 91 63 c0 25 -18 50 -63 50c-36 0 -69 -16 -85 -27z"></glyph><glyph glyph-name="four.numerator" unicode="" d="M272 266h-67v102h-189v41l177 247h79v-238h55v-50h-55v-102zM205 418v116c0 22 2 43 3 63h-2c-12 -23 -22 -41 -34 -59l-86 -119l1 -1h118z"></glyph><glyph glyph-name="five.numerator" unicode="" d="M268 654v-55h-155l-13 -85c8 1 18 1 31 1c33 0 66 -5 93 -21c30 -17 55 -51 55 -100c0 -77 -63 -134 -155 -134c-44 0 -85 13 -105 24l14 50c17 -10 51 -22 89 -22c45 0 88 28 88 76c0 47 -32 79 -113 79c-22 0 -42 -2 -57 -4l26 191h202z"></glyph><glyph glyph-name="six.numerator" unicode="" d="M267 660v-53c-10 1 -25 1 -40 -1c-80 -11 -125 -62 -136 -122h2c19 21 52 41 94 41c72 0 122 -50 122 -125c0 -77 -57 -139 -138 -139c-93 0 -148 70 -148 167c0 74 27 135 67 173c35 33 81 51 138 57c15 1 29 2 39 2zM171 312c42 0 70 36 70 84c0 49 -29 81 -76 81 c-31 0 -58 -19 -71 -45c-3 -6 -5 -12 -5 -21c0 -54 28 -99 82 -99z"></glyph><glyph glyph-name="seven.numerator" unicode="" d="M19 654h263v-43l-172 -345h-70l171 332v1h-192v55z"></glyph><glyph glyph-name="eight.numerator" unicode="" d="M168 661c81 0 121 -47 121 -97c0 -34 -18 -69 -63 -89v-2c45 -17 78 -50 78 -98c0 -68 -59 -114 -142 -114c-90 0 -138 51 -138 105c0 48 29 81 77 100v3c-43 19 -63 52 -63 86c0 64 56 106 130 106zM164 308c44 0 72 27 72 62c0 44 -32 64 -79 76 c-43 -12 -66 -38 -66 -72s27 -66 73 -66zM164 615c-41 0 -63 -26 -63 -56c0 -35 27 -55 70 -66c31 10 55 31 55 64c0 28 -18 58 -62 58z"></glyph><glyph glyph-name="nine.numerator" unicode="" d="M58 262v53c11 -1 26 -1 42 1c31 3 61 14 84 33c26 21 44 52 51 92h-2c-20 -23 -50 -38 -89 -38c-71 0 -121 50 -121 120c0 74 58 138 141 138c89 0 139 -69 139 -165c0 -83 -28 -143 -68 -180c-33 -31 -80 -48 -130 -52c-18 -2 -36 -3 -47 -2zM160 611 c-40 0 -70 -36 -70 -85c0 -42 27 -75 71 -75c33 0 58 16 71 37c3 4 4 11 4 19c0 57 -22 104 -76 104z"></glyph><glyph glyph-name="period.numerator" unicode="" d="M64 260c-25 0 -43 20 -43 45c0 27 19 45 44 45c26 0 44 -18 44 -45c0 -25 -18 -45 -45 -45z"></glyph><glyph glyph-name="comma.numerator" unicode="" d="M48 200l-48 -5c16 44 32 106 39 155l74 6c-17 -56 -43 -120 -65 -156z"></glyph><glyph glyph-name="dollar.numerator" unicode="" d="M179 215h-45v59c-38 1 -76 12 -99 27l16 50c24 -15 57 -27 94 -27c42 0 69 21 69 51s-21 46 -69 64c-66 24 -105 51 -105 106c0 51 36 90 97 100v59h45v-56c37 -1 65 -11 83 -21l-16 -49c-13 7 -41 21 -82 21c-46 0 -61 -24 -61 -46c0 -27 19 -40 76 -61 c67 -25 98 -57 98 -111c0 -49 -35 -94 -101 -104v-62z"></glyph><glyph glyph-name="cent.numerator" unicode="" d="M206 258h-46v60c-40 5 -68 20 -90 44c-21 23 -34 58 -34 99c0 76 47 137 124 150v58h46v-57c25 0 48 -7 64 -14l-13 -50c-13 7 -32 14 -61 14c-57 0 -93 -41 -93 -97c0 -63 41 -97 91 -97c32 0 53 7 68 13l10 -47c-13 -7 -37 -15 -66 -17v-59z"></glyph><glyph glyph-name="hyphenminus.numerator" unicode="" d="M18 474h155v-48h-155v48z"></glyph><glyph glyph-name="parenleft.numerator" unicode="" d="M117 691h51c-40 -57 -72 -136 -72 -243c0 -106 33 -182 72 -241h-51c-36 49 -77 126 -77 241c0 117 41 195 77 243z"></glyph><glyph glyph-name="parenright.numerator" unicode="" d="M64 207h-51c39 59 72 136 72 242s-32 184 -72 242h51c36 -48 77 -125 77 -242c0 -115 -41 -192 -77 -242z"></glyph><glyph glyph-name="zero.denominator" unicode="" d="M165 -5c-87 0 -142 75 -142 199s57 201 147 201c92 0 143 -76 143 -197c0 -122 -50 -203 -148 -203zM168 46c49 0 75 56 75 150c0 93 -25 148 -75 148c-45 0 -75 -54 -75 -148c0 -96 29 -150 75 -150z"></glyph><glyph glyph-name="one.denominator" unicode="" d="M177 0h-70v329h-2l-72 -35l-11 52l94 44h61v-390z"></glyph><glyph glyph-name="two.denominator" unicode="" d="M12 0v37l63 58c83 77 126 123 126 174c0 39 -24 70 -76 70c-35 0 -65 -17 -84 -31l-21 46c27 22 72 41 123 41c94 0 132 -59 132 -112c0 -76 -57 -131 -133 -198l-30 -28v-2h170v-55h-270z"></glyph><glyph glyph-name="three.denominator" unicode="" d="M45 316l-17 48c23 15 66 31 115 31c86 0 122 -46 122 -94c0 -41 -29 -74 -77 -90v-2c54 -8 93 -46 93 -97c0 -62 -56 -117 -158 -117c-48 0 -92 13 -115 28l18 50c16 -11 56 -26 93 -26c62 0 89 36 88 67c0 51 -53 71 -106 70h-27v46h28c37 0 91 17 91 63 c0 25 -18 50 -63 50c-36 0 -69 -16 -85 -27z"></glyph><glyph glyph-name="four.denominator" unicode="" d="M272 0h-67v102h-189v41l177 247h79v-238h55v-50h-55v-102zM205 152v116c0 22 2 43 3 63h-2c-12 -23 -22 -41 -34 -59l-86 -119l1 -1h118z"></glyph><glyph glyph-name="five.denominator" unicode="" d="M268 388v-55h-155l-13 -85c8 1 18 1 31 1c33 0 66 -5 93 -21c30 -17 55 -51 55 -100c0 -77 -63 -134 -155 -134c-44 0 -85 13 -105 24l14 50c17 -10 51 -22 89 -22c45 0 88 28 88 76c0 46 -32 79 -113 79c-22 0 -42 -3 -57 -4l26 191h202z"></glyph><glyph glyph-name="six.denominator" unicode="" d="M267 394v-53c-10 1 -25 1 -40 -1c-80 -11 -125 -62 -136 -122h2c19 21 52 41 94 41c72 0 122 -50 122 -125c0 -77 -57 -139 -138 -139c-93 0 -148 70 -148 167c0 74 27 135 67 173c35 33 81 51 138 57c15 1 29 2 39 2zM171 46c42 0 70 36 70 84c0 49 -29 81 -76 81 c-31 0 -58 -19 -71 -45c-3 -6 -5 -12 -5 -21c0 -54 28 -99 82 -99z"></glyph><glyph glyph-name="seven.denominator" unicode="" d="M19 388h263v-43l-172 -345h-70l171 332v1h-192v55z"></glyph><glyph glyph-name="eight.denominator" unicode="" d="M168 395c81 0 121 -47 121 -97c0 -33 -18 -68 -63 -88v-2c45 -17 78 -50 78 -98c0 -69 -59 -115 -142 -115c-90 0 -138 51 -138 106c0 48 29 80 77 100v3c-43 19 -63 52 -63 86c0 63 56 105 130 105zM164 42c44 0 72 27 72 62c0 44 -32 64 -79 77 c-43 -12 -66 -39 -66 -72c0 -35 27 -67 73 -67zM164 349c-41 0 -63 -26 -63 -56c0 -34 27 -54 70 -65c31 10 55 31 55 63c0 28 -18 58 -62 58z"></glyph><glyph glyph-name="nine.denominator" unicode="" d="M58 -4v53c11 -1 26 -1 42 1c31 3 61 14 84 33c26 21 44 52 51 92h-2c-20 -23 -50 -38 -89 -38c-71 0 -121 50 -121 120c0 74 58 138 141 138c89 0 139 -69 139 -165c0 -83 -28 -143 -68 -180c-33 -31 -80 -48 -130 -52c-18 -2 -36 -3 -47 -2zM160 345 c-40 0 -70 -36 -70 -85c0 -42 27 -75 71 -75c33 0 58 16 71 37c3 4 4 11 4 19c0 57 -22 104 -76 104z"></glyph><glyph glyph-name="period.denominator" unicode="" d="M64 -6c-25 0 -43 20 -43 45c0 27 19 45 44 45c26 0 44 -18 44 -45c0 -25 -18 -45 -45 -45z"></glyph><glyph glyph-name="comma.denominator" unicode="" d="M48 -66l-48 -5c16 44 32 106 39 155l74 6c-17 -56 -43 -120 -65 -156z"></glyph><glyph glyph-name="dollar.denominator" unicode="" d="M179 -51h-45v59c-38 1 -76 12 -99 27l16 50c24 -15 57 -27 94 -27c42 0 69 21 69 51s-21 46 -69 64c-66 24 -105 51 -105 106c0 51 36 90 97 100v59h45v-56c37 -1 65 -11 83 -21l-16 -49c-13 7 -41 21 -82 21c-46 0 -61 -24 -61 -46c0 -27 19 -40 76 -61 c67 -25 98 -57 98 -111c0 -49 -35 -94 -101 -104v-62z"></glyph><glyph glyph-name="cent.denominator" unicode="" d="M206 -8h-46v60c-40 5 -68 20 -90 44c-21 23 -34 58 -34 99c0 76 47 137 124 150v58h46v-57c25 0 48 -7 64 -14l-13 -50c-13 7 -32 14 -61 14c-57 0 -93 -41 -93 -97c0 -63 41 -97 91 -97c32 0 53 7 68 13l10 -47c-13 -7 -37 -15 -66 -17v-59z"></glyph><glyph glyph-name="hyphenminus.denominator" unicode="" d="M18 208h155v-48h-155v48z"></glyph><glyph glyph-name="parenleft.denominator" unicode="" d="M117 425h51c-40 -57 -72 -136 -72 -243c0 -106 33 -182 72 -241h-51c-36 49 -77 126 -77 241c0 117 41 195 77 243z"></glyph><glyph glyph-name="parenright.denominator" unicode="" d="M64 -59h-51c39 59 72 136 72 242s-32 184 -72 242h51c36 -48 77 -125 77 -242c0 -115 -41 -192 -77 -242z"></glyph><glyph glyph-name="at.cap" unicode="" d="M448 348l21 112c-10 4 -27 8 -50 8c-88 0 -159 -83 -159 -180c0 -44 22 -76 66 -76c58 0 111 74 122 136zM508 71l16 -43c-55 -29 -111 -40 -178 -40c-164 0 -303 120 -303 313c0 206 143 385 365 385c174 0 290 -123 290 -290c0 -150 -84 -238 -177 -238 c-40 0 -77 26 -75 88h-3c-35 -59 -81 -88 -141 -88c-58 0 -108 47 -108 126c0 124 98 237 237 237c42 0 81 -9 107 -21l-34 -181c-15 -76 -3 -111 30 -112c51 -2 108 67 108 182c0 146 -87 251 -242 251c-163 0 -300 -130 -300 -333c0 -167 109 -271 257 -271 c57 0 110 13 151 35z"></glyph><glyph glyph-name="emdash.cap" unicode="" d="M30 359h940v-60h-940v60z"></glyph><glyph glyph-name="endash.cap" unicode="" d="M30 359h440v-60h-440v60z"></glyph><glyph glyph-name="exclamdown.cap" unicode="" d="M163 0h-96l14 477h68zM116 683c35 0 58 -26 58 -63c0 -34 -23 -61 -59 -61c-35 0 -59 27 -59 61c0 37 25 63 60 63z"></glyph><glyph glyph-name="guillemotleft.cap" unicode="" d="M232 511l-133 -184l134 -184h-72l-132 184l132 184h71zM396 511l-133 -184l133 -184h-71l-132 184l132 184h71z"></glyph><glyph glyph-name="guillemotright.cap" unicode="" d="M157 327l-133 184h70l133 -184l-133 -184h-70zM320 327l-134 184h71l133 -184l-133 -184h-70z"></glyph><glyph glyph-name="guilsinglleft.cap" unicode="" d="M232 511l-133 -184l133 -184h-71l-132 184l132 184h71z"></glyph><glyph glyph-name="guilsinglright.cap" unicode="" d="M157 327l-133 184h70l133 -184l-133 -184h-70z"></glyph><glyph glyph-name="hyphenminus.cap" unicode="" d="M30 377h247v-64h-247v64z"></glyph><glyph glyph-name="questiondown.cap" unicode="" d="M238 683c35 0 58 -26 58 -63c0 -35 -23 -62 -59 -62c-35 0 -59 27 -59 62c0 37 24 63 60 63zM197 481h77l3 -26c6 -54 -13 -114 -62 -174c-45 -53 -70 -92 -70 -137c0 -51 32 -86 95 -86c36 0 75 12 102 31l23 -63c-34 -23 -90 -40 -143 -40c-115 0 -167 71 -167 147 c0 68 38 117 87 174c44 53 60 97 56 148z"></glyph><glyph glyph-name="braceleft.cap" unicode="" d="M28 302v51c70 0 80 39 81 74c0 28 -4 56 -8 84s-8 56 -8 83c0 92 61 131 146 131h20v-55h-17c-59 -1 -80 -32 -80 -86c0 -23 4 -47 7 -71c4 -25 8 -49 8 -76c1 -64 -28 -96 -73 -108v-2c45 -11 73 -45 73 -109c0 -27 -4 -52 -8 -77c-3 -24 -7 -48 -7 -72 c0 -56 24 -86 80 -87h17v-55h-21c-82 0 -145 36 -145 137c0 27 4 55 9 82c3 28 7 55 7 81c0 32 -10 75 -81 75z"></glyph><glyph glyph-name="braceright.cap" unicode="" d="M256 353v-51c-70 0 -80 -43 -81 -75c0 -26 4 -53 8 -81c4 -27 8 -55 8 -82c0 -101 -63 -137 -145 -137h-21v55h17c56 1 80 31 80 87c0 24 -4 48 -7 72c-4 25 -8 50 -8 77c-1 64 28 98 73 109v2c-45 12 -73 44 -73 108c0 27 4 51 8 76c3 24 7 48 7 71c0 54 -21 85 -80 86 h-17v55h20c85 0 146 -39 146 -131c0 -27 -4 -55 -8 -83s-8 -56 -8 -84c0 -35 10 -74 81 -74z"></glyph><glyph glyph-name="bracketleft.cap" unicode="" d="M264 -73h-183v798h183v-55h-114v-688h114v-55z"></glyph><glyph glyph-name="bracketright.cap" unicode="" d="M20 725h183v-798h-183v55h114v688h-114v55z"></glyph><glyph glyph-name="parenleft.cap" unicode="" d="M195 734h68c-73 -99 -125 -228 -125 -410c0 -178 55 -305 125 -405h-68c-63 83 -131 211 -131 406c1 196 68 325 131 409z"></glyph><glyph glyph-name="parenright.cap" unicode="" d="M88 -81h-68c70 99 125 228 125 408s-54 307 -125 407h68c63 -82 131 -211 131 -407c-1 -196 -68 -324 -131 -408z"></glyph><glyph glyph-name="periodcentered.cap" unicode="" d="M102 275c-34 0 -58 27 -58 62c0 37 25 63 60 63s59 -26 59 -63c0 -35 -24 -62 -61 -62z"></glyph><glyph glyph-name="lessthanorequalto" unicode="≤" d="M471 158l-410 183v47l410 184v-76l-297 -131l297 -131v-76zM61 0v69h410v-69h-410z"></glyph><glyph glyph-name="greaterthanorequalto" unicode="≥" d="M65 572l411 -184v-47l-411 -183v76l298 131l-298 131v76zM65 0v69h411v-69h-411z"></glyph><glyph glyph-name="almostequalto" unicode="≈" d="M396 392c-30 0 -68 10 -115 29s-81 29 -100 29c-39 0 -78 -19 -117 -58v33c11 23 29 44 53 61c23 17 52 25 86 25c29 0 68 -10 115 -29s81 -29 101 -29c38 0 76 19 115 58v-33c-11 -23 -29 -43 -52 -60s-52 -26 -86 -26zM396 190c-30 0 -68 10 -115 29s-81 29 -100 29 c-39 0 -78 -19 -117 -58v33c11 23 29 44 53 61c23 17 52 25 86 25c29 0 68 -10 115 -29s81 -29 101 -29c38 0 76 19 115 58v-33c-11 -23 -29 -43 -52 -60s-52 -26 -86 -26z"></glyph><glyph glyph-name="notequalto" unicode="≠" d="M556 140h-310l-76 -122h-65l79 122h-144v60h182l89 138h-271v60h309l76 122h65l-79 -122h145v-60h-183l-88 -138h271v-60z"></glyph><glyph glyph-name="infinity" unicode="∞" d="M541 117c-74 0 -129 58 -177 105c-51 -50 -104 -105 -186 -105c-84 0 -143 61 -143 146c0 80 64 148 151 148c75 0 130 -58 178 -106c51 51 104 106 186 106c84 0 143 -61 143 -148c0 -78 -64 -146 -152 -146zM543 176c49 0 87 40 87 87c0 51 -36 89 -85 89 c-57 0 -103 -50 -141 -89c39 -35 80 -87 139 -87zM184 176c56 0 102 48 140 87c-39 36 -80 89 -138 89c-50 0 -88 -41 -88 -89c0 -50 36 -87 86 -87z"></glyph><glyph glyph-name="lozenge" unicode="◊" d="M477 324l-182 -355h-69l-181 355l181 356h69zM401 323l-130 267c-4 6 -8 15 -10 23h-2c-3 -8 -7 -17 -11 -23l-128 -264l131 -267c4 -7 8 -15 10 -23h2c3 8 7 16 10 23z"></glyph><glyph glyph-name="integral" unicode="∫" d="M306 788l-12 -56c-8 2 -19 4 -30 4c-17 0 -35 -7 -46 -22c-20 -25 -29 -68 -29 -157c0 -146 12 -320 12 -471c0 -98 -18 -156 -42 -188c-22 -32 -57 -48 -96 -48c-22 0 -44 5 -53 10l11 57c9 -3 21 -6 36 -6c16 0 32 7 44 21c17 21 31 58 31 154c0 152 -12 330 -12 476 c0 101 16 158 52 196c24 26 55 37 89 37c18 0 35 -3 45 -7z"></glyph><glyph glyph-name="partialdifferential" unicode="∂" d="M86 614l-28 59c33 24 88 54 173 54c139 0 264 -125 264 -354c0 -255 -129 -384 -270 -384c-136 0 -199 104 -199 210c0 136 95 244 219 244c84 0 142 -48 164 -87h1c1 10 1 23 1 33c0 176 -94 265 -188 265c-66 0 -111 -21 -137 -40zM233 61c89 0 153 102 167 216 c-18 49 -71 96 -141 96c-80 0 -145 -74 -145 -172c0 -87 48 -140 119 -140z"></glyph><glyph glyph-name="naryproduct" unicode="∏" d="M605 577h-93v-667h-83v667h-244v-667h-83v667h-93v73h596v-73z"></glyph><glyph glyph-name="squareroot" unicode="√" d="M578 827l-230 -922h-63l-160 427l-74 -31l-19 47l138 57l123 -345c8 -22 15 -46 19 -64h1c3 17 8 42 14 64l185 767h66z"></glyph><glyph glyph-name="narysummation" unicode="∑" d="M514 -90h-505v53l251 315l-238 314v58h461v-72h-349v-4l222 -293l-234 -294v-4h392v-73z"></glyph><glyph glyph-name="increment" unicode="∆" d="M544 0h-518v49l211 607h98l209 -606v-50zM452 72l-120 348c-16 48 -36 114 -48 158h-3c-10 -35 -28 -97 -43 -145l-124 -361h338z"></glyph><glyph glyph-name="Ohmsign-grek" unicode="Ω" d="M528 72v-3h147v-69h-253v55c80 55 149 162 149 298c0 123 -73 262 -216 262c-142 0 -221 -131 -221 -264c0 -126 70 -246 150 -296v-55h-254v69h146v3c-67 56 -132 157 -133 286c0 193 135 328 314 328c187 0 304 -141 304 -319c0 -139 -66 -238 -133 -295z"></glyph><glyph glyph-name="pi-grek" unicode="π" d="M520 416h-67v-272c0 -79 6 -119 13 -144h-84c-9 15 -16 58 -16 135v281h-158c-4 -128 -33 -336 -68 -416h-83c36 95 64 287 67 416c-39 0 -73 -3 -98 -9l-12 52c22 15 61 25 139 25h376z"></glyph><glyph glyph-name="aringacute" unicode="ǻ" d="M297 834h97l-142 -106h-62zM413 297v-181c0 -42 2 -83 7 -116h-79l-8 61h-3c-26 -38 -78 -72 -147 -72c-98 0 -148 69 -148 139c0 117 104 181 291 180v10c0 39 -11 112 -110 111c-45 0 -92 -13 -126 -36l-20 59c40 25 98 42 159 42c148 0 184 -101 184 -197zM328 163 l-1 84c-95 2 -204 -15 -204 -109c0 -58 38 -84 83 -84c63 0 104 40 118 81c3 9 4 19 4 28zM241 520c-60 0 -101 40 -101 91c0 53 39 94 102 94c59 0 99 -40 99 -94c0 -52 -44 -91 -100 -91zM240 557c31 0 52 25 52 55c0 31 -20 56 -53 56c-30 0 -48 -27 -48 -57 c0 -27 20 -54 49 -54z"></glyph><glyph glyph-name="Abreve" unicode="Ă" d="M555 0l-90 238h-299l-92 -238h-59l278 714h82l277 -714h-97zM187 292h258l-128 337zM241 835h35c5 -20 20 -40 56 -40c38 0 51 18 57 40h34c-4 -44 -34 -85 -92 -85c-57 0 -85 39 -90 85z"></glyph><glyph glyph-name="Amacron" unicode="Ā" d="M480 860v-50h-295v50h295zM555 0l-90 238h-299l-92 -238h-59l278 714h82l277 -714h-97zM187 292h258l-128 337z"></glyph><glyph glyph-name="Aogonek" unicode="Ą" d="M655 -133l43 -61c-22 -14 -48 -21 -78 -21c-29 0 -54 10 -75 30s-32 44 -32 72c0 38 20 76 60 113h-18l-90 238h-299l-92 -238h-59l278 714h82l277 -714h-22c-19 -13 -35 -30 -49 -50c-15 -20 -20 -40 -15 -61c2 -13 8 -22 17 -29s19 -10 29 -10c14 0 28 6 43 17z M187 292h258l-128 337z"></glyph><glyph glyph-name="i.dot" d="M161 0h-88v484h88v-484zM117 675c32 0 54 -24 54 -55c0 -30 -21 -54 -56 -54c-32 0 -53 24 -53 54s22 55 55 55z"></glyph><glyph glyph-name="Cacute" unicode="Ć" d="M256 784l104 156h113l-150 -156h-67zM390 -10c-105 0 -189 37 -252 112c-64 74 -96 161 -96 262c0 72 17 136 52 192s79 98 132 126s110 42 169 42c58 0 111 -14 159 -41c47 -27 83 -63 106 -106l-42 -22c-33 39 -66 67 -100 86c-34 18 -73 27 -118 27 c-81 0 -146 -28 -195 -83c-49 -56 -73 -130 -73 -223c0 -91 24 -167 72 -226c47 -60 113 -90 198 -90c89 0 166 38 231 114l42 -22c-23 -43 -61 -79 -113 -106c-52 -28 -109 -42 -172 -42z"></glyph><glyph glyph-name="Ccaron" unicode="Č" d="M308 784l-102 154h68l90 -95l90 95h68l-102 -154h-112zM390 -10c-105 0 -189 37 -252 112c-64 74 -96 161 -96 262c0 72 17 136 52 192s79 98 132 126s110 42 169 42c58 0 111 -14 159 -41c47 -27 83 -63 106 -106l-42 -22c-33 39 -66 67 -100 86c-34 18 -73 27 -118 27 c-81 0 -146 -28 -195 -83c-49 -56 -73 -130 -73 -223c0 -91 24 -167 72 -226c47 -60 113 -90 198 -90c89 0 166 38 231 114l42 -22c-23 -43 -61 -79 -113 -106c-52 -28 -109 -42 -172 -42z"></glyph><glyph glyph-name="Ccircumflex" unicode="Ĉ" d="M206 784l102 154h112l102 -154h-68l-90 95l-90 -95h-68zM390 -10c-105 0 -189 37 -252 112c-64 74 -96 161 -96 262c0 72 17 136 52 192s79 98 132 126s110 42 169 42c58 0 111 -14 159 -41c47 -27 83 -63 106 -106l-42 -22c-33 39 -66 67 -100 86c-34 18 -73 27 -118 27 c-81 0 -146 -28 -195 -83c-49 -56 -73 -130 -73 -223c0 -91 24 -167 72 -226c47 -60 113 -90 198 -90c89 0 166 38 231 114l42 -22c-23 -43 -61 -79 -113 -106c-52 -28 -109 -42 -172 -42z"></glyph><glyph glyph-name="Cdotaccent" unicode="Ċ" d="M364 803c-15 0 -27 5 -37 15c-10 9 -15 21 -15 35c0 13 5 25 15 35s22 15 37 15c13 0 25 -5 35 -15c9 -10 14 -22 14 -35c0 -14 -5 -26 -14 -35c-10 -10 -22 -15 -35 -15zM390 -10c-105 0 -189 37 -252 112c-64 74 -96 161 -96 262c0 72 17 136 52 192s79 98 132 126 s110 42 169 42c58 0 111 -14 159 -41c47 -27 83 -63 106 -106l-42 -22c-33 39 -66 67 -100 86c-34 18 -73 27 -118 27c-81 0 -146 -28 -195 -83c-49 -56 -73 -130 -73 -223c0 -91 24 -167 72 -226c47 -60 113 -90 198 -90c89 0 166 38 231 114l42 -22 c-23 -43 -61 -79 -113 -106c-52 -28 -109 -42 -172 -42z"></glyph><glyph glyph-name="Dcaron" unicode="Ď" d="M284 784l-102 154h68l90 -95l90 95h68l-102 -154h-112zM88 0v714h249c99 0 181 -35 248 -105c67 -71 100 -155 100 -252c0 -98 -34 -182 -101 -252c-68 -70 -149 -105 -243 -105h-253zM176 54h171c79 0 140 29 183 86s64 129 64 218c0 90 -22 163 -65 219 c-44 55 -105 83 -182 83h-171v-606z"></glyph><glyph glyph-name="Ebreve" unicode="Ĕ" d="M415 936h53c-1 -39 -14 -75 -40 -106c-26 -32 -64 -48 -115 -48c-50 0 -88 16 -113 48c-26 31 -40 67 -41 106h52c0 -21 9 -41 26 -58c17 -18 42 -27 76 -27s60 9 77 27c17 17 25 37 25 58zM176 54h386v-54h-474v714h472v-54h-384v-270h329v-54h-329v-282z"></glyph><glyph glyph-name="Ecaron" unicode="Ě" d="M258 784l-102 154h68l90 -95l90 95h68l-102 -154h-112zM176 54h386v-54h-474v714h472v-54h-384v-270h329v-54h-329v-282z"></glyph><glyph glyph-name="Edotaccent" unicode="Ė" d="M314 803c-15 0 -27 5 -37 15c-10 9 -15 21 -15 35c0 13 5 25 15 35s22 15 37 15c13 0 25 -5 35 -15c9 -10 14 -22 14 -35c0 -14 -5 -26 -14 -35c-10 -10 -22 -15 -35 -15zM176 54h386v-54h-474v714h472v-54h-384v-270h329v-54h-329v-282z"></glyph><glyph glyph-name="Emacron" unicode="Ē" d="M166 810v50h295v-50h-295zM176 54h386v-54h-474v714h472v-54h-384v-270h329v-54h-329v-282z"></glyph><glyph glyph-name="Eogonek" unicode="Ę" d="M451 0c-19 -13 -35 -30 -49 -50c-15 -20 -20 -40 -15 -61c2 -13 8 -22 17 -29s19 -10 29 -10c14 0 28 6 43 17l43 -61c-22 -14 -48 -21 -78 -21c-29 0 -54 10 -75 30s-32 44 -32 72c0 38 20 76 60 113h-306v714h472v-54h-384v-270h329v-54h-329v-282h386v-54h-111z"></glyph><glyph glyph-name="Gbreve" unicode="Ğ" d="M473 936h53c-1 -39 -14 -75 -40 -106c-26 -32 -64 -48 -115 -48c-50 0 -88 16 -113 48c-26 31 -40 67 -41 106h52c0 -21 9 -41 26 -58c17 -18 42 -27 76 -27s60 9 77 27c17 17 25 37 25 58zM401 -10c-62 0 -117 12 -165 35s-85 54 -112 92c-27 37 -48 77 -61 120 c-14 42 -21 85 -21 128c0 103 35 188 104 257c69 68 151 102 248 102c51 0 101 -11 150 -34s88 -61 119 -114l-40 -20c-35 39 -69 68 -103 86c-34 17 -73 26 -118 26c-47 0 -88 -9 -123 -26c-36 -17 -64 -41 -85 -70c-21 -30 -36 -63 -46 -98c-11 -35 -16 -73 -16 -112 c0 -38 5 -75 15 -110c9 -35 24 -69 45 -100c20 -32 49 -58 86 -77s81 -29 131 -29c69 0 135 18 197 53v179h-133v54h217v-234c-25 -31 -64 -57 -118 -77c-54 -21 -111 -31 -171 -31z"></glyph><glyph glyph-name="Gcircumflex" unicode="Ĝ" d="M214 784l102 154h112l102 -154h-68l-90 95l-90 -95h-68zM401 -10c-62 0 -117 12 -165 35s-85 54 -112 92c-27 37 -48 77 -61 120c-14 42 -21 85 -21 128c0 103 35 188 104 257c69 68 151 102 248 102c51 0 101 -11 150 -34s88 -61 119 -114l-40 -20 c-35 39 -69 68 -103 86c-34 17 -73 26 -118 26c-47 0 -88 -9 -123 -26c-36 -17 -64 -41 -85 -70c-21 -30 -36 -63 -46 -98c-11 -35 -16 -73 -16 -112c0 -38 5 -75 15 -110c9 -35 24 -69 45 -100c20 -32 49 -58 86 -77s81 -29 131 -29c69 0 135 18 197 53v179h-133v54h217 v-234c-25 -31 -64 -57 -118 -77c-54 -21 -111 -31 -171 -31z"></glyph><glyph glyph-name="Gcedilla" unicode="Ģ" d="M401 -10c-62 0 -117 12 -165 35s-85 54 -112 92c-27 37 -48 77 -61 120c-14 42 -21 85 -21 128c0 103 35 188 104 257c69 68 151 102 248 102c51 0 101 -11 150 -34s88 -61 119 -114l-40 -20c-35 39 -69 68 -103 86c-34 17 -73 26 -118 26c-47 0 -88 -9 -123 -26 c-36 -17 -64 -41 -85 -70c-21 -30 -36 -63 -46 -98c-11 -35 -16 -73 -16 -112c0 -38 5 -75 15 -110c9 -35 24 -69 45 -100c20 -32 49 -58 86 -77s81 -29 131 -29c69 0 135 18 197 53v179h-133v54h217v-234c-25 -31 -64 -57 -118 -77c-54 -21 -111 -31 -171 -31zM323 -108 c0 15 6 28 17 39s24 16 39 16s28 -5 39 -14c11 -10 17 -26 17 -49c0 -25 -8 -53 -24 -83c-16 -31 -36 -54 -61 -71c-7 8 -14 17 -21 26c27 29 42 55 46 80c-9 1 -16 3 -23 7c-19 11 -29 28 -29 49z"></glyph><glyph glyph-name="Gdotaccent" unicode="Ġ" d="M372 803c-15 0 -27 5 -37 15c-10 9 -15 21 -15 35c0 13 5 25 15 35s22 15 37 15c13 0 25 -5 35 -15c9 -10 14 -22 14 -35c0 -14 -5 -26 -14 -35c-10 -10 -22 -15 -35 -15zM401 -10c-62 0 -117 12 -165 35s-85 54 -112 92c-27 37 -48 77 -61 120c-14 42 -21 85 -21 128 c0 103 35 188 104 257c69 68 151 102 248 102c51 0 101 -11 150 -34s88 -61 119 -114l-40 -20c-35 39 -69 68 -103 86c-34 17 -73 26 -118 26c-47 0 -88 -9 -123 -26c-36 -17 -64 -41 -85 -70c-21 -30 -36 -63 -46 -98c-11 -35 -16 -73 -16 -112c0 -38 5 -75 15 -110 c9 -35 24 -69 45 -100c20 -32 49 -58 86 -77s81 -29 131 -29c69 0 135 18 197 53v179h-133v54h217v-234c-25 -31 -64 -57 -118 -77c-54 -21 -111 -31 -171 -31z"></glyph><glyph glyph-name="G_tildecomb" unicode="" d="M590 354v-324c-39 -15 -117 -37 -208 -37c-102 0 -186 26 -252 89c-58 56 -94 146 -94 251c0 201 139 348 365 348c78 0 140 -17 169 -31l-22 -71c-36 17 -81 29 -149 29c-164 0 -271 -102 -271 -271c0 -171 102 -272 260 -272c57 0 96 8 116 18v201h-136v70h222z M291 715h-47c-1 61 25 102 68 102c22 0 38 -9 60 -20c16 -9 32 -18 48 -18c15 0 24 7 27 39h46c1 -63 -21 -97 -67 -97c-21 0 -39 8 -62 19c-19 10 -32 19 -47 19c-16 0 -23 -17 -26 -44z"></glyph><glyph glyph-name="Hcircumflex" unicode="Ĥ" d="M209 784l102 154h112l102 -154h-68l-90 95l-90 -95h-68zM559 714h88v-714h-88v336h-383v-336h-88v714h88v-324h383v324z"></glyph><glyph glyph-name="Ibreve" unicode="Ĭ" d="M233 936h53c-1 -39 -14 -75 -40 -106c-26 -32 -64 -48 -115 -48c-50 0 -88 16 -113 48c-26 31 -40 67 -41 106h52c0 -21 9 -41 26 -58c17 -18 42 -27 76 -27s60 9 77 27c17 17 25 37 25 58zM88 714h88v-714h-88v714z"></glyph><glyph glyph-name="Idotaccent" unicode="İ" d="M132 803c-15 0 -27 5 -37 15c-10 9 -15 21 -15 35c0 13 5 25 15 35s22 15 37 15c13 0 25 -5 35 -15c9 -10 14 -22 14 -35c0 -14 -5 -26 -14 -35c-10 -10 -22 -15 -35 -15zM88 714h88v-714h-88v714z"></glyph><glyph glyph-name="Imacron" unicode="Ī" d="M-16 810v50h295v-50h-295zM88 714h88v-714h-88v714z"></glyph><glyph glyph-name="Iogonek" unicode="Į" d="M186 -133l43 -61c-22 -14 -48 -21 -78 -21c-29 0 -54 10 -75 30s-32 44 -32 72c0 38 20 76 60 113h-16v714h88v-714h-15c-19 -13 -35 -30 -49 -50c-15 -20 -20 -40 -15 -61c2 -13 8 -22 17 -29s19 -10 29 -10c14 0 28 6 43 17z"></glyph><glyph glyph-name="Itilde" unicode="Ĩ" d="M88 714h88v-714h-88v714zM88 834c-15 0 -31 -9 -47 -29v36c4 9 11 18 21 25c9 8 21 12 34 12s29 -5 47 -15c19 -9 32 -14 40 -14c16 0 31 9 47 29v-36c-4 -10 -11 -18 -21 -26c-9 -7 -21 -11 -34 -11c-12 0 -28 5 -47 15s-32 14 -40 14z"></glyph><glyph glyph-name="Jcircumflex" unicode="Ĵ" d="M231 784l102 154h112l102 -154h-68l-90 95l-90 -95h-68zM219 -10c-51 0 -95 10 -131 30c-37 19 -62 43 -75 72l38 22c37 -45 86 -68 146 -68c17 0 33 2 48 5s31 9 47 17s29 21 39 39c9 18 14 40 14 65v542h88v-536c0 -61 -20 -107 -59 -139c-39 -33 -91 -49 -155 -49z "></glyph><glyph glyph-name="Kcedilla" unicode="Ķ" d="M295 418l327 -418h-112l-279 358l-55 -52v-306h-88v714h88v-336l357 336h77zM249 -108c0 15 6 28 17 39s24 16 39 16s28 -5 39 -14c11 -10 17 -26 17 -49c0 -25 -8 -53 -24 -83c-16 -31 -36 -54 -61 -71c-7 8 -14 17 -21 26c27 29 42 55 46 80c-9 1 -16 3 -23 7 c-19 11 -29 28 -29 49z"></glyph><glyph glyph-name="Lacute" unicode="Ĺ" d="M104 784l104 156h113l-150 -156h-67zM176 54h380v-54h-468v714h88v-660z"></glyph><glyph glyph-name="Lcaron" unicode="Ľ" d="M288 715c0 15 6 28 17 39s24 16 39 16s28 -5 39 -14c11 -10 17 -26 17 -49c0 -25 -8 -53 -24 -83c-16 -31 -36 -54 -61 -71c-7 8 -14 17 -21 26c27 29 42 55 46 80c-9 1 -16 3 -23 7c-19 11 -29 28 -29 49zM176 54h380v-54h-468v714h88v-660z"></glyph><glyph glyph-name="Lcedilla" unicode="Ļ" d="M176 54h380v-54h-468v714h88v-660zM257 -108c0 15 6 28 17 39s24 16 39 16s28 -5 39 -14c11 -10 17 -26 17 -49c0 -25 -8 -53 -24 -83c-16 -31 -36 -54 -61 -71c-7 8 -14 17 -21 26c27 29 42 55 46 80c-9 1 -16 3 -23 7c-19 11 -29 28 -29 49z"></glyph><glyph glyph-name="Lmiddledot" unicode="Ŀ" d="M176 54h380v-54h-468v714h88v-660zM527 353c0 -18 -6 -33 -19 -46s-28 -19 -45 -19c-19 0 -34 6 -47 19s-19 28 -19 46s6 33 19 46c13 12 28 18 47 18c17 0 32 -6 45 -18c13 -13 19 -28 19 -46z"></glyph><glyph glyph-name="M_circumflexcomb" unicode="" d="M660 0l-16 296c-5 94 -11 208 -11 291h-2c-24 -78 -51 -163 -85 -256l-119 -327h-66l-110 321c-32 96 -58 182 -77 262h-2c-2 -84 -7 -196 -13 -298l-18 -289h-83l47 674h111l115 -326c28 -83 50 -157 68 -227h2c18 68 42 142 72 227l120 326h111l42 -674h-86zM367 824 h67l105 -114h-74l-63 69h-2l-64 -69h-71z"></glyph><glyph glyph-name="Nacute" unicode="Ń" d="M265 784l104 156h113l-150 -156h-67zM88 714h73l443 -596v596h54v-714h-75l-441 595v-595h-54v714z"></glyph><glyph glyph-name="Ncaron" unicode="Ň" d="M317 784l-102 154h68l90 -95l90 95h68l-102 -154h-112zM88 714h73l443 -596v596h54v-714h-75l-441 595v-595h-54v714z"></glyph><glyph glyph-name="N_circumflexcomb" unicode="" d="M158 0h-82v674h96l215 -341c49 -79 89 -150 120 -219l3 1c-8 90 -10 172 -10 277v282h82v-674h-88l-214 342c-47 75 -92 152 -125 225l-3 -1c5 -85 6 -166 6 -278v-288zM295 824h66l105 -114h-74l-63 69h-2l-64 -69h-71z"></glyph><glyph glyph-name="Ncedilla" unicode="Ņ" d="M88 714h73l443 -596v596h54v-714h-75l-441 595v-595h-54v714zM311 -108c0 15 6 28 17 39s24 16 39 16s28 -5 39 -14c11 -10 17 -26 17 -49c0 -25 -8 -53 -24 -83c-16 -31 -36 -54 -61 -71c-7 8 -14 17 -21 26c27 29 42 55 46 80c-9 1 -16 3 -23 7c-19 11 -29 28 -29 49z "></glyph><glyph glyph-name="Obreve" unicode="Ŏ" d="M491 936h53c-1 -39 -14 -75 -40 -106c-26 -32 -64 -48 -115 -48c-50 0 -88 16 -113 48c-26 31 -40 67 -41 106h52c0 -21 9 -41 26 -58c17 -18 42 -27 76 -27s60 9 77 27c17 17 25 37 25 58zM390 724c96 0 178 -36 246 -107c68 -72 102 -159 102 -260s-34 -188 -102 -259 c-68 -72 -150 -108 -246 -108s-178 36 -246 108c-68 71 -102 158 -102 259s34 188 102 260c68 71 150 107 246 107zM390 46c74 0 136 30 185 90c49 59 73 133 73 221s-24 162 -73 222c-49 59 -111 89 -185 89c-75 0 -136 -30 -185 -89c-49 -60 -73 -134 -73 -222 s24 -162 73 -221c49 -60 110 -90 185 -90z"></glyph><glyph glyph-name="Odoubleacute" unicode="Ő" d="M211 784l104 156h113l-150 -156h-67zM355 784l104 156h113l-150 -156h-67zM390 724c96 0 178 -36 246 -107c68 -72 102 -159 102 -260s-34 -188 -102 -259c-68 -72 -150 -108 -246 -108s-178 36 -246 108c-68 71 -102 158 -102 259s34 188 102 260c68 71 150 107 246 107 zM390 46c74 0 136 30 185 90c49 59 73 133 73 221s-24 162 -73 222c-49 59 -111 89 -185 89c-75 0 -136 -30 -185 -89c-49 -60 -73 -134 -73 -222s24 -162 73 -221c49 -60 110 -90 185 -90z"></glyph><glyph glyph-name="Omacron" unicode="Ō" d="M242 810v50h295v-50h-295zM390 724c96 0 178 -36 246 -107c68 -72 102 -159 102 -260s-34 -188 -102 -259c-68 -72 -150 -108 -246 -108s-178 36 -246 108c-68 71 -102 158 -102 259s34 188 102 260c68 71 150 107 246 107zM390 46c74 0 136 30 185 90 c49 59 73 133 73 221s-24 162 -73 222c-49 59 -111 89 -185 89c-75 0 -136 -30 -185 -89c-49 -60 -73 -134 -73 -222s24 -162 73 -221c49 -60 110 -90 185 -90z"></glyph><glyph glyph-name="Oslashacute" unicode="Ǿ" d="M112 -43l-49 40l62 87c-56 61 -89 149 -89 250c0 213 134 352 311 352c62 0 120 -18 168 -54l59 81l53 -36l-62 -86c56 -61 87 -149 87 -248c0 -235 -145 -354 -307 -354c-63 0 -122 19 -170 54zM176 158l296 411c-34 29 -76 47 -127 47c-146 0 -220 -136 -220 -278 c0 -75 19 -129 49 -181zM513 516l-295 -409c33 -31 71 -48 126 -48c140 0 219 130 219 281c0 58 -12 118 -47 176h-3zM392 835h106l-128 -117h-71z"></glyph><glyph glyph-name="Racute" unicode="Ŕ" d="M215 784l104 156h113l-150 -156h-67zM88 0v714h267c66 0 120 -19 161 -56s61 -87 61 -150c0 -47 -12 -86 -36 -119s-58 -55 -103 -68l173 -321h-100l-166 308h-14h-155v-308h-88zM176 363h179c43 0 76 12 99 36c23 23 34 58 34 103c0 48 -12 86 -37 115s-58 43 -100 43 h-175v-297z"></glyph><glyph glyph-name="Rcaron" unicode="Ř" d="M267 784l-102 154h68l90 -95l90 95h68l-102 -154h-112zM88 0v714h267c66 0 120 -19 161 -56s61 -87 61 -150c0 -47 -12 -86 -36 -119s-58 -55 -103 -68l173 -321h-100l-166 308h-14h-155v-308h-88zM176 363h179c43 0 76 12 99 36c23 23 34 58 34 103c0 48 -12 86 -37 115 s-58 43 -100 43h-175v-297z"></glyph><glyph glyph-name="Rcedilla" unicode="Ŗ" d="M88 0v714h267c66 0 120 -19 161 -56s61 -87 61 -150c0 -47 -12 -86 -36 -119s-58 -55 -103 -68l173 -321h-100l-166 308h-14h-155v-308h-88zM176 363h179c43 0 76 12 99 36c23 23 34 58 34 103c0 48 -12 86 -37 115s-58 43 -100 43h-175v-297zM261 -108c0 15 6 28 17 39 s24 16 39 16s28 -5 39 -14c11 -10 17 -26 17 -49c0 -25 -8 -53 -24 -83c-16 -31 -36 -54 -61 -71c-7 8 -14 17 -21 26c27 29 42 55 46 80c-9 1 -16 3 -23 7c-19 11 -29 28 -29 49z"></glyph><glyph glyph-name="Sacute" unicode="Ś" d="M194 784l104 156h113l-150 -156h-67zM300 -10c-29 0 -56 3 -82 9c-26 5 -51 15 -76 28s-48 31 -67 55c-19 23 -34 52 -44 85l41 24c26 -53 56 -90 90 -112s77 -33 129 -33c63 0 108 13 135 39s41 60 41 102c0 47 -16 81 -47 102s-81 37 -148 50c-19 3 -36 7 -49 10 c-14 3 -33 10 -56 20c-24 10 -43 22 -58 35s-28 32 -39 56c-12 24 -18 51 -18 82c0 59 20 104 59 135s94 47 165 47c60 0 110 -12 151 -36c40 -24 73 -61 98 -112l-41 -24c-29 43 -58 73 -87 90c-30 17 -67 26 -110 26c-97 0 -145 -38 -145 -113c0 -19 4 -37 11 -52 s16 -27 26 -36c9 -9 22 -16 39 -23s30 -12 41 -15c10 -3 24 -6 41 -9c33 -7 59 -14 78 -19s41 -14 67 -25s46 -24 60 -37c14 -14 26 -32 37 -55c10 -23 15 -50 15 -80c0 -71 -24 -124 -73 -160s-110 -54 -184 -54z"></glyph><glyph glyph-name="Scedilla" unicode="Ş" d="M557 204c0 -64 -20 -114 -60 -149c-41 -36 -93 -57 -157 -63l-18 -39c23 -5 44 -16 61 -33s26 -40 26 -69c0 -23 -7 -42 -20 -57s-27 -24 -42 -28c-15 -5 -31 -7 -47 -7c-35 0 -64 8 -87 24l14 28c18 -11 39 -16 62 -16c20 0 36 5 49 14c12 9 18 20 18 32 c0 29 -33 51 -98 68l38 81c-39 1 -74 6 -107 16c-33 9 -64 28 -94 56c-30 27 -51 62 -64 105l41 24c26 -53 56 -90 90 -112s77 -33 129 -33c63 0 108 13 135 39s41 60 41 102c0 47 -16 81 -47 102s-81 37 -148 50c-19 3 -36 7 -49 10c-14 3 -33 10 -56 20 c-24 10 -43 22 -58 35s-28 32 -39 56c-12 24 -18 51 -18 82c0 59 20 104 59 135s94 47 165 47c60 0 110 -12 151 -36c40 -24 73 -61 98 -112l-41 -24c-29 43 -58 73 -87 90c-30 17 -67 26 -110 26c-97 0 -145 -38 -145 -113c0 -19 4 -37 11 -52s16 -27 26 -36 c9 -9 22 -16 39 -23s30 -12 41 -15c10 -3 24 -6 41 -9c33 -7 59 -14 78 -19s41 -14 67 -25s46 -24 60 -37c14 -14 26 -32 37 -55c10 -23 15 -50 15 -80z"></glyph><glyph glyph-name="Scircumflex" unicode="Ŝ" d="M144 784l102 154h112l102 -154h-68l-90 95l-90 -95h-68zM300 -10c-29 0 -56 3 -82 9c-26 5 -51 15 -76 28s-48 31 -67 55c-19 23 -34 52 -44 85l41 24c26 -53 56 -90 90 -112s77 -33 129 -33c63 0 108 13 135 39s41 60 41 102c0 47 -16 81 -47 102s-81 37 -148 50 c-19 3 -36 7 -49 10c-14 3 -33 10 -56 20c-24 10 -43 22 -58 35s-28 32 -39 56c-12 24 -18 51 -18 82c0 59 20 104 59 135s94 47 165 47c60 0 110 -12 151 -36c40 -24 73 -61 98 -112l-41 -24c-29 43 -58 73 -87 90c-30 17 -67 26 -110 26c-97 0 -145 -38 -145 -113 c0 -19 4 -37 11 -52s16 -27 26 -36c9 -9 22 -16 39 -23s30 -12 41 -15c10 -3 24 -6 41 -9c33 -7 59 -14 78 -19s41 -14 67 -25s46 -24 60 -37c14 -14 26 -32 37 -55c10 -23 15 -50 15 -80c0 -71 -24 -124 -73 -160s-110 -54 -184 -54z"></glyph><glyph glyph-name="Scommaaccent" unicode="Ș" d="M42 33l23 73c39 -25 95 -44 155 -44c89 0 141 47 141 115c0 62 -36 99 -127 133c-110 40 -178 98 -178 192c0 105 87 183 218 183c68 0 119 -16 148 -33l-24 -71c-21 13 -66 32 -127 32c-92 0 -127 -55 -127 -101c0 -63 41 -94 134 -130c114 -44 171 -99 171 -198 c0 -104 -76 -195 -235 -195c-65 0 -136 20 -172 44zM186 -222l-18 41c39 6 75 26 75 65c0 24 -16 46 -34 61l65 14c20 -13 40 -41 40 -74c0 -73 -67 -103 -128 -107z"></glyph><glyph glyph-name="Tcaron" unicode="Ť" d="M247 784l-102 154h68l90 -95l90 95h68l-102 -154h-112zM589 714v-54h-242v-660h-88v660h-242v54h572z"></glyph><glyph glyph-name="Tcedilla" unicode="Ţ" d="M347 0h-20l-21 -47c23 -5 44 -16 61 -33s26 -40 26 -69c0 -23 -7 -42 -20 -57s-27 -24 -42 -28c-15 -5 -31 -7 -47 -7c-35 0 -64 8 -87 24l14 28c18 -11 39 -16 62 -16c20 0 36 5 49 14c12 9 18 20 18 32c0 29 -33 51 -98 68l42 91h-25v660h-242v54h572v-54h-242v-660z "></glyph><glyph glyph-name="Ubreve" unicode="Ŭ" d="M478 936h53c-1 -39 -14 -75 -40 -106c-26 -32 -64 -48 -115 -48c-50 0 -88 16 -113 48c-26 31 -40 67 -41 106h52c0 -21 9 -41 26 -58c17 -18 42 -27 76 -27s60 9 77 27c17 17 25 37 25 58zM586 714h54v-466c0 -71 -27 -132 -82 -182c-55 -51 -122 -76 -200 -76 c-77 0 -143 25 -198 76c-55 50 -82 111 -82 182v466h88v-466c0 -57 21 -104 62 -143s90 -59 148 -59s107 20 148 59s61 86 61 143z"></glyph><glyph glyph-name="Udoubleacute" unicode="Ű" d="M198 784l104 156h113l-150 -156h-67zM342 784l104 156h113l-150 -156h-67zM586 714h54v-466c0 -71 -27 -132 -82 -182c-55 -51 -122 -76 -200 -76c-77 0 -143 25 -198 76c-55 50 -82 111 -82 182v466h88v-466c0 -57 21 -104 62 -143s90 -59 148 -59s107 20 148 59 s61 86 61 143z"></glyph><glyph glyph-name="Umacron" unicode="Ū" d="M229 810v50h295v-50h-295zM586 714h54v-466c0 -71 -27 -132 -82 -182c-55 -51 -122 -76 -200 -76c-77 0 -143 25 -198 76c-55 50 -82 111 -82 182v466h88v-466c0 -57 21 -104 62 -143s90 -59 148 -59s107 20 148 59s61 86 61 143z"></glyph><glyph glyph-name="Uogonek" unicode="Ų" d="M586 714h54v-466c0 -67 -24 -124 -73 -173s-110 -77 -181 -84c-43 -35 -60 -69 -53 -102c2 -13 8 -22 17 -29s19 -10 29 -10c14 0 28 6 43 17l43 -61c-22 -14 -48 -21 -78 -21c-29 0 -54 10 -75 30s-32 44 -32 72c0 35 17 70 51 104c-71 7 -131 35 -180 84 s-73 106 -73 173v466h88v-466c0 -57 21 -104 62 -143s90 -59 148 -59s107 20 148 59s61 86 61 143z"></glyph><glyph glyph-name="Uring" unicode="Ů" d="M376 972c28 0 52 -10 72 -31c19 -21 29 -45 29 -74s-10 -54 -29 -74c-20 -21 -44 -31 -72 -31c-27 0 -51 10 -71 31s-30 45 -30 74s10 53 30 74s44 31 71 31zM376 802c14 0 26 6 36 18c9 11 14 27 14 47c0 19 -5 35 -14 47c-10 11 -22 17 -36 17s-26 -6 -35 -17 c-10 -12 -15 -28 -15 -47c0 -20 5 -36 15 -47c9 -12 21 -18 35 -18zM586 714h54v-466c0 -71 -27 -132 -82 -182c-55 -51 -122 -76 -200 -76c-77 0 -143 25 -198 76c-55 50 -82 111 -82 182v466h88v-466c0 -57 21 -104 62 -143s90 -59 148 -59s107 20 148 59s61 86 61 143z "></glyph><glyph glyph-name="Utilde" unicode="Ũ" d="M586 714h54v-466c0 -71 -27 -132 -82 -182c-55 -51 -122 -76 -200 -76c-77 0 -143 25 -198 76c-55 50 -82 111 -82 182v466h88v-466c0 -57 21 -104 62 -143s90 -59 148 -59s107 20 148 59s61 86 61 143zM333 834c-15 0 -31 -9 -47 -29v36c4 9 11 18 21 25 c9 8 21 12 34 12s29 -5 47 -15c19 -9 32 -14 40 -14c16 0 31 9 47 29v-36c-4 -10 -11 -18 -21 -26c-9 -7 -21 -11 -34 -11c-12 0 -28 5 -47 15s-32 14 -40 14z"></glyph><glyph glyph-name="Wacute" unicode="Ẃ" d="M277 0h-91l-171 674h92l80 -341c20 -84 38 -168 50 -233h2c11 67 32 147 55 234l90 340h91l82 -342c19 -80 37 -160 47 -231h2c14 74 33 149 54 233l89 340h89l-191 -674h-91l-85 351c-21 86 -35 152 -44 220h-2c-11 -67 -27 -133 -52 -220zM477 827h106l-128 -117h-71z "></glyph><glyph glyph-name="Wcircumflex" unicode="Ŵ" d="M328 784l102 154h112l102 -154h-68l-90 95l-90 -95h-68zM871 714h56l-200 -714h-88l-168 596l-166 -596h-89l-200 714h92l170 -608l171 608h82l169 -608z"></glyph><glyph glyph-name="Wdieresis" unicode="Ẅ" d="M277 0h-91l-171 674h92l80 -341c20 -84 38 -168 50 -233h2c11 67 32 147 55 234l90 340h91l82 -342c19 -80 37 -160 47 -231h2c14 74 33 149 54 233l89 340h89l-191 -674h-91l-85 351c-21 86 -35 152 -44 220h-2c-11 -67 -27 -133 -52 -220zM333 721c-28 0 -48 23 -48 51 c0 27 21 50 49 50s48 -22 48 -50s-19 -51 -49 -51zM518 721c-28 0 -48 23 -48 51c0 27 21 50 50 50c28 0 48 -22 48 -50s-19 -51 -50 -51z"></glyph><glyph glyph-name="Wgrave" unicode="Ẁ" d="M277 0h-91l-171 674h92l80 -341c20 -84 38 -168 50 -233h2c11 67 32 147 55 234l90 340h91l82 -342c19 -80 37 -160 47 -231h2c14 74 33 149 54 233l89 340h89l-191 -674h-91l-85 351c-21 86 -35 152 -44 220h-2c-11 -67 -27 -133 -52 -220zM273 827h106l93 -116h-71z "></glyph><glyph glyph-name="Ycircumflex" unicode="Ŷ" d="M160 784l102 154h112l102 -154h-68l-90 95l-90 -95h-68zM556 714h66l-262 -412v-302h-88v302l-261 412h105l217 -355z"></glyph><glyph glyph-name="Ygrave" unicode="Ỳ" d="M556 714h66l-262 -412v-302h-88v302l-261 412h105l217 -355zM378 785h-54l-96 101h83z"></glyph><glyph glyph-name="Ymacron" unicode="Ȳ" d="M314 0h-88v286l-214 388h100l95 -186c25 -51 46 -92 67 -139h2c18 44 42 88 68 139l97 186h98l-225 -387v-287zM151 788h240v-55h-240v55z"></glyph><glyph glyph-name="Zacute" unicode="Ź" d="M30 0v51l373 547v3h-341v73h455v-53l-372 -545v-3h377v-73h-492zM325 827h106l-128 -117h-71z"></glyph><glyph glyph-name="Zdotaccent" unicode="Ż" d="M30 0v51l373 547v3h-341v73h455v-53l-372 -545v-3h377v-73h-492zM280 720c-28 0 -49 24 -49 51c0 26 22 50 50 50c27 0 48 -24 48 -50c0 -27 -21 -51 -49 -51z"></glyph><glyph glyph-name="AEacute" unicode="Ǽ" d="M89 0h-90l308 674h422l-1 -73h-286l26 -215h251v-72h-240l30 -241h247l-1 -73h-321l-30 237h-207zM226 308h168l-22 194c-4 31 -10 75 -12 109h-4c-12 -32 -28 -70 -43 -106zM488 827h107l-128 -117h-71z"></glyph><glyph glyph-name="abreve" unicode="ă" d="M219 -11c-57 0 -103 15 -136 45c-34 29 -51 68 -51 117c0 50 18 90 53 121s82 46 139 46c25 0 50 -3 75 -9s44 -12 57 -17l19 -9v81c0 40 -10 71 -31 94c-21 22 -50 33 -86 33c-20 0 -39 -3 -57 -10s-33 -16 -45 -25c-12 -10 -22 -20 -31 -29c-9 -10 -16 -18 -20 -25 l-6 -11l-40 27c49 85 123 127 224 127c119 0 178 -62 178 -186v-359h-86v38l-3 -2c-3 -2 -6 -4 -11 -7s-10 -7 -16 -10c-7 -3 -14 -7 -23 -10c-9 -4 -19 -7 -29 -10s-21 -6 -34 -7c-13 -2 -27 -3 -40 -3zM245 43c23 0 45 4 67 11c21 7 37 14 48 21l15 11v154 c-39 16 -80 24 -121 24c-42 0 -75 -10 -99 -31c-25 -21 -37 -48 -37 -81s12 -60 35 -79c23 -20 54 -30 92 -30zM193 674h35c5 -20 20 -40 56 -40c38 0 51 18 57 40h34c-4 -44 -34 -85 -92 -85c-57 0 -85 39 -90 85z"></glyph><glyph glyph-name="amacron" unicode="ā" d="M121 631v50h295v-50h-295zM219 -11c-57 0 -103 15 -136 45c-34 29 -51 68 -51 117c0 50 18 90 53 121s82 46 139 46c25 0 50 -3 75 -9s44 -12 57 -17l19 -9v81c0 40 -10 71 -31 94c-21 22 -50 33 -86 33c-20 0 -39 -3 -57 -10s-33 -16 -45 -25c-12 -10 -22 -20 -31 -29 c-9 -10 -16 -18 -20 -25l-6 -11l-40 27c49 85 123 127 224 127c119 0 178 -62 178 -186v-359h-86v38l-3 -2c-3 -2 -6 -4 -11 -7s-10 -7 -16 -10c-7 -3 -14 -7 -23 -10c-9 -4 -19 -7 -29 -10s-21 -6 -34 -7c-13 -2 -27 -3 -40 -3zM245 43c23 0 45 4 67 11c21 7 37 14 48 21 l15 11v154c-39 16 -80 24 -121 24c-42 0 -75 -10 -99 -31c-25 -21 -37 -48 -37 -81s12 -60 35 -79c23 -20 54 -30 92 -30z"></glyph><glyph glyph-name="aogonek" unicode="ą" d="M471 -133l43 -61c-22 -14 -48 -21 -78 -21c-29 0 -54 10 -75 30s-32 44 -32 72c0 38 20 76 60 113h-14v38l-3 -2c-3 -2 -6 -4 -11 -7s-10 -7 -16 -10c-7 -3 -14 -7 -23 -10c-9 -4 -19 -7 -29 -10s-21 -6 -34 -7c-13 -2 -27 -3 -40 -3c-57 0 -103 15 -136 45 c-34 29 -51 68 -51 117c0 50 18 90 53 121s82 46 139 46c25 0 50 -3 75 -9s44 -12 57 -17l19 -9v81c0 40 -10 71 -31 94c-21 22 -50 33 -86 33c-20 0 -39 -3 -57 -10s-33 -16 -45 -25c-12 -10 -22 -20 -31 -29c-9 -10 -16 -18 -20 -25l-6 -11l-40 27c49 85 123 127 224 127 c119 0 178 -62 178 -186v-359h-15c-19 -13 -35 -30 -49 -50c-15 -20 -20 -40 -15 -61c2 -13 8 -22 17 -29s19 -10 29 -10c14 0 28 6 43 17zM375 86v154c-39 16 -80 24 -121 24c-42 0 -75 -10 -99 -31c-25 -21 -37 -48 -37 -81s12 -60 35 -79c23 -20 54 -30 92 -30 c23 0 45 4 67 11c21 7 37 14 48 21z"></glyph><glyph glyph-name="a.superior" d="M304 266h-59l-5 42h-2c-20 -24 -55 -47 -102 -47c-66 0 -103 43 -103 96c0 71 72 116 201 113v10c0 16 -9 62 -75 62c-32 0 -62 -9 -85 -26l-16 42c29 21 71 33 114 33c100 0 127 -68 127 -140v-107c0 -27 2 -54 5 -78zM235 372v55c-63 2 -136 -10 -136 -66 c0 -34 27 -52 58 -52c30 0 56 17 68 37c7 9 10 20 10 26z"></glyph><glyph glyph-name="cacute" unicode="ć" d="M179 605l104 156h113l-150 -156h-67zM479 412c-25 27 -50 47 -74 60s-51 19 -82 19c-61 0 -109 -21 -144 -64s-53 -96 -53 -159c0 -61 17 -113 51 -157c33 -45 82 -67 146 -67c31 0 59 6 83 19s49 33 74 60l38 -25c-50 -72 -120 -108 -209 -108c-79 0 -143 26 -194 79 s-77 118 -77 197s25 145 76 199c51 53 115 80 194 80c89 0 159 -36 209 -108z"></glyph><glyph glyph-name="ccaron" unicode="č" d="M231 605l-102 154h68l90 -95l90 95h68l-102 -154h-112zM479 412c-25 27 -50 47 -74 60s-51 19 -82 19c-61 0 -109 -21 -144 -64s-53 -96 -53 -159c0 -61 17 -113 51 -157c33 -45 82 -67 146 -67c31 0 59 6 83 19s49 33 74 60l38 -25c-50 -72 -120 -108 -209 -108 c-79 0 -143 26 -194 79s-77 118 -77 197s25 145 76 199c51 53 115 80 194 80c89 0 159 -36 209 -108z"></glyph><glyph glyph-name="ccircumflex" unicode="ĉ" d="M129 605l102 154h112l102 -154h-68l-90 95l-90 -95h-68zM479 412c-25 27 -50 47 -74 60s-51 19 -82 19c-61 0 -109 -21 -144 -64s-53 -96 -53 -159c0 -61 17 -113 51 -157c33 -45 82 -67 146 -67c31 0 59 6 83 19s49 33 74 60l38 -25c-50 -72 -120 -108 -209 -108 c-79 0 -143 26 -194 79s-77 118 -77 197s25 145 76 199c51 53 115 80 194 80c89 0 159 -36 209 -108z"></glyph><glyph glyph-name="cdotaccent" unicode="ċ" d="M287 624c-15 0 -27 5 -37 15c-10 9 -15 21 -15 35c0 13 5 25 15 35s22 15 37 15c13 0 25 -5 35 -15c9 -10 14 -22 14 -35c0 -14 -5 -26 -14 -35c-10 -10 -22 -15 -35 -15zM479 412c-25 27 -50 47 -74 60s-51 19 -82 19c-61 0 -109 -21 -144 -64s-53 -96 -53 -159 c0 -61 17 -113 51 -157c33 -45 82 -67 146 -67c31 0 59 6 83 19s49 33 74 60l38 -25c-50 -72 -120 -108 -209 -108c-79 0 -143 26 -194 79s-77 118 -77 197s25 145 76 199c51 53 115 80 194 80c89 0 159 -36 209 -108z"></glyph><glyph glyph-name="dcaron" unicode="ď" d="M633 770c15 0 28 -5 39 -14c11 -10 17 -26 17 -49c0 -25 -8 -53 -24 -83c-16 -31 -36 -54 -61 -71c-7 8 -14 17 -21 26c27 29 42 55 46 80c-9 1 -16 3 -23 7c-19 11 -29 28 -29 49c0 15 6 28 17 39s24 16 39 16zM451 463v297h86v-760h-86v72c-50 -55 -106 -82 -168 -82 c-69 0 -127 26 -174 78c-47 51 -71 118 -71 199s24 148 71 200s105 78 174 78c61 0 117 -27 168 -82zM301 44c53 0 103 30 150 91v263c-46 62 -96 93 -151 93c-49 0 -90 -22 -123 -65c-34 -44 -51 -97 -51 -158s17 -114 51 -158c33 -44 75 -66 124 -66z"></glyph><glyph glyph-name="ebreve" unicode="ĕ" d="M295 603c-50 0 -88 16 -113 48c-26 31 -40 67 -41 106h52c0 -21 9 -41 26 -58c17 -18 42 -27 76 -27s60 9 77 27c17 17 25 37 25 58h53c-1 -39 -14 -75 -40 -106c-26 -32 -64 -48 -115 -48zM332 44c32 0 60 6 84 19c24 12 49 32 75 60l38 -25 c-49 -72 -120 -108 -213 -108c-81 0 -148 26 -200 78c-52 51 -78 116 -78 195s25 145 76 200c50 55 111 82 183 82c69 0 127 -25 175 -75c48 -51 72 -119 72 -204h-418c0 -26 4 -51 11 -76s19 -48 34 -70c15 -23 37 -41 65 -55c27 -14 59 -21 96 -21zM300 491 c-39 0 -74 -16 -106 -49s-53 -73 -63 -122h326c-1 43 -18 83 -49 118s-67 53 -108 53z"></glyph><glyph glyph-name="ecaron" unicode="ě" d="M352 605h-112l-102 154h68l90 -95l90 95h68zM332 44c32 0 60 6 84 19c24 12 49 32 75 60l38 -25c-49 -72 -120 -108 -213 -108c-81 0 -148 26 -200 78c-52 51 -78 116 -78 195s25 145 76 200c50 55 111 82 183 82c69 0 127 -25 175 -75c48 -51 72 -119 72 -204h-418 c0 -26 4 -51 11 -76s19 -48 34 -70c15 -23 37 -41 65 -55c27 -14 59 -21 96 -21zM300 491c-39 0 -74 -16 -106 -49s-53 -73 -63 -122h326c-1 43 -18 83 -49 118s-67 53 -108 53z"></glyph><glyph glyph-name="edotaccent" unicode="ė" d="M296 624c-15 0 -27 5 -37 15c-10 9 -15 21 -15 35c0 13 5 25 15 35s22 15 37 15c13 0 25 -5 35 -15c9 -10 14 -22 14 -35c0 -14 -5 -26 -14 -35c-10 -10 -22 -15 -35 -15zM332 44c32 0 60 6 84 19c24 12 49 32 75 60l38 -25c-49 -72 -120 -108 -213 -108 c-81 0 -148 26 -200 78c-52 51 -78 116 -78 195s25 145 76 200c50 55 111 82 183 82c69 0 127 -25 175 -75c48 -51 72 -119 72 -204h-418c0 -26 4 -51 11 -76s19 -48 34 -70c15 -23 37 -41 65 -55c27 -14 59 -21 96 -21zM300 491c-39 0 -74 -16 -106 -49s-53 -73 -63 -122 h326c-1 43 -18 83 -49 118s-67 53 -108 53z"></glyph><glyph glyph-name="emacron" unicode="ē" d="M443 681v-50h-295v50h295zM332 44c32 0 60 6 84 19c24 12 49 32 75 60l38 -25c-49 -72 -120 -108 -213 -108c-81 0 -148 26 -200 78c-52 51 -78 116 -78 195s25 145 76 200c50 55 111 82 183 82c69 0 127 -25 175 -75c48 -51 72 -119 72 -204h-418c0 -26 4 -51 11 -76 s19 -48 34 -70c15 -23 37 -41 65 -55c27 -14 59 -21 96 -21zM300 491c-39 0 -74 -16 -106 -49s-53 -73 -63 -122h326c-1 43 -18 83 -49 118s-67 53 -108 53z"></glyph><glyph glyph-name="eogonek" unicode="ę" d="M332 44c32 0 60 6 84 19c24 12 49 32 75 60l38 -25c-47 -69 -115 -105 -202 -108c-41 -35 -58 -68 -51 -101c2 -13 8 -22 17 -29s19 -10 29 -10c14 0 28 6 43 17l43 -61c-22 -14 -48 -21 -78 -21c-29 0 -54 10 -75 30s-32 44 -32 72c0 35 17 70 52 106 c-71 9 -128 38 -171 88c-44 49 -66 110 -66 182c0 79 25 145 76 200c50 55 111 82 183 82c69 0 127 -25 175 -75c48 -51 72 -119 72 -204h-418c0 -26 4 -51 11 -76s19 -48 34 -70c15 -23 37 -41 65 -55c27 -14 59 -21 96 -21zM300 491c-39 0 -74 -16 -106 -49 s-53 -73 -63 -122h326c-1 43 -18 83 -49 118s-67 53 -108 53z"></glyph><glyph glyph-name="gbreve" unicode="ğ" d="M307 603c-50 0 -88 16 -113 48c-26 31 -40 67 -41 106h52c0 -21 9 -41 26 -58c17 -18 42 -27 76 -27s60 9 77 27c17 17 25 37 25 58h53c-1 -39 -14 -75 -40 -106c-26 -32 -64 -48 -115 -48zM451 535h86v-575c0 -66 -20 -118 -60 -155s-96 -56 -167 -56 c-105 0 -186 38 -244 115l35 29c53 -60 116 -90 188 -90c48 0 87 13 117 40s45 63 45 110v119c-50 -55 -106 -82 -168 -82c-69 0 -127 26 -174 78c-47 51 -71 118 -71 199s24 148 71 200s105 78 174 78c61 0 117 -27 168 -82v72zM301 44c53 0 103 30 150 91v263 c-46 62 -96 93 -151 93c-49 0 -90 -22 -123 -65c-34 -44 -51 -97 -51 -158s17 -114 51 -158c33 -44 75 -66 124 -66z"></glyph><glyph glyph-name="gcircumflex" unicode="ĝ" d="M308 700l-90 -95h-68l102 154h112l102 -154h-68zM451 535h86v-575c0 -66 -20 -118 -60 -155s-96 -56 -167 -56c-105 0 -186 38 -244 115l35 29c53 -60 116 -90 188 -90c48 0 87 13 117 40s45 63 45 110v119c-50 -55 -106 -82 -168 -82c-69 0 -127 26 -174 78 c-47 51 -71 118 -71 199s24 148 71 200s105 78 174 78c61 0 117 -27 168 -82v72zM301 44c53 0 103 30 150 91v263c-46 62 -96 93 -151 93c-49 0 -90 -22 -123 -65c-34 -44 -51 -97 -51 -158s17 -114 51 -158c33 -44 75 -66 124 -66z"></glyph><glyph glyph-name="gcedilla" unicode="ģ" d="M295 602c-15 0 -28 5 -39 15c-11 9 -17 25 -17 48c0 25 8 53 24 84c16 30 36 53 61 70c7 -8 14 -17 21 -26c-27 -29 -42 -55 -46 -80c9 -1 16 -3 23 -7c19 -11 29 -28 29 -49c0 -15 -5 -27 -16 -38s-25 -17 -40 -17zM451 535h86v-575c0 -66 -20 -118 -60 -155 s-96 -56 -167 -56c-105 0 -186 38 -244 115l35 29c53 -60 116 -90 188 -90c48 0 87 13 117 40s45 63 45 110v119c-50 -55 -106 -82 -168 -82c-69 0 -127 26 -174 78c-47 51 -71 118 -71 199s24 148 71 200s105 78 174 78c61 0 117 -27 168 -82v72zM301 44 c53 0 103 30 150 91v263c-46 62 -96 93 -151 93c-49 0 -90 -22 -123 -65c-34 -44 -51 -97 -51 -158s17 -114 51 -158c33 -44 75 -66 124 -66z"></glyph><glyph glyph-name="gdotaccent" unicode="ġ" d="M308 624c-15 0 -27 5 -37 15c-10 9 -15 21 -15 35c0 13 5 25 15 35s22 15 37 15c13 0 25 -5 35 -15c9 -10 14 -22 14 -35c0 -14 -5 -26 -14 -35c-10 -10 -22 -15 -35 -15zM451 535h86v-575c0 -66 -20 -118 -60 -155s-96 -56 -167 -56c-105 0 -186 38 -244 115l35 29 c53 -60 116 -90 188 -90c48 0 87 13 117 40s45 63 45 110v119c-50 -55 -106 -82 -168 -82c-69 0 -127 26 -174 78c-47 51 -71 118 -71 199s24 148 71 200s105 78 174 78c61 0 117 -27 168 -82v72zM301 44c53 0 103 30 150 91v263c-46 62 -96 93 -151 93 c-49 0 -90 -22 -123 -65c-34 -44 -51 -97 -51 -158s17 -114 51 -158c33 -44 75 -66 124 -66z"></glyph><glyph glyph-name="g_tildecomb" unicode="" d="M475 352v-281c0 -112 -23 -179 -69 -222c-48 -43 -116 -58 -177 -58c-58 0 -122 14 -161 40l22 68c32 -21 82 -39 142 -39c90 0 156 47 156 170v53h-2c-26 -45 -79 -81 -154 -81c-120 0 -206 102 -206 236c0 164 107 256 219 256c84 0 129 -43 151 -83h2l3 73h78 c-3 -34 -4 -74 -4 -132zM387 206v87c0 15 -1 28 -5 39c-16 52 -58 94 -123 94c-84 0 -144 -71 -144 -183c0 -95 49 -174 143 -174c55 0 104 34 122 90c5 15 7 32 7 47zM205 567h-48c-2 65 25 104 68 104c22 0 39 -10 62 -22c16 -9 29 -17 42 -17c15 0 25 9 27 42h47 c1 -66 -21 -101 -68 -101c-22 0 -41 10 -61 21s-31 18 -43 18c-16 0 -24 -17 -26 -45z"></glyph><glyph glyph-name="hcircumflex" unicode="ĥ" d="M342 546c57 0 100 -15 131 -45c30 -30 45 -73 45 -128v-373h-86v371c0 36 -11 65 -33 88c-22 22 -52 33 -90 33c-60 0 -110 -29 -151 -86v-406h-86v760h86v-293c40 53 101 79 184 79zM346 700l-90 -95h-68l102 154h112l102 -154h-68z"></glyph><glyph glyph-name="ibreve" unicode="ĭ" d="M216 757h53c-1 -39 -14 -75 -40 -106c-26 -32 -64 -48 -115 -48c-50 0 -88 16 -113 48c-26 31 -40 67 -41 106h52c0 -21 9 -41 26 -58c17 -18 42 -27 76 -27s60 9 77 27c17 17 25 37 25 58zM72 0v535h86v-535h-86z"></glyph><glyph glyph-name="imacron" unicode="ī" d="M-33 631v50h295v-50h-295zM72 0v535h86v-535h-86z"></glyph><glyph glyph-name="iogonek" unicode="į" d="M116 624c-14 0 -26 5 -36 15c-10 9 -15 21 -15 35c0 13 5 25 15 35s22 15 36 15s26 -5 36 -15c9 -10 14 -22 14 -35c0 -14 -5 -26 -14 -35c-10 -10 -22 -15 -36 -15zM169 -133l43 -61c-22 -14 -48 -21 -78 -21c-29 0 -54 10 -75 30s-32 44 -32 72c0 38 20 76 60 113h-14 v535h86v-535h-15c-19 -13 -35 -30 -49 -50c-15 -20 -20 -40 -15 -61c2 -13 8 -22 17 -29s19 -10 29 -10c14 0 28 6 43 17z"></glyph><glyph glyph-name="itilde" unicode="ĩ" d="M73 0v535h86v-535h-86zM68 638c-15 0 -31 -9 -47 -29v36c4 9 11 18 21 25c9 8 21 12 34 12s29 -5 47 -15c19 -9 32 -14 40 -14c16 0 31 9 47 29v-36c-4 -10 -11 -18 -21 -26c-9 -7 -21 -11 -34 -11c-12 0 -28 5 -47 15s-32 14 -40 14z"></glyph><glyph glyph-name="jcircumflex" unicode="ĵ" d="M-45 605l102 154h112l102 -154h-68l-90 95l-90 -95h-68zM8 -251c-62 0 -106 24 -132 73l31 30c21 -32 48 -48 81 -48c56 0 84 37 84 110v621h86v-632c0 -43 -13 -80 -39 -109c-26 -30 -63 -45 -111 -45z"></glyph><glyph glyph-name="kcedilla" unicode="ķ" d="M276 317l246 -317h-108l-199 258l-57 -53v-205h-86v760h86v-484l278 259h73zM260 -53c15 0 28 -5 39 -14c11 -10 17 -26 17 -49c0 -25 -8 -53 -24 -83c-16 -31 -36 -54 -61 -71c-7 8 -14 17 -21 26c27 29 42 55 46 80c-9 1 -16 3 -23 7c-19 11 -29 28 -29 49 c0 15 6 28 17 39s24 16 39 16z"></glyph><glyph glyph-name="lacute" unicode="ĺ" d="M85 830l104 156h113l-150 -156h-67zM204 -10c-33 0 -62 12 -88 37c-27 24 -40 62 -40 114v619h86v-607c0 -37 7 -64 21 -79s31 -23 50 -23c15 0 25 3 32 8l19 -42c-19 -18 -46 -27 -80 -27z"></glyph><glyph glyph-name="lcaron" unicode="ľ" d="M229 715c0 15 6 28 17 39s24 16 39 16s28 -5 39 -14c11 -10 17 -26 17 -49c0 -25 -8 -53 -24 -83c-16 -31 -36 -54 -61 -71c-7 8 -14 17 -21 26c27 29 42 55 46 80c-9 1 -16 3 -23 7c-19 11 -29 28 -29 49zM204 -10c-33 0 -62 12 -88 37c-27 24 -40 62 -40 114v619h86 v-607c0 -37 7 -64 21 -79s31 -23 50 -23c15 0 25 3 32 8l19 -42c-19 -18 -46 -27 -80 -27z"></glyph><glyph glyph-name="lcedilla" unicode="ļ" d="M204 -10c-33 0 -62 12 -88 37c-27 24 -40 62 -40 114v619h86v-607c0 -37 7 -64 21 -79s31 -23 50 -23c15 0 25 3 32 8l19 -42c-19 -18 -46 -27 -80 -27zM107 -108c0 15 6 28 17 39s24 16 39 16s28 -5 39 -14c11 -10 17 -26 17 -49c0 -25 -8 -53 -24 -83 c-16 -31 -36 -54 -61 -71c-7 8 -14 17 -21 26c27 29 42 55 46 80c-9 1 -16 3 -23 7c-19 11 -29 28 -29 49z"></glyph><glyph glyph-name="lmiddledot" unicode="ŀ" d="M204 -10c-33 0 -62 12 -88 37c-27 24 -40 62 -40 114v619h86v-607c0 -37 7 -64 21 -79s31 -23 50 -23c15 0 25 3 32 8l19 -42c-19 -18 -46 -27 -80 -27zM355 353c0 -18 -6 -33 -19 -46s-28 -19 -45 -19c-19 0 -34 6 -47 19s-19 28 -19 46s6 33 19 46c13 12 28 18 47 18 c17 0 32 -6 45 -18c13 -13 19 -28 19 -46z"></glyph><glyph glyph-name="m_circumflexcomb" unicode="" d="M73 0v353c0 51 -2 91 -4 131h77l4 -79h3c27 46 72 89 153 89c65 0 115 -40 136 -97h2c15 28 34 48 54 63c30 22 61 34 106 34c65 0 160 -42 160 -210v-284h-86v273c0 94 -34 149 -105 149c-50 0 -88 -37 -104 -79c-4 -13 -7 -28 -7 -44v-299h-86v290 c0 77 -34 132 -101 132c-54 0 -95 -44 -109 -88c-5 -12 -7 -28 -7 -43v-291h-86zM385 693h61l96 -143h-67l-58 94h-2l-58 -94h-66z"></glyph><glyph glyph-name="nacute" unicode="ń" d="M403 761l-150 -156h-67l104 156h113zM342 546c57 0 100 -15 131 -45c30 -30 45 -73 45 -128v-373h-86v371c0 36 -11 65 -33 88c-22 22 -52 33 -90 33c-60 0 -110 -29 -151 -86v-406h-86v535h86v-68c40 53 101 79 184 79z"></glyph><glyph glyph-name="ncaron" unicode="ň" d="M350 605h-112l-102 154h68l90 -95l90 95h68zM342 546c57 0 100 -15 131 -45c30 -30 45 -73 45 -128v-373h-86v371c0 36 -11 65 -33 88c-22 22 -52 33 -90 33c-60 0 -110 -29 -151 -86v-406h-86v535h86v-68c40 53 101 79 184 79z"></glyph><glyph glyph-name="n_circumflexcomb" unicode="" d="M246 693h61l96 -143h-67l-58 94h-2l-58 -94h-66zM73 0v353c0 51 -1 91 -4 131h78l5 -80h2c24 45 80 90 160 90c67 0 171 -40 171 -206v-288h-88v279c0 78 -29 143 -112 143c-57 0 -102 -41 -118 -90c-4 -11 -6 -26 -6 -41v-291h-88z"></glyph><glyph glyph-name="ncedilla" unicode="ņ" d="M342 546c57 0 100 -15 131 -45c30 -30 45 -73 45 -128v-373h-86v371c0 36 -11 65 -33 88c-22 22 -52 33 -90 33c-60 0 -110 -29 -151 -86v-406h-86v535h86v-68c40 53 101 79 184 79zM304 -53c15 0 28 -5 39 -14c11 -10 17 -26 17 -49c0 -25 -8 -53 -24 -83 c-16 -31 -36 -54 -61 -71c-7 8 -14 17 -21 26c27 29 42 55 46 80c-9 1 -16 3 -23 7c-19 11 -29 28 -29 49c0 15 6 28 17 39s24 16 39 16z"></glyph><glyph glyph-name="obreve" unicode="ŏ" d="M407 757h53c-1 -39 -14 -75 -40 -106c-26 -32 -64 -48 -115 -48c-50 0 -88 16 -113 48c-26 31 -40 67 -41 106h52c0 -21 9 -41 26 -58c17 -18 42 -27 76 -27s60 9 77 27c17 17 25 37 25 58zM306 -10c-77 0 -141 26 -192 79c-51 52 -76 118 -76 199c0 80 25 146 76 199 c51 52 115 78 192 78s141 -26 192 -78c51 -53 76 -119 76 -199c0 -81 -25 -147 -76 -199c-51 -53 -115 -79 -192 -79zM306 44c50 0 93 22 128 67c35 44 52 96 52 157s-17 113 -52 157s-78 66 -128 66c-49 0 -91 -22 -126 -66s-53 -96 -54 -157c1 -61 19 -113 54 -157 c35 -45 77 -67 126 -67z"></glyph><glyph glyph-name="odoubleacute" unicode="ő" d="M127 605l104 156h113l-150 -156h-67zM271 605l104 156h113l-150 -156h-67zM306 -10c-77 0 -141 26 -192 79c-51 52 -76 118 -76 199c0 80 25 146 76 199c51 52 115 78 192 78s141 -26 192 -78c51 -53 76 -119 76 -199c0 -81 -25 -147 -76 -199c-51 -53 -115 -79 -192 -79 zM306 44c50 0 93 22 128 67c35 44 52 96 52 157s-17 113 -52 157s-78 66 -128 66c-49 0 -91 -22 -126 -66s-53 -96 -54 -157c1 -61 19 -113 54 -157c35 -45 77 -67 126 -67z"></glyph><glyph glyph-name="omacron" unicode="ō" d="M158 631v50h295v-50h-295zM306 -10c-77 0 -141 26 -192 79c-51 52 -76 118 -76 199c0 80 25 146 76 199c51 52 115 78 192 78s141 -26 192 -78c51 -53 76 -119 76 -199c0 -81 -25 -147 -76 -199c-51 -53 -115 -79 -192 -79zM306 44c50 0 93 22 128 67c35 44 52 96 52 157 s-17 113 -52 157s-78 66 -128 66c-49 0 -91 -22 -126 -66s-53 -96 -54 -157c1 -61 19 -113 54 -157c35 -45 77 -67 126 -67z"></glyph><glyph glyph-name="oslashacute" unicode="ǿ" d="M277 494c43 0 86 -11 122 -34l42 60l39 -27l-43 -63c47 -45 74 -109 74 -185c0 -177 -123 -256 -236 -256c-45 0 -88 11 -123 34l-44 -61l-37 30l42 60c-46 44 -75 107 -75 187c0 160 106 255 239 255zM161 119l198 280c-22 19 -50 29 -85 29c-107 0 -150 -100 -150 -187 c0 -43 10 -86 35 -121zM389 361l-198 -278c24 -20 51 -28 81 -28c92 0 153 79 153 187c0 34 -8 80 -34 119h-2zM315 693h96l-122 -143h-62z"></glyph><glyph glyph-name="racute" unicode="ŕ" d="M132 605l104 156h113l-150 -156h-67zM72 0v535h86v-68c21 25 47 44 78 58c31 13 61 20 91 20c45 0 82 -14 111 -42l-33 -50c-24 24 -56 36 -96 36c-31 0 -61 -9 -88 -26s-48 -36 -63 -57v-406h-86z"></glyph><glyph glyph-name="rcaron" unicode="ř" d="M184 605l-102 154h68l90 -95l90 95h68l-102 -154h-112zM72 0v535h86v-68c21 25 47 44 78 58c31 13 61 20 91 20c45 0 82 -14 111 -42l-33 -50c-24 24 -56 36 -96 36c-31 0 -61 -9 -88 -26s-48 -36 -63 -57v-406h-86z"></glyph><glyph glyph-name="rcedilla" unicode="ŗ" d="M72 0v535h86v-68c21 25 47 44 78 58c31 13 61 20 91 20c45 0 82 -14 111 -42l-33 -50c-24 24 -56 36 -96 36c-31 0 -61 -9 -88 -26s-48 -36 -63 -57v-406h-86zM43 -108c0 15 6 28 17 39s24 16 39 16s28 -5 39 -14c11 -10 17 -26 17 -49c0 -25 -8 -53 -24 -83 c-16 -31 -36 -54 -61 -71c-7 8 -14 17 -21 26c27 29 42 55 46 80c-9 1 -16 3 -23 7c-19 11 -29 28 -29 49z"></glyph><glyph glyph-name="sacute" unicode="ś" d="M115 605l104 156h113l-150 -156h-67zM240 -10c-56 0 -102 12 -139 37c-37 24 -63 56 -78 97l41 24c34 -69 91 -104 171 -104c41 0 73 9 95 28c22 18 33 42 33 72c0 31 -12 52 -35 65s-64 26 -122 39c-21 5 -38 10 -53 15s-33 14 -52 25c-20 11 -35 26 -46 45 s-16 42 -16 68c0 46 17 82 50 107s76 37 130 37c98 0 166 -40 204 -120l-41 -24c-19 31 -39 54 -62 69c-23 14 -52 21 -87 21c-71 0 -106 -25 -106 -76c0 -14 4 -26 11 -37s14 -20 21 -26s19 -11 34 -16s26 -9 33 -10c6 -2 17 -4 32 -7c61 -12 109 -30 143 -53 c33 -23 50 -60 50 -109c0 -55 -20 -96 -60 -124c-41 -29 -91 -43 -151 -43z"></glyph><glyph glyph-name="scedilla" unicode="ş" d="M451 157c0 -51 -18 -91 -53 -119c-36 -28 -81 -44 -136 -47l-17 -38c23 -5 44 -16 61 -33s26 -40 26 -69c0 -23 -7 -42 -20 -57s-27 -24 -42 -28c-15 -5 -31 -7 -47 -7c-35 0 -64 8 -87 24l14 28c18 -11 39 -16 62 -16c20 0 36 5 49 14c12 9 18 20 18 32 c0 29 -33 51 -98 68l38 82c-50 3 -92 16 -125 40s-57 55 -71 93l41 24c34 -69 91 -104 171 -104c41 0 73 9 95 28c22 18 33 42 33 72c0 31 -12 52 -35 65s-64 26 -122 39c-21 5 -38 10 -53 15s-33 14 -52 25c-20 11 -35 26 -46 45s-16 42 -16 68c0 46 17 82 50 107 s76 37 130 37c98 0 166 -40 204 -120l-41 -24c-19 31 -39 54 -62 69c-23 14 -52 21 -87 21c-71 0 -106 -25 -106 -76c0 -14 4 -26 11 -37s14 -20 21 -26s19 -11 34 -16s26 -9 33 -10c6 -2 17 -4 32 -7c61 -12 109 -30 143 -53c33 -23 50 -60 50 -109z"></glyph><glyph glyph-name="scircumflex" unicode="ŝ" d="M65 605l102 154h112l102 -154h-68l-90 95l-90 -95h-68zM240 -10c-56 0 -102 12 -139 37c-37 24 -63 56 -78 97l41 24c34 -69 91 -104 171 -104c41 0 73 9 95 28c22 18 33 42 33 72c0 31 -12 52 -35 65s-64 26 -122 39c-21 5 -38 10 -53 15s-33 14 -52 25 c-20 11 -35 26 -46 45s-16 42 -16 68c0 46 17 82 50 107s76 37 130 37c98 0 166 -40 204 -120l-41 -24c-19 31 -39 54 -62 69c-23 14 -52 21 -87 21c-71 0 -106 -25 -106 -76c0 -14 4 -26 11 -37s14 -20 21 -26s19 -11 34 -16s26 -9 33 -10c6 -2 17 -4 32 -7 c61 -12 109 -30 143 -53c33 -23 50 -60 50 -109c0 -55 -20 -96 -60 -124c-41 -29 -91 -43 -151 -43z"></glyph><glyph glyph-name="scommaaccent" unicode="ș" d="M40 23l21 66c27 -16 73 -34 117 -34c63 0 93 31 93 72c0 42 -25 64 -89 88c-88 32 -129 79 -129 137c0 78 64 142 167 142c49 0 92 -13 118 -30l-21 -64c-19 12 -54 29 -99 29c-52 0 -80 -30 -80 -66c0 -40 28 -58 91 -83c83 -31 127 -73 127 -145 c0 -86 -67 -146 -180 -146c-53 0 -102 14 -136 34zM136 -222l-17 41c39 6 75 26 75 65c0 24 -16 47 -34 61l65 14c20 -13 40 -41 40 -74c0 -73 -67 -103 -129 -107z"></glyph><glyph glyph-name="tcaron" unicode="ť" d="M210 715c0 15 6 28 17 39s24 16 39 16s28 -5 39 -14c11 -10 17 -26 17 -49c0 -25 -8 -53 -24 -83c-16 -31 -36 -54 -61 -71c-7 8 -14 17 -21 26c27 29 42 55 46 80c-9 1 -16 3 -23 7c-19 11 -29 28 -29 49zM25 482v53h69v143h86v-143h137v-53h-137v-331 c0 -40 5 -67 15 -82s28 -23 53 -23c20 0 44 9 71 26l24 -39c-28 -29 -67 -43 -116 -43c-89 0 -133 54 -133 162v330h-69z"></glyph><glyph glyph-name="tcedilla" unicode="ţ" d="M343 33c-24 -25 -58 -39 -102 -43l-17 -37c23 -5 44 -16 61 -33s26 -40 26 -69c0 -23 -7 -42 -20 -57s-27 -24 -42 -28c-15 -5 -31 -7 -47 -7c-35 0 -64 8 -87 24l14 28c18 -11 39 -16 62 -16c20 0 36 5 49 14c12 9 18 20 18 32c0 29 -33 51 -98 68l39 83 c-70 12 -105 65 -105 160v330h-69v53h69v143h86v-143h137v-53h-137v-331c0 -40 5 -67 15 -82s28 -23 53 -23c20 0 44 9 71 26z"></glyph><glyph glyph-name="ubreve" unicode="ŭ" d="M293 603c-50 0 -88 16 -113 48c-26 31 -40 67 -41 106h52c0 -21 9 -41 26 -58c17 -18 42 -27 76 -27s60 9 77 27c17 17 25 37 25 58h53c-1 -39 -14 -75 -40 -106c-26 -32 -64 -48 -115 -48zM432 535h86v-535h-86v68c-40 -53 -101 -79 -184 -79c-57 0 -100 15 -130 45 c-31 30 -46 73 -46 128v373h86v-371c0 -36 11 -65 33 -87c22 -23 52 -34 90 -34c60 0 110 29 151 86v406z"></glyph><glyph glyph-name="udoubleacute" unicode="ű" d="M332 761l-150 -156h-67l104 156h113zM326 605h-67l104 156h113zM432 535h86v-535h-86v68c-40 -53 -101 -79 -184 -79c-57 0 -100 15 -130 45c-31 30 -46 73 -46 128v373h86v-371c0 -36 11 -65 33 -87c22 -23 52 -34 90 -34c60 0 110 29 151 86v406z"></glyph><glyph glyph-name="umacron" unicode="ū" d="M441 681v-50h-295v50h295zM432 535h86v-535h-86v68c-40 -53 -101 -79 -184 -79c-57 0 -100 15 -130 45c-31 30 -46 73 -46 128v373h86v-371c0 -36 11 -65 33 -87c22 -23 52 -34 90 -34c60 0 110 29 151 86v406z"></glyph><glyph glyph-name="uogonek" unicode="ų" d="M525 -133l43 -61c-22 -14 -48 -21 -78 -21c-29 0 -54 10 -75 30s-32 44 -32 72c0 38 20 76 60 113h-11v68c-40 -53 -101 -79 -184 -79c-57 0 -100 15 -130 45c-31 30 -46 73 -46 128v373h86v-371c0 -36 11 -65 33 -87c22 -23 52 -34 90 -34c60 0 110 29 151 86v406h86 v-535h-18c-19 -13 -35 -30 -49 -50c-15 -20 -20 -40 -15 -61c2 -13 8 -22 17 -29s19 -10 29 -10c14 0 28 6 43 17z"></glyph><glyph glyph-name="uring" unicode="ů" d="M293 583c-27 0 -51 10 -71 31s-30 45 -30 74s10 53 30 74s44 31 71 31c28 0 52 -10 72 -31c19 -21 29 -45 29 -74s-10 -54 -29 -74c-20 -21 -44 -31 -72 -31zM293 752c-14 0 -26 -6 -35 -17c-10 -12 -15 -28 -15 -47c0 -20 5 -36 15 -47c9 -12 21 -18 35 -18s26 6 36 18 c9 11 14 27 14 47c0 19 -5 35 -14 47c-10 11 -22 17 -36 17zM432 535h86v-535h-86v68c-40 -53 -101 -79 -184 -79c-57 0 -100 15 -130 45c-31 30 -46 73 -46 128v373h86v-371c0 -36 11 -65 33 -87c22 -23 52 -34 90 -34c60 0 110 29 151 86v406z"></glyph><glyph glyph-name="utilde" unicode="ũ" d="M432 535h86v-535h-86v68c-40 -53 -101 -79 -184 -79c-57 0 -100 15 -130 45c-31 30 -46 73 -46 128v373h86v-371c0 -36 11 -65 33 -87c22 -23 52 -34 90 -34c60 0 110 29 151 86v406zM265 638c-15 0 -31 -9 -47 -29v36c4 9 11 18 21 25c9 8 21 12 34 12s29 -5 47 -15 c19 -9 32 -14 40 -14c16 0 31 9 47 29v-36c-4 -10 -11 -18 -21 -26c-9 -7 -21 -11 -34 -11c-12 0 -28 5 -47 15s-32 14 -40 14z"></glyph><glyph glyph-name="wacute" unicode="ẃ" d="M18 484h90l65 -246c13 -54 26 -104 35 -154h3c11 49 27 101 43 153l79 247h74l75 -242c18 -58 32 -109 43 -158h3c8 49 21 100 37 157l69 243h87l-156 -484h-80l-74 231c-17 54 -31 102 -43 159h-2c-12 -58 -27 -108 -44 -160l-78 -230h-80zM411 693h96l-122 -143h-62z "></glyph><glyph glyph-name="wcircumflex" unicode="ŵ" d="M260 605l102 154h112l102 -154h-68l-90 95l-90 -95h-68zM18 535h91l133 -445l136 445h83l131 -440l132 440h57l-162 -535h-88l-128 432l-132 -432h-89z"></glyph><glyph glyph-name="wdieresis" unicode="ẅ" d="M18 484h90l65 -246c13 -54 26 -104 35 -154h3c11 49 27 101 43 153l79 247h74l75 -242c18 -58 32 -109 43 -158h3c8 49 21 100 37 157l69 243h87l-156 -484h-80l-74 231c-17 54 -31 102 -43 159h-2c-12 -58 -27 -108 -44 -160l-78 -230h-80zM274 570c-28 0 -49 24 -49 51 c0 28 22 51 51 51c27 0 48 -22 48 -51c0 -27 -20 -51 -50 -51zM460 570c-29 0 -49 24 -49 51c0 28 22 51 50 51s49 -22 49 -51c0 -27 -20 -51 -50 -51z"></glyph><glyph glyph-name="wgrave" unicode="ẁ" d="M18 484h90l65 -246c13 -54 26 -104 35 -154h3c11 49 27 101 43 153l79 247h74l75 -242c18 -58 32 -109 43 -158h3c8 49 21 100 37 157l69 243h87l-156 -484h-80l-74 231c-17 54 -31 102 -43 159h-2c-12 -58 -27 -108 -44 -160l-78 -230h-80zM237 693h96l88 -143h-62z"></glyph><glyph glyph-name="ycircumflex" unicode="ŷ" d="M128 605l102 154h112l102 -154h-68l-90 95l-90 -95h-68zM152 -241l86 218l-220 558h92l171 -452l175 452h59l-306 -776h-57z"></glyph><glyph glyph-name="ygrave" unicode="ỳ" d="M152 -241l86 218l-220 558h92l171 -452l175 452h59l-306 -776h-57zM341 599h-54l-96 101h83z"></glyph><glyph glyph-name="ymacron" unicode="ȳ" d="M9 484h96l105 -286c12 -32 24 -70 32 -99h2c9 29 19 66 31 101l96 284h93l-132 -345c-63 -166 -106 -250 -166 -303c-44 -37 -86 -52 -108 -56l-22 73c22 7 51 21 77 43c24 19 53 53 74 98c4 9 7 16 7 21s-2 12 -7 23zM124 643h225v-57h-225v57z"></glyph><glyph glyph-name="zacute" unicode="ź" d="M18 0v51l218 285c22 27 42 50 64 76v2h-262v70h368v-55l-216 -281c-21 -27 -40 -52 -62 -76v-2h282v-70h-392zM260 693h97l-122 -143h-62z"></glyph><glyph glyph-name="zdotaccent" unicode="ż" d="M18 0v51l218 285c22 27 42 50 64 76v2h-262v70h368v-55l-216 -281c-21 -27 -40 -52 -62 -76v-2h282v-70h-392zM216 570c-29 0 -50 24 -50 51c0 29 23 52 51 52s49 -23 49 -52c0 -27 -20 -51 -50 -51z"></glyph><glyph glyph-name="aeacute" unicode="ǽ" d="M734 233h-325c-3 -115 64 -176 155 -176c67 0 106 15 132 27l16 -62c-38 -20 -95 -33 -159 -33c-83 0 -156 38 -184 107h-3c-30 -67 -96 -107 -179 -107c-101 0 -151 68 -151 138c0 112 104 178 291 175v20c0 24 -14 107 -112 107c-46 0 -95 -16 -124 -36l-21 57 c43 28 103 44 151 44c87 0 136 -40 156 -102h2c32 63 92 102 169 102c148 0 189 -142 189 -222c0 -15 -1 -30 -3 -39zM329 172v71c-93 2 -206 -14 -206 -109c0 -51 38 -80 84 -80c63 -1 103 38 117 83c3 11 5 23 5 35zM409 296h244c2 49 -25 136 -114 136 c-88 0 -127 -81 -130 -136zM428 693h97l-122 -143h-62z"></glyph><glyph glyph-name="space_commaaccentcomb" unicode="" d="M93 -222l-17 41c39 6 75 26 75 65c0 24 -16 47 -34 61l65 14c20 -13 40 -41 40 -74c0 -73 -67 -103 -129 -107z"></glyph><glyph glyph-name="acute.cap" unicode="" d="M198 827h106l-128 -117h-71z"></glyph><glyph glyph-name="brevemod.cap" unicode="" d="M26 832h52c5 -23 23 -49 72 -49s68 23 73 49h51c-2 -59 -39 -106 -125 -106c-85 0 -121 46 -123 106z"></glyph><glyph glyph-name="caronmod.cap" unicode="" d="M185 710h-67l-105 114h74l64 -69h2l63 69h71z"></glyph><glyph glyph-name="cedilla.cap" unicode="" d="M137 2h54l-31 -53c38 -6 70 -33 70 -74c0 -58 -51 -81 -103 -81c-26 0 -53 7 -71 17l15 45c15 -8 33 -14 55 -14c23 0 42 9 42 31c0 26 -31 38 -78 43z"></glyph><glyph glyph-name="circumflexmod.cap" unicode="" d="M115 824h67l105 -114h-74l-63 69h-2l-64 -69h-71z"></glyph><glyph glyph-name="space_commaaccentcomb.cap" unicode="" d="M93 -222l-17 41c39 6 75 26 75 65c0 24 -16 46 -34 61l65 14c20 -13 40 -41 40 -74c0 -73 -67 -103 -129 -107z"></glyph><glyph glyph-name="dieresis.cap" unicode="" d="M57 721c-28 0 -48 23 -48 51c0 27 21 50 49 50s48 -22 48 -50s-19 -51 -49 -51zM242 721c-28 0 -48 23 -48 51c0 27 21 50 50 50c28 0 48 -22 48 -50s-19 -51 -50 -51z"></glyph><glyph glyph-name="dotaccentmod.cap" unicode="" d="M150 721c-28 0 -49 24 -49 51c0 26 22 50 50 50c27 0 48 -24 48 -50c0 -27 -21 -51 -49 -51z"></glyph><glyph glyph-name="grave.cap" unicode="" d="M-2 827h106l93 -116h-71z"></glyph><glyph glyph-name="doubleacutemod.cap" unicode="" d="M117 827h95l-111 -112h-64zM264 827h95l-111 -112h-64z"></glyph><glyph glyph-name="macron.cap" unicode="" d="M31 788h240v-55h-240v55z"></glyph><glyph glyph-name="ogonekmod.cap" unicode="" d="M123 4h57c-15 -19 -53 -62 -53 -100c0 -31 20 -50 50 -50c18 0 34 4 46 10l14 -46c-21 -15 -56 -23 -80 -23c-56 0 -94 30 -94 86c0 50 36 97 60 123z"></glyph><glyph glyph-name="ringmod.cap" unicode="" d="M202 877c61 0 99 -40 99 -91c0 -50 -41 -88 -100 -88c-60 0 -100 39 -100 88c0 50 38 91 101 91zM199 841c-29 0 -47 -26 -47 -55c0 -26 19 -51 48 -51c30 0 49 23 49 53c0 29 -19 53 -50 53z"></glyph><glyph glyph-name="tildemod.cap" unicode="" d="M73 715h-47c-1 61 25 102 68 102c22 0 38 -9 59 -20c16 -9 32 -18 48 -18c15 0 24 7 27 39h46c1 -63 -21 -97 -67 -97c-21 0 -39 8 -61 19c-19 10 -32 19 -47 19c-16 0 -23 -17 -26 -44z"></glyph><glyph glyph-name="Alpha-grek" unicode="Α" d="M424 212h-239l-70 -212h-90l230 674h104l230 -674h-93zM203 280h204l-67 194c-15 44 -25 84 -35 123h-2c-10 -39 -20 -81 -34 -122z"></glyph><glyph glyph-name="Beta-grek" unicode="Β" d="M76 2v662c38 9 99 15 159 15c87 0 143 -15 184 -49c35 -26 57 -66 57 -119c0 -66 -44 -123 -114 -148v-3c64 -15 139 -68 139 -168c0 -58 -23 -103 -58 -135c-46 -43 -122 -63 -232 -63c-60 0 -106 4 -135 8zM163 606v-218h79c91 0 145 49 145 114c0 78 -59 110 -147 110 c-40 0 -63 -3 -77 -6zM163 323v-257c18 -3 42 -4 73 -4c90 0 173 33 173 131c0 91 -79 130 -174 130h-72z"></glyph><glyph glyph-name="Gamma-grek" unicode="Γ" d="M75 674h362v-73h-274v-601h-88v674z"></glyph><glyph glyph-name="Delta-grek" unicode="Δ" d="M26 0v50l234 624h99l232 -624v-50h-565zM119 73h375l-137 371c-17 47 -38 107 -50 150h-3c-9 -34 -28 -90 -44 -137z"></glyph><glyph glyph-name="Epsilon-grek" unicode="Ε" d="M424 388v-72h-261v-243h292v-73h-380v674h365v-73h-277v-213h261z"></glyph><glyph glyph-name="Zeta-grek" unicode="Ζ" d="M30 0v51l373 547v3h-341v73h455v-53l-372 -545v-3h377v-73h-492z"></glyph><glyph glyph-name="Eta-grek" unicode="Η" d="M75 674h88v-282h326v282h88v-674h-88v316h-326v-316h-88v674z"></glyph><glyph glyph-name="Theta-grek" unicode="Θ" d="M340 -11c-179 0 -304 138 -304 342c0 214 133 355 313 355c184 0 304 -141 304 -343c0 -230 -141 -354 -313 -354zM345 60c138 0 216 127 216 280c0 135 -70 275 -215 275c-146 0 -218 -136 -218 -282c0 -142 79 -273 217 -273zM209 383h271v-72h-271v72z"></glyph><glyph glyph-name="Iota-grek" unicode="Ι" d="M75 674h88v-674h-88v674z"></glyph><glyph glyph-name="Kappa-grek" unicode="Κ" d="M76 0v674h87v-325h3c18 26 36 50 53 72l206 253h108l-244 -286l263 -388h-103l-221 331l-65 -74v-257h-87z"></glyph><glyph glyph-name="Lamda-grek" unicode="Λ" d="M590 0h-94l-156 464c-15 47 -25 87 -35 128h-3c-9 -42 -20 -83 -33 -127l-153 -465h-91l230 674h103z"></glyph><glyph glyph-name="Mu-grek" unicode="Μ" d="M660 0l-16 296c-5 94 -11 208 -11 291h-2c-24 -78 -51 -163 -85 -256l-119 -327h-66l-110 321c-32 96 -58 182 -77 262h-2c-2 -84 -7 -196 -13 -298l-18 -289h-83l47 674h111l115 -326c28 -83 50 -157 68 -227h2c18 68 42 142 72 227l120 326h111l42 -674h-86z"></glyph><glyph glyph-name="Nu-grek" unicode="Ν" d="M158 0h-82v674h96l215 -341c49 -79 89 -150 120 -219l3 1c-8 90 -10 172 -10 277v282h82v-674h-88l-214 342c-47 75 -92 152 -125 225l-3 -1c5 -85 6 -166 6 -278v-288z"></glyph><glyph glyph-name="Xi-grek" unicode="Ξ" d="M54 674h440v-72h-440v72zM87 385h374v-72h-374v72zM43 73h462v-73h-462v73z"></glyph><glyph glyph-name="Omicron-grek" unicode="Ο" d="M339 -11c-179 0 -303 139 -303 343c0 214 132 354 312 354c185 0 304 -141 304 -342c0 -231 -141 -355 -313 -355zM344 60c138 0 216 127 216 280c0 135 -70 275 -215 275s-217 -136 -217 -281c0 -143 78 -274 216 -274z"></glyph><glyph glyph-name="Pi-grek" unicode="Π" d="M558 674v-674h-88v600h-307v-600h-88v674h483z"></glyph><glyph glyph-name="Rho-grek" unicode="Ρ" d="M76 0v666c42 7 97 13 167 13c86 0 149 -20 189 -56c36 -32 59 -81 59 -141c0 -61 -18 -109 -52 -144c-47 -49 -121 -74 -206 -74c-26 0 -50 1 -70 6v-270h-87zM163 603v-262c19 -5 43 -7 72 -7c105 0 169 52 169 143c0 90 -64 133 -159 133c-38 0 -67 -3 -82 -7z"></glyph><glyph glyph-name="Sigma-grek" unicode="Σ" d="M140 76v-3h384v-73h-498v52l234 283l-222 281v58h454v-72h-341v-4l206 -260z"></glyph><glyph glyph-name="Tau-grek" unicode="Τ" d="M204 0v600h-205v74h499v-74h-206v-600h-88z"></glyph><glyph glyph-name="Upsilon-grek" unicode="Υ" d="M11 609l15 71c47 -4 119 -37 165 -91c51 -57 91 -141 104 -247h4c16 108 68 192 117 245c47 50 108 86 153 93l15 -71c-74 -28 -185 -124 -231 -298c-10 -40 -18 -86 -18 -138v-173h-88v174c0 50 -5 95 -14 136c-40 181 -134 279 -222 299z"></glyph><glyph glyph-name="Phi-grek" unicode="Φ" d="M400 26v-52h-84v52c-137 12 -280 106 -280 307c0 207 154 308 282 317v50h84v-50c139 -10 280 -113 280 -312c0 -200 -141 -301 -282 -312zM317 89v499c-87 -7 -191 -91 -191 -253c0 -148 93 -234 191 -246zM401 588v-499c96 9 191 93 191 247c0 161 -96 243 -191 252z "></glyph><glyph glyph-name="Chi-grek" unicode="Χ" d="M546 0h-101l-87 149c-35 57 -56 94 -77 133h-2c-19 -39 -38 -75 -73 -134l-81 -148h-100l206 341l-198 333h101l89 -158c25 -44 44 -78 62 -114h3c19 40 36 71 61 114l91 158h101l-205 -328z"></glyph><glyph glyph-name="Psi-grek" unicode="Ψ" d="M638 674v-195c0 -175 -105 -265 -254 -273v-206h-83v206c-130 5 -254 72 -254 248v220h85v-205c0 -137 70 -189 169 -194v399h83v-400c89 5 169 60 169 214v186h85z"></glyph><glyph glyph-name="Omega-grek" unicode="Ω" d="M528 72v-3h147v-69h-253v55c80 55 149 162 149 298c0 123 -73 262 -216 262c-142 0 -221 -131 -221 -264c0 -126 70 -246 150 -296v-55h-254v69h146v3c-67 56 -132 157 -133 286c0 193 135 328 314 328c187 0 304 -141 304 -319c0 -139 -66 -238 -133 -295z"></glyph><glyph glyph-name="Alphatonos-grek" unicode="Ά" d="M427 212h-238l-70 -212h-90l229 674h105l230 -674h-93zM206 280h204l-67 194c-14 44 -25 84 -35 123h-2c-10 -39 -20 -81 -33 -122zM70 674h79l-34 -155h-52z"></glyph><glyph glyph-name="Epsilontonos-grek" unicode="Έ" d="M494 388v-72h-261v-243h292v-73h-380v674h365v-73h-277v-213h261zM7 674h80l-35 -155h-52z"></glyph><glyph glyph-name="Etatonos-grek" unicode="Ή" d="M145 674h87v-282h326v282h88v-674h-88v316h-326v-316h-87v674zM7 674h79l-34 -155h-52z"></glyph><glyph glyph-name="Iotatonos-grek" unicode="Ί" d="M145 674h88v-674h-88v674zM7 674h80l-35 -155h-52z"></glyph><glyph glyph-name="Iotadialytika-grek" unicode="Ϊ" d="M27 711c-29 0 -49 23 -49 50s22 50 50 50c27 0 48 -22 48 -50c0 -27 -19 -50 -49 -50zM210 711c-28 0 -48 23 -48 50s21 50 50 50c27 0 48 -22 48 -50c0 -27 -19 -50 -50 -50zM75 674h88v-674h-88v674z"></glyph><glyph glyph-name="Omicrontonos-grek" unicode="Ό" d="M379 -11c-179 0 -303 139 -303 343c0 214 132 354 312 354c185 0 304 -141 304 -342c0 -231 -141 -355 -313 -355zM384 60c138 0 216 127 216 280c0 135 -70 275 -215 275s-217 -136 -217 -281c0 -143 78 -274 216 -274zM7 674h80l-35 -155h-52z"></glyph><glyph glyph-name="Upsilontonos-grek" unicode="Ύ" d="M128 609l15 71c47 -4 119 -37 165 -91c51 -57 91 -141 104 -247h4c16 108 68 192 117 245c47 50 108 86 153 93l15 -71c-74 -28 -185 -124 -231 -298c-10 -40 -18 -86 -18 -138v-173h-88v174c0 50 -5 95 -14 136c-40 181 -134 279 -222 299zM7 674h79l-34 -155h-52z"></glyph><glyph glyph-name="Upsilondialytika-grek" unicode="Ϋ" d="M206 697c-29 0 -49 23 -49 50s22 50 50 50c27 0 48 -22 48 -50c0 -27 -19 -50 -49 -50zM389 697c-28 0 -48 23 -48 50s21 50 50 50c27 0 48 -22 48 -50c0 -27 -19 -50 -50 -50zM11 609l15 71c47 -4 119 -37 165 -91c51 -57 91 -141 104 -247h4c16 108 68 192 117 245 c47 50 108 86 153 93l15 -71c-74 -28 -185 -124 -231 -298c-10 -40 -18 -86 -18 -138v-173h-88v174c0 50 -5 95 -14 136c-40 181 -134 279 -222 299z"></glyph><glyph glyph-name="Omegatonos-grek" unicode="Ώ" d="M565 72v-3h146v-69h-253v55c81 54 150 157 150 296c0 124 -73 264 -216 264c-142 0 -221 -132 -221 -265c0 -130 70 -246 149 -295v-55h-254v69h146v3c-68 56 -132 155 -132 285c0 193 135 329 314 329c187 0 304 -142 304 -320c0 -140 -65 -239 -133 -294zM7 674h80 l-35 -155h-52z"></glyph><glyph glyph-name="alpha-grek" unicode="α" d="M629 59l18 -42c-20 -18 -48 -27 -84 -27c-59 0 -95 40 -108 119c-15 -25 -32 -46 -49 -64c-37 -37 -79 -55 -128 -55c-15 0 -31 2 -48 5s-37 10 -61 22c-25 11 -46 26 -64 45s-34 46 -47 82c-13 35 -20 76 -20 123c0 50 7 94 22 131c14 37 33 66 57 87c23 20 49 35 76 45 s55 15 84 15c60 0 106 -23 138 -68c21 -27 38 -65 51 -114c2 17 5 44 9 83c3 38 6 68 9 89h82c-25 -147 -47 -253 -67 -318c5 -31 12 -63 20 -96c3 -11 6 -20 9 -27s8 -14 16 -22s18 -14 31 -17c22 -5 40 -4 54 4zM280 44c45 0 80 14 105 42s44 70 57 125 c-5 35 -9 64 -14 89s-11 50 -19 76c-9 25 -19 46 -30 62c-11 15 -26 28 -43 38s-37 15 -60 15c-45 0 -81 -18 -108 -55c-28 -37 -42 -95 -42 -173c0 -146 51 -219 154 -219z"></glyph><glyph glyph-name="beta-grek" unicode="β" d="M395 445c43 -13 81 -38 113 -75s48 -88 48 -151c0 -73 -22 -129 -66 -169c-45 -40 -100 -60 -165 -60c-53 0 -108 11 -167 34v-265h-86v834c0 51 15 93 46 127c31 33 81 50 151 50c73 0 129 -18 170 -53c40 -36 60 -77 60 -122c0 -32 -10 -62 -30 -89s-45 -48 -74 -61z M314 45c29 0 54 6 75 19c21 12 37 28 48 47s19 39 24 58s7 39 7 58c0 53 -18 96 -54 129c-36 32 -83 53 -140 62v46c37 -3 70 9 97 35c27 25 40 57 40 96c0 35 -12 64 -35 87c-24 23 -59 34 -106 34c-42 0 -71 -10 -87 -30c-17 -21 -25 -51 -25 -91v-521 c19 -8 44 -15 76 -20c32 -6 59 -9 80 -9z"></glyph><glyph glyph-name="gamma-grek" unicode="γ" d="M270 -198h-87c3 93 5 188 -17 284c-37 160 -122 324 -171 398h99c43 -66 116 -228 147 -376h3c44 80 114 224 114 343v33h83c2 -8 2 -21 2 -33c0 -124 -78 -284 -171 -425c-5 -8 -5 -15 -5 -24c2 -57 2 -132 3 -200z"></glyph><glyph glyph-name="delta-grek" unicode="δ" d="M466 673l-26 -59c-21 16 -77 41 -132 41s-82 -21 -82 -45c0 -27 26 -46 72 -81l82 -65c80 -62 128 -132 128 -228c0 -150 -104 -247 -235 -247c-125 0 -235 88 -235 244c0 123 85 206 183 252v5l-22 18c-23 19 -62 54 -62 100c0 53 55 113 169 113c70 0 132 -25 160 -48z M327 402l-54 42c-76 -40 -146 -105 -146 -211c0 -113 75 -178 151 -178c77 0 142 65 142 175c0 68 -31 124 -93 172z"></glyph><glyph glyph-name="epsilon-grek" unicode="ε" d="M159 257v4c-63 14 -95 55 -96 103c0 64 64 130 193 130c62 0 112 -13 147 -36l-19 -59c-21 14 -73 31 -121 31c-68 0 -112 -29 -112 -72c0 -49 59 -70 135 -70h59v-62h-62c-87 0 -152 -24 -152 -83c0 -57 60 -87 131 -87c53 0 113 19 142 37l16 -60 c-37 -25 -109 -44 -177 -44c-97 0 -204 38 -204 147c0 59 49 110 120 121z"></glyph><glyph glyph-name="zeta-grek" unicode="ζ" d="M341 -143l-58 17c14 23 32 84 33 110c-35 5 -78 13 -118 27c-88 29 -159 94 -159 222c0 138 90 301 245 407v3h-71c-46 0 -87 2 -117 11l9 58c32 -4 77 -4 122 -4h167l13 -61c-160 -81 -279 -252 -279 -398c0 -108 51 -150 124 -176c46 -17 94 -24 140 -30 c5 -1 9 -5 9 -11c0 -58 -33 -140 -60 -175z"></glyph><glyph glyph-name="eta-grek" unicode="η" d="M152 404h2c24 45 80 90 160 90c67 0 171 -40 171 -206v-306c0 -55 1 -140 11 -180h-84c-12 30 -15 113 -15 177v300c0 78 -29 143 -112 143c-57 0 -102 -41 -118 -90c-4 -10 -6 -26 -6 -40v-292h-88v353c0 49 -3 98 -14 131h79c9 -18 14 -49 14 -80z"></glyph><glyph glyph-name="theta-grek" unicode="θ" d="M268 -11c-142 0 -230 125 -230 372c0 204 82 360 234 360c154 0 224 -145 224 -360c0 -225 -72 -372 -228 -372zM125 399h284c0 142 -45 257 -142 257c-89 0 -142 -121 -142 -257zM410 334h-285c0 -178 60 -280 146 -280c94 0 139 116 139 280z"></glyph><glyph glyph-name="iota-grek" unicode="ι" d="M161 484v-367c0 -43 9 -61 47 -59l-5 -64c-9 -3 -25 -5 -39 -5c-52 0 -91 23 -91 119v376h88z"></glyph><glyph glyph-name="kappa-grek" unicode="κ" d="M250 262v-3c48 -11 100 -73 149 -138l88 -121h-102l-76 103c-49 64 -94 111 -139 112h-9v-215h-87v379c0 39 -4 88 -11 105h84c9 -11 14 -42 14 -82v-133h4c87 82 155 158 212 215h103v-4c-68 -63 -145 -137 -230 -218z"></glyph><glyph glyph-name="lamda-grek" unicode="λ" d="M364 0l-98 277c-12 33 -22 66 -33 105h-4c-7 -32 -20 -69 -31 -102l-100 -280h-91l175 448c4 11 5 18 5 23c0 6 -1 14 -6 26c-31 85 -67 152 -126 152c-5 0 -11 0 -17 -1l8 68c8 3 22 4 34 4c95 0 139 -91 192 -228l185 -492h-93z"></glyph><glyph glyph-name="mu-grek" unicode="μ" d="M432 535h86v-535h-86v68c-40 -53 -101 -79 -184 -79c-36 0 -66 6 -91 18v-248h-85v776h86v-371c0 -36 11 -65 33 -87c22 -23 52 -34 90 -34c60 0 110 29 151 86v406z"></glyph><glyph glyph-name="nu-grek" unicode="ν" d="M4 484h93l93 -271c16 -44 28 -85 41 -127h4c40 78 125 241 125 353c0 17 0 31 -1 45h82c2 -10 3 -23 3 -35c0 -138 -92 -302 -180 -449h-83z"></glyph><glyph glyph-name="xi-grek" unicode="ξ" d="M361 434v-63h-27c-139 -1 -204 -68 -204 -151c0 -81 55 -126 154 -153c47 -12 92 -19 132 -24c6 0 10 -5 10 -11c0 -52 -32 -140 -60 -175l-57 17c13 23 31 85 32 110c-133 19 -302 59 -302 228c0 96 70 171 156 194v5c-74 24 -111 76 -111 141c0 84 69 169 209 169 c53 0 94 -11 122 -27l-19 -61c-19 11 -56 23 -98 23c-84 0 -126 -53 -126 -109c0 -71 62 -109 141 -112c14 0 31 -1 48 -1z"></glyph><glyph glyph-name="omicron-grek" unicode="ο" d="M270 -11c-130 0 -232 96 -232 249c0 161 107 256 240 256c139 0 233 -101 233 -248c0 -179 -125 -257 -241 -257zM274 55c84 0 147 79 147 188c0 82 -41 185 -145 185c-103 0 -148 -96 -148 -187c0 -106 60 -186 146 -186z"></glyph><glyph glyph-name="rho-grek" unicode="ρ" d="M157 60h-2v-78c0 -55 1 -140 8 -180h-84c-8 30 -11 101 -11 176v224c0 125 32 181 70 221c37 40 93 71 166 71c135 0 222 -100 222 -245c0 -171 -107 -260 -222 -260c-63 0 -118 26 -147 71zM155 230v-40c0 -12 1 -24 4 -35c16 -55 69 -97 131 -97c93 0 147 80 147 188 c0 96 -50 176 -140 176c-69 0 -142 -58 -142 -192z"></glyph><glyph glyph-name="sigma-grek" unicode="σ" d="M412 431v-3c57 -40 90 -110 90 -183c0 -178 -122 -256 -232 -256c-130 0 -232 95 -232 248c0 162 103 257 249 257h93h53c33 0 91 -1 109 1l-3 -67c-23 0 -56 0 -127 3zM273 55c79 0 142 80 142 190c0 81 -42 183 -142 183s-145 -96 -145 -187c0 -106 61 -186 145 -186z "></glyph><glyph glyph-name="tau-grek" unicode="τ" d="M321 60l-4 -62c-9 -6 -29 -9 -48 -9c-78 0 -112 48 -112 150v277h-53c-51 0 -77 -4 -98 -8l-11 51c16 12 52 25 131 25h279l-11 -68h-149v-275c0 -66 26 -82 55 -82c9 0 16 0 21 1z"></glyph><glyph glyph-name="upsilon-grek" unicode="υ" d="M359 484h83c16 -31 36 -108 36 -189c0 -142 -46 -306 -221 -306c-107 0 -190 63 -190 196v136c0 85 -2 136 -11 163h84c9 -10 14 -38 14 -90v-197c0 -98 57 -135 110 -135c84 0 128 86 128 225c0 90 -21 172 -33 197z"></glyph><glyph glyph-name="phi-grek" unicode="φ" d="M204 498l34 -49c-52 -33 -113 -98 -113 -202c0 -97 52 -177 157 -193v293c0 104 58 147 124 146c95 -1 197 -91 197 -239c0 -166 -118 -252 -240 -264v-188h-81v188c-120 9 -244 83 -244 255c0 140 99 225 166 253zM363 361v-308c95 13 156 87 156 200 c0 98 -58 176 -114 176c-25 0 -42 -22 -42 -68z"></glyph><glyph glyph-name="chi-grek" unicode="χ" d="M18 484h94l123 -261h4c14 32 30 65 50 107l73 154h85l-170 -327l176 -348l-82 -22l-144 297l-4 -1c-13 -29 -28 -64 -46 -103l-91 -193l-75 23l173 346z"></glyph><glyph glyph-name="psi-grek" unicode="ψ" d="M295 -198v187c-124 8 -228 64 -228 252v131c0 44 -2 88 -8 112h80c8 -11 13 -40 13 -90v-146c0 -142 67 -190 143 -195v558h81v-558c87 4 149 94 149 233c0 101 -23 178 -36 198h81c20 -31 39 -101 39 -191c0 -144 -61 -295 -233 -304v-187h-81z"></glyph><glyph glyph-name="omega-grek" unicode="ω" d="M388 363l-2 -191c-1 -62 35 -110 83 -110c50 0 101 64 101 195c0 95 -34 186 -80 231v2h83c43 -36 83 -124 83 -235c0 -181 -91 -266 -183 -266c-60 0 -106 33 -126 85h-4c-23 -52 -68 -85 -128 -85c-84 0 -177 73 -177 258c0 109 42 201 84 243h82v-2 c-45 -49 -80 -136 -80 -239c0 -135 57 -187 103 -187c45 0 81 49 80 109l-2 192h83z"></glyph><glyph glyph-name="finalsigma-grek" unicode="ς" d="M408 472l-20 -64c-25 11 -51 18 -89 18c-105 0 -172 -85 -172 -185c0 -94 50 -145 136 -171c48 -14 84 -20 130 -27c6 -1 9 -5 9 -14c0 -55 -32 -140 -57 -173l-59 18c14 23 31 85 33 109c-33 5 -70 13 -99 21c-102 28 -182 100 -182 230c0 129 93 260 261 260 c43 0 83 -8 109 -22z"></glyph><glyph glyph-name="alphatonos-grek" unicode="ά" d="M286 686h88l-83 -143h-59zM416 484h73c-5 -51 -13 -217 -13 -347c0 -57 14 -80 48 -81l-7 -63c-7 -3 -20 -4 -30 -4c-43 0 -78 28 -83 102h-3c-32 -59 -88 -102 -165 -102c-115 0 -198 96 -198 243c0 158 104 262 216 262c70 0 123 -36 149 -95h4c2 37 5 62 9 85z M127 235v-2c0 -90 47 -174 131 -174c61 0 114 59 129 122c5 22 6 41 6 68c0 20 0 36 -4 53c-12 64 -60 123 -124 123c-81 0 -138 -81 -138 -190z"></glyph><glyph glyph-name="epsilontonos-grek" unicode="έ" d="M257 686h88l-83 -143h-59zM159 257v4c-64 14 -95 54 -96 103c0 64 64 130 193 130c62 0 111 -13 147 -37l-19 -58c-21 14 -73 31 -121 31c-68 0 -112 -29 -112 -72c0 -49 59 -70 135 -70h59v-62h-62c-87 0 -152 -24 -152 -83c0 -57 60 -87 131 -87c53 0 113 19 142 36 l16 -59c-37 -25 -109 -44 -177 -44c-97 0 -204 38 -204 147c0 59 49 109 120 121z"></glyph><glyph glyph-name="etatonos-grek" unicode="ή" d="M301 686h89l-84 -143h-58zM152 404h2c24 45 80 90 160 90c67 0 171 -40 171 -206v-306c0 -55 1 -140 11 -180h-84c-12 30 -15 113 -15 177v300c0 78 -29 143 -112 143c-57 0 -102 -41 -118 -90c-4 -10 -6 -26 -6 -40v-292h-88v353c0 49 -3 98 -14 131h79 c9 -18 14 -49 14 -80z"></glyph><glyph glyph-name="iotatonos-grek" unicode="ί" d="M133 686h90l-84 -143h-59zM161 484v-367c0 -43 9 -61 47 -59l-5 -64c-9 -3 -25 -5 -39 -5c-52 0 -91 23 -91 119v376h88z"></glyph><glyph glyph-name="iotadialytika-grek" unicode="ϊ" d="M28 557c-29 0 -49 24 -49 51s22 50 50 50c27 0 48 -22 48 -50c0 -27 -19 -51 -49 -51zM211 557c-28 0 -48 24 -48 51s21 50 50 50c27 0 48 -22 48 -50c0 -27 -19 -51 -50 -51zM161 484v-367c0 -43 9 -61 47 -59l-5 -64c-9 -3 -25 -5 -39 -5c-52 0 -91 23 -91 120v375h88z "></glyph><glyph glyph-name="omicrontonos-grek" unicode="ό" d="M289 686h88l-83 -143h-58zM270 -11c-130 0 -232 96 -232 249c0 161 107 256 240 256c139 0 233 -101 233 -248c0 -179 -125 -257 -241 -257zM274 55c84 0 147 79 147 188c0 82 -41 185 -145 185c-103 0 -148 -96 -148 -187c0 -106 60 -186 146 -186z"></glyph><glyph glyph-name="upsilontonos-grek" unicode="ύ" d="M272 686h89l-83 -143h-60zM359 484h83c16 -31 36 -108 36 -189c0 -142 -46 -306 -221 -306c-107 0 -190 63 -190 196v136c0 85 -2 136 -11 163h84c9 -10 14 -38 14 -90v-197c0 -98 57 -135 110 -135c84 0 128 86 128 225c0 90 -21 172 -33 197z"></glyph><glyph glyph-name="upsilondialytika-grek" unicode="ϋ" d="M165 557c-29 0 -49 24 -49 51s22 50 50 50c27 0 48 -22 48 -50c0 -27 -19 -51 -49 -51zM348 557c-28 0 -48 24 -48 51s21 50 50 50c27 0 48 -22 48 -50c0 -27 -19 -51 -50 -51zM360 484h82c16 -31 36 -108 36 -189c0 -142 -46 -306 -221 -306c-107 0 -190 63 -190 196 v136c0 85 -2 136 -11 163h84c9 -10 14 -38 14 -90v-197c0 -98 57 -135 110 -135c84 0 128 86 128 225c0 90 -21 172 -32 197z"></glyph><glyph glyph-name="omegatonos-grek" unicode="ώ" d="M360 686h89l-84 -143h-58zM388 363l-2 -191c-1 -62 35 -110 83 -110c50 0 101 64 101 195c0 95 -34 186 -80 231v2h83c43 -36 83 -124 83 -235c0 -181 -91 -266 -183 -266c-60 0 -106 33 -126 85h-4c-23 -52 -68 -85 -128 -85c-84 0 -177 73 -177 258 c0 109 42 201 84 243h82v-2c-45 -49 -80 -136 -80 -239c0 -135 57 -187 103 -187c45 0 81 49 80 109l-2 192h83z"></glyph><glyph glyph-name="iotadialytikatonos-grek" unicode="ΐ" d="M161 484v-367c0 -43 9 -61 47 -59l-6 -64c-9 -3 -24 -5 -38 -5c-52 0 -90 23 -90 119v376h87zM107 696h75l-49 -156h-47zM4 560c-26 0 -45 22 -45 47s21 46 47 46c25 0 44 -20 44 -46c0 -25 -18 -47 -46 -47zM245 560c-25 0 -44 22 -44 47s20 46 46 46s45 -20 45 -46 c0 -25 -18 -47 -47 -47z"></glyph><glyph glyph-name="upsilondialytikatonos-grek" unicode="ΰ" d="M359 484h83c16 -31 36 -108 36 -189c0 -142 -46 -306 -221 -306c-107 0 -190 63 -190 196v136c0 85 -2 136 -11 163h84c9 -10 14 -38 14 -90v-197c0 -98 57 -135 110 -135c84 0 128 86 128 225c0 90 -21 172 -33 197zM242 695h75l-49 -156h-47zM139 560 c-26 0 -45 21 -45 46c0 26 21 46 47 46c25 0 44 -20 44 -46c0 -25 -18 -46 -46 -46zM381 560c-25 0 -44 21 -44 46c0 26 20 46 46 46s45 -20 45 -46c0 -25 -18 -46 -47 -46z"></glyph><glyph glyph-name="greekquestionmark" unicode=";" d="M92 -116l-62 -7c17 60 40 166 46 237l97 5c-17 -78 -58 -188 -81 -235zM118 323c-36 0 -61 29 -61 66c0 38 26 66 63 66s62 -27 62 -66c0 -37 -25 -66 -64 -66z"></glyph><glyph glyph-name="greekanoteleia" unicode="·" d="M107 251c-37 0 -63 30 -63 67c0 40 27 69 64 69c38 0 64 -28 64 -69c0 -37 -25 -67 -65 -67z"></glyph><glyph glyph-name="tonosmod-grek" unicode="΄" d="M137 694h89l-83 -143h-59z"></glyph><glyph glyph-name="greekdialytikatonosmod" unicode="΅" d="M152 710h76l-49 -157h-48zM50 573c-27 0 -46 22 -46 47c0 27 21 48 48 48c25 0 45 -21 45 -48c0 -25 -19 -47 -47 -47zM291 573c-26 0 -45 22 -45 47c0 27 21 48 47 48s46 -21 46 -48c0 -25 -19 -47 -48 -47z"></glyph><glyph glyph-name="dieresis_acutecomb" unicode="" d="M23 573c-27 0 -47 23 -47 49c0 27 21 49 49 49c27 0 47 -21 47 -49s-20 -49 -49 -49zM269 573c-27 0 -46 23 -46 49c0 27 21 49 49 49c27 0 47 -21 47 -49s-20 -49 -50 -49zM151 701h92l-111 -143h-58z"></glyph><glyph glyph-name="dieresis_gravecomb" unicode="" d="M27 573c-27 0 -47 23 -47 49c0 27 21 49 49 49c27 0 47 -21 47 -49s-20 -49 -49 -49zM268 573c-27 0 -46 23 -46 49c0 27 21 49 49 49c27 0 47 -21 47 -49s-20 -49 -50 -49zM56 701h92l78 -143h-58z"></glyph><glyph glyph-name="space_doublegravecomb" unicode="" d="M-2 686h91l80 -142h-55zM149 686h90l81 -142h-56z"></glyph><glyph glyph-name="dieresis_acutecomb.cap" unicode="" d="M13 721c-27 0 -46 23 -46 49c0 28 21 50 48 50s47 -22 47 -50s-20 -49 -49 -49zM286 721c-26 0 -45 23 -45 49c0 28 21 50 48 50s47 -22 47 -50s-20 -49 -50 -49zM142 828h102l-116 -117h-67z"></glyph><glyph glyph-name="dieresis_gravecomb.cap" unicode="" d="M12 721c-27 0 -46 23 -46 49c0 28 21 50 48 50s47 -22 47 -50s-20 -49 -49 -49zM286 721c-26 0 -45 23 -45 49c0 28 21 50 48 50s47 -22 47 -50s-20 -49 -50 -49zM56 828h103l81 -117h-67z"></glyph><glyph glyph-name="space_doublegravecomb.cap" unicode="" d="M-45 828h103l91 -117h-66zM129 828h102l92 -117h-67z"></glyph><glyph glyph-name="o.superior" d="M180 591c96 0 157 -69 157 -163c-1 -115 -83 -167 -160 -167c-89 0 -159 64 -159 162c0 104 75 168 162 168zM176 541c-63 0 -91 -63 -91 -117c0 -65 43 -113 93 -113c53 0 92 46 92 115c0 50 -27 115 -94 115z"></glyph><glyph glyph-name="Io-cyrl" unicode="Ё" d="M424 388v-72h-261v-243h292v-73h-380v674h365v-73h-277v-213h261zM162 721c-28 0 -48 23 -48 51c0 27 21 50 49 50s48 -22 48 -50s-19 -51 -49 -51zM347 721c-28 0 -48 23 -48 51c0 27 21 50 50 50c28 0 48 -22 48 -50s-19 -51 -50 -51z"></glyph><glyph glyph-name="Dje-cyrl" unicode="Ђ" d="M-1 674h518v-73h-244v-192h3c32 21 82 41 135 41c73 0 126 -32 162 -84c38 -52 52 -120 52 -188c0 -103 -34 -191 -93 -241c-42 -47 -95 -69 -140 -76l-15 68c39 10 81 31 110 70c29 38 47 97 47 171c0 60 -11 111 -35 146c-25 39 -61 61 -112 61c-44 0 -84 -17 -114 -39 v-338h-88v601h-186v73z"></glyph><glyph glyph-name="Gje-cyrl" unicode="Ѓ" d="M75 674h359v-73h-271v-601h-88v674zM283 827h106l-128 -117h-71z"></glyph><glyph glyph-name="Ieukrainian-cyrl" unicode="Є" d="M544 653l-21 -68c-32 16 -80 28 -133 28c-153 0 -246 -103 -260 -234h346v-69h-345c4 -137 102 -248 256 -248c52 0 101 10 141 27l15 -67c-33 -17 -92 -33 -172 -33c-191 0 -334 129 -334 347c0 190 131 349 350 349c85 0 133 -19 157 -32z"></glyph><glyph glyph-name="Dze-cyrl" unicode="Ѕ" d="M42 33l23 73c39 -25 95 -44 155 -44c89 0 141 47 141 115c0 62 -36 99 -127 133c-110 40 -178 98 -178 192c0 105 87 183 218 183c68 0 119 -16 148 -33l-24 -71c-21 13 -66 32 -127 32c-92 0 -127 -55 -127 -101c0 -63 41 -94 134 -130c114 -44 171 -99 171 -198 c0 -104 -76 -195 -235 -195c-65 0 -136 20 -172 44z"></glyph><glyph glyph-name="Ibyelorussianukrainian-cyrl" unicode="І" d="M75 674h88v-674h-88v674z"></glyph><glyph glyph-name="Yi-cyrl" unicode="Ї" d="M75 674h88v-674h-88v674zM27 721c-28 0 -48 23 -48 51c0 27 21 50 49 50s48 -22 48 -50s-19 -51 -49 -51zM212 721c-28 0 -48 23 -48 51c0 27 21 50 50 50c28 0 48 -22 48 -50s-19 -51 -50 -51z"></glyph><glyph glyph-name="Je-cyrl" unicode="Ј" d="M213 230v444h88v-451c0 -179 -88 -234 -204 -234c-33 0 -72 7 -93 16l12 71c18 -7 44 -13 74 -13c78 0 123 35 123 167z"></glyph><glyph glyph-name="Lje-cyrl" unicode="Љ" d="M124 674h377v-254c21 3 60 5 82 5c135 0 259 -61 259 -209c0 -64 -22 -112 -56 -147c-56 -55 -144 -75 -237 -75c-61 0 -106 4 -135 7v600h-205v-204c0 -146 -7 -309 -101 -373c-25 -16 -65 -32 -101 -32l-13 70c27 5 56 21 72 37c53 52 58 183 58 292v283zM501 353v-287 c21 -4 42 -4 70 -4c97 0 180 49 180 151c0 105 -86 144 -181 144c-20 0 -47 -2 -69 -4z"></glyph><glyph glyph-name="Nje-cyrl" unicode="Њ" d="M75 674h88v-269h267v269h87v-263c21 3 57 5 93 5c131 0 248 -60 248 -202c0 -65 -22 -112 -56 -146c-56 -55 -140 -74 -235 -74c-63 0 -108 4 -137 8v329h-267v-331h-88v674zM517 344v-277c21 -4 42 -5 71 -5c95 0 179 45 179 149c0 99 -83 137 -175 137 c-31 0 -56 -2 -75 -4z"></glyph><glyph glyph-name="Tshe-cyrl" unicode="Ћ" d="M-1 674h507v-73h-235v-193h2c38 23 96 46 153 46c56 0 96 -18 124 -47c36 -37 53 -90 53 -157v-250h-87v239c0 50 -9 84 -32 110c-21 21 -48 33 -86 33c-43 0 -95 -19 -127 -43v-339h-88v601h-184v73z"></glyph></font>
</defs>
</svg>
