<?xml version="1.0" encoding="UTF-8" standalone="no"?> <svg xmlns="http://www.w3.org/2000/svg" xmlns:xlink="http://www.w3.org/1999/xlink" version="1.1"><metadata> Created by FontForge 20170924 at Fri Feb 28 08:36:24 2020 By www-data </metadata><defs><font id="HeritageSans-LightItalic"><glyph glyph-name="ff" unicode="ff" d="M690 708l-14 -37c-13 6 -31 10 -50 10c-78 0 -112 -79 -129 -178l-4 -23h115l-8 -38h-115l-84 -442h-45l85 442h-218l-84 -442h-45l84 442h-65l7 38h66l4 24c11 59 32 123 73 164c26 25 58 41 100 41c22 0 41 -7 56 -14l-17 -37c-11 6 -28 11 -44 11 c-77 0 -108 -81 -124 -169l-4 -20h218l5 26c13 73 37 136 77 175c25 24 61 40 99 40c33 0 52 -7 61 -13z"></glyph><glyph glyph-name="ffi" unicode="ffi" d="M753 697l-19 -38c-19 11 -51 22 -89 22c-88 0 -132 -79 -149 -176l-4 -25h246l-92 -480h-45l84 442h-200l-85 -442h-45l85 442h-219l-84 -442h-45l84 442h-65l8 38h65l5 26c10 56 32 117 73 158c27 27 63 45 109 45c31 0 54 -11 70 -21l-19 -37c-16 10 -37 18 -58 18 c-30 0 -55 -10 -74 -29c-29 -29 -46 -77 -57 -137l-4 -23h219l5 28c22 129 91 213 206 213c38 0 81 -12 94 -24z"></glyph><glyph glyph-name="f_f_j" unicode="ffj" d="M753 697l-19 -38c-19 11 -51 22 -89 22c-88 0 -132 -79 -149 -176l-4 -25h245l-93 -487c-15 -79 -31 -128 -58 -158c-25 -29 -61 -44 -97 -44c-20 0 -33 1 -46 6l7 37c7 -2 22 -4 41 -4c48 0 83 31 104 138l91 474h-201l-85 -442h-45l85 442h-219l-84 -442h-45l84 442 h-65l8 38h65l5 26c10 56 32 117 73 158c27 27 63 45 109 45c31 0 54 -11 69 -21l-18 -37c-16 10 -37 18 -58 18c-30 0 -55 -10 -74 -29c-29 -29 -46 -77 -57 -137l-4 -23h219l5 28c22 129 91 213 206 213c38 0 81 -12 94 -24z"></glyph><glyph glyph-name="ffl" unicode="ffl" d="M445 689l-20 -36c-17 10 -38 16 -58 16c-32 0 -56 -12 -75 -31c-33 -33 -50 -84 -59 -135l-4 -23h219l3 21c13 76 39 136 92 177c34 27 82 43 129 43c43 0 86 -11 106 -25l-133 -696h-45l128 667c-15 8 -32 14 -71 14c-94 0 -141 -73 -159 -170l-6 -31h113l-7 -38h-114 l-84 -442h-45l85 442h-219l-84 -442h-45l84 442h-65l8 38h65l5 26c10 57 33 117 73 157c29 28 65 46 111 46c31 0 57 -11 72 -20z"></glyph><glyph glyph-name="f_i" unicode="fi" d="M139 0h-45l84 442h-65l8 38h65l5 28c23 130 91 213 206 213c38 0 81 -12 94 -24l-19 -38c-19 11 -51 22 -89 22c-88 0 -132 -79 -149 -176l-4 -25h245l-92 -480h-45l84 442h-200z"></glyph><glyph glyph-name="f_j" unicode="fj" d="M490 697l-18 -38c-19 11 -52 22 -89 22c-88 0 -132 -79 -149 -176l-4 -25h245l-93 -487c-15 -79 -31 -128 -58 -158c-25 -29 -61 -44 -97 -44c-20 0 -33 1 -45 6l6 37c8 -2 22 -4 41 -4c47 0 83 31 104 138l90 474h-201l-83 -442h-45l84 442h-65l8 38h65l5 28 c22 129 91 213 205 213c39 0 81 -12 94 -24z"></glyph><glyph glyph-name="f_l" unicode="fl" d="M138 0h-44l84 442h-65l7 38h66l4 21c14 76 39 136 91 177c34 27 82 43 129 43c43 0 86 -11 106 -25l-133 -696h-45l128 667c-15 8 -32 14 -71 14c-93 0 -140 -73 -159 -170l-6 -31h113l-7 -38h-114z"></glyph><glyph glyph-name=".notdef" d="M0 0v700h500v-700h-500zM250 395l170 255h-340zM280 350l170 -255v510zM80 50h340l-170 255zM50 605v-510l170 255z"></glyph><glyph glyph-name=".notdef" d="M0 0v700h500v-700h-500zM250 395l170 255h-340zM280 350l170 -255v510zM80 50h340l-170 255zM50 605v-510l170 255z"></glyph><glyph glyph-name="space" unicode=" "></glyph><glyph glyph-name="exclam" unicode="!" d="M148 167l65 547h64l-89 -547h-40zM145 -4c-13 0 -23 4 -30 13s-10 19 -8 31c1 12 7 22 17 31s21 13 33 13s22 -4 29 -13s10 -19 9 -31c-2 -12 -8 -22 -17 -31c-10 -9 -21 -13 -33 -13z"></glyph><glyph glyph-name="quotedbl" unicode="&quot;" d="M236 525l21 240h63l-46 -240h-38zM394 525l21 240h62l-45 -240h-38z"></glyph><glyph glyph-name="numbersign" unicode="#" d="M120 0l72 213h-132l7 49h141l63 187h-132l7 49h142l72 216h50l-72 -216h174l72 216h50l-72 -216h132l-7 -49h-142l-63 -187h132l-7 -49h-141l-72 -213h-50l72 213h-175l-71 -213h-50zM258 262h175l62 187h-174z"></glyph><glyph glyph-name="dollar" unicode="$" d="M360 401c27 -6 49 -12 67 -17c18 -6 37 -14 57 -24c20 -11 36 -23 47 -36s19 -31 25 -52c5 -21 6 -46 2 -73c-3 -21 -8 -41 -16 -60s-18 -36 -29 -51s-25 -28 -40 -40s-32 -22 -50 -30s-37 -14 -57 -19c-21 -5 -42 -7 -64 -8l-12 -81h-37l11 80c-27 1 -52 5 -75 12 c-24 6 -47 15 -68 28s-39 30 -53 53c-15 23 -24 49 -28 80l31 16c16 -52 40 -90 73 -113s75 -36 126 -37l44 318l-21 4c-72 15 -121 38 -147 71c-26 31 -35 73 -28 124c4 29 13 55 26 78s30 41 51 56s45 26 72 33s58 11 91 11h9l9 65h38l-10 -68c47 -5 85 -20 114 -45 c28 -25 49 -58 64 -101l-32 -16c-12 26 -25 48 -40 65s-32 31 -50 40s-38 15 -61 18zM183 555c-3 -20 -2 -38 2 -53s10 -28 18 -37c8 -10 19 -19 34 -26c14 -8 27 -14 40 -17c12 -4 27 -8 46 -13l39 276h-3c-105 0 -164 -43 -176 -130zM492 186c4 24 3 45 -2 63 c-5 17 -15 32 -29 43s-29 21 -46 28s-39 13 -64 19l-44 -309c57 4 100 20 131 48c30 27 48 63 54 108z"></glyph><glyph glyph-name="percent" unicode="%" d="M328 720c50 0 86 -21 109 -62c22 -42 28 -95 19 -158c-9 -64 -30 -117 -64 -158s-76 -62 -126 -62c-51 0 -87 21 -109 62s-29 94 -20 158c9 63 31 116 65 158c33 41 75 62 126 62zM752 714h45l-501 -714h-45zM271 315c35 0 63 17 84 51s36 79 44 134c7 55 5 100 -6 134 c-12 34 -35 51 -70 51s-64 -17 -85 -51s-36 -79 -43 -134c-8 -55 -6 -100 6 -134c11 -34 35 -51 70 -51zM783 434c50 0 86 -21 108 -62c22 -42 29 -95 20 -158c-9 -64 -31 -117 -64 -158c-34 -41 -76 -62 -126 -62c-51 0 -87 21 -109 62c-23 41 -29 94 -20 158 c9 63 30 116 64 158c34 41 76 62 127 62zM725 29c35 0 64 17 85 51s35 79 43 134s6 100 -5 134c-12 34 -36 51 -71 51s-63 -17 -84 -51s-36 -79 -44 -134s-6 -100 6 -134s35 -51 70 -51z"></glyph><glyph glyph-name="ampersand" unicode="&amp;" d="M675 0h-84l-86 89c-73 -66 -151 -99 -235 -99c-66 0 -118 21 -157 62s-54 95 -45 160c13 88 66 159 161 212c-22 45 -30 87 -24 126c6 46 26 87 61 122s79 52 133 52c23 0 43 -3 61 -10s33 -16 46 -28c12 -12 21 -26 28 -43l-30 -15c-7 17 -20 30 -37 41 c-18 11 -40 16 -65 16c-39 0 -70 -12 -93 -37s-37 -53 -41 -84c-4 -26 -1 -53 9 -82s28 -61 53 -96s51 -68 78 -99c26 -31 61 -69 105 -115c43 58 70 121 79 189h59c-12 -83 -46 -159 -102 -226zM276 30c68 0 133 31 196 94c-112 118 -186 206 -222 263 c-68 -40 -107 -98 -118 -175c-7 -55 3 -99 30 -132s65 -50 114 -50z"></glyph><glyph glyph-name="quoteright" unicode="’" d="M218 549c45 40 69 78 74 113c1 7 1 14 0 21c-6 1 -10 1 -13 1c-9 2 -16 7 -21 15s-6 17 -5 27c1 12 7 22 17 31s21 13 34 13c16 0 28 -8 35 -23c7 -16 10 -35 7 -57c-4 -28 -16 -57 -37 -86c-21 -30 -46 -55 -77 -76c-3 4 -7 11 -14 21z"></glyph><glyph glyph-name="parenleft" unicode="(" d="M157 -169c-93 113 -126 261 -101 442c13 90 38 173 77 249c38 76 88 141 149 196l26 -24c-50 -53 -91 -116 -124 -189s-55 -151 -66 -232s-11 -157 2 -230c12 -73 35 -136 70 -188z"></glyph><glyph glyph-name="parenright" unicode=")" d="M-24 -169l-26 24c49 52 90 115 123 188s55 149 66 230c7 54 10 106 8 156c-3 50 -11 98 -24 144c-13 45 -32 86 -55 121l32 24c46 -55 78 -120 95 -196s19 -159 6 -249c-25 -181 -100 -329 -225 -442z"></glyph><glyph glyph-name="asterisk" unicode="*" d="M297 439l-46 37l104 106l-129 33l28 59l120 -51l9 137h63l-29 -137l135 51l11 -59l-138 -33l73 -106l-55 -37l-57 117z"></glyph><glyph glyph-name="plus" unicode="+" d="M597 378l-7 -49h-206l-31 -217h-52l30 217h-207l7 49h207l30 216h53l-30 -216h206z"></glyph><glyph glyph-name="comma" unicode="," d="M-18 -137c23 20 40 40 53 59c12 19 19 37 22 54c1 7 0 14 -1 21c-6 0 -10 0 -13 1c-9 2 -16 7 -21 15s-6 17 -5 27c2 12 8 22 18 31s21 13 33 13c16 0 28 -8 36 -24c7 -16 9 -35 6 -56c-4 -28 -16 -57 -36 -86c-21 -30 -47 -55 -78 -76c-3 3 -7 10 -14 21z"></glyph><glyph glyph-name="hyphenminus" unicode="-" d="M94 250l5 37h247l-5 -37h-247z"></glyph><glyph glyph-name="period" unicode="." d="M69 -4c-13 0 -23 4 -30 13s-10 19 -8 31c1 12 7 22 17 31c9 9 20 13 33 13c12 0 22 -4 29 -13s9 -19 8 -31c-2 -12 -8 -22 -17 -31c-10 -9 -21 -13 -32 -13z"></glyph><glyph glyph-name="slash" unicode="/" d="M-22 0l367 714h52l-367 -714h-52z"></glyph><glyph glyph-name="zero" unicode="0" d="M387 724c56 0 102 -17 138 -50c35 -33 59 -77 71 -132c11 -55 12 -116 3 -185c-10 -69 -28 -131 -55 -185c-27 -55 -63 -99 -108 -132s-96 -50 -152 -50c-55 0 -101 17 -136 50c-36 33 -60 77 -72 132s-13 116 -3 185c9 69 28 130 55 185s64 99 109 132s95 50 150 50z M290 29c36 0 68 9 97 26s53 40 72 71c19 30 35 64 48 103c12 38 21 81 28 128c7 45 10 88 8 128c-3 40 -9 75 -19 104c-11 29 -28 53 -52 70s-54 26 -90 26s-68 -8 -97 -25s-53 -41 -72 -71c-19 -31 -35 -65 -47 -103c-13 -39 -22 -82 -29 -129c-7 -45 -10 -88 -7 -128 c2 -40 8 -75 18 -104s27 -53 52 -70c24 -17 54 -26 90 -26z"></glyph><glyph glyph-name="one" unicode="1" d="M424 714h62l-95 -676h154l-5 -38h-378l5 38h162l88 626l-185 -154l-22 28z"></glyph><glyph glyph-name="two" unicode="2" d="M48 0l5 38l290 282c1 1 9 8 24 23s26 25 33 32c6 7 16 18 30 35c14 16 25 30 32 43c7 12 15 27 22 45c7 17 12 34 14 51c4 28 2 52 -7 72s-25 36 -48 47s-51 17 -86 17c-76 0 -134 -26 -174 -78l-27 16c20 30 49 54 88 73s83 28 133 28c65 0 114 -16 147 -48 c33 -33 45 -76 38 -130c-5 -33 -17 -64 -36 -94c-20 -31 -49 -66 -88 -105c-44 -44 -79 -78 -104 -102c-26 -25 -58 -54 -95 -88c-37 -35 -76 -71 -116 -108h392l-6 -49h-461z"></glyph><glyph glyph-name="three" unicode="3" d="M108 112c30 -55 84 -82 161 -82c63 0 112 15 147 46c35 30 55 70 62 119c3 23 3 43 -1 61c-5 17 -11 32 -19 43c-9 11 -20 21 -34 30c-15 8 -28 14 -41 18s-29 7 -47 10c-19 2 -33 3 -44 4h-38l5 36c39 0 74 4 104 12c29 7 52 16 68 27s29 24 40 41c10 16 17 30 20 41 s5 24 8 39c2 17 2 32 -1 47s-10 28 -19 41c-9 12 -23 22 -42 29s-43 11 -70 11c-73 0 -129 -26 -169 -78l-27 16c19 29 48 53 86 72s81 29 130 29c25 0 49 -3 71 -9c21 -6 41 -15 59 -27c17 -13 30 -30 39 -52s11 -48 6 -78c-3 -27 -11 -51 -23 -72c-13 -22 -28 -40 -45 -53 c-18 -13 -36 -24 -53 -32c-18 -8 -36 -14 -54 -17c21 -2 41 -7 60 -14c19 -8 36 -19 53 -33s29 -33 37 -57s10 -51 5 -82c-8 -59 -34 -108 -79 -148s-106 -60 -181 -60c-55 0 -100 11 -135 32s-59 45 -71 74z"></glyph><glyph glyph-name="four" unicode="4" d="M455 237h110l-5 -39h-111l-28 -198h-62l28 198h-353l6 39l419 477h63zM392 237l58 413l-363 -413h305z"></glyph><glyph glyph-name="five" unicode="5" d="M287 -10c-50 0 -92 10 -126 30c-34 19 -58 46 -71 79l31 16c31 -57 82 -85 152 -85c23 0 45 3 67 9c21 5 43 15 64 28s38 32 53 57s25 54 30 89c4 29 3 55 -2 78c-6 23 -15 41 -26 54c-12 13 -27 23 -44 32c-17 8 -34 14 -50 17c-17 3 -34 4 -52 4 c-53 0 -95 -11 -124 -33l-26 18l47 331h361l-7 -49h-323l-35 -253c38 17 79 25 123 25c31 0 60 -3 85 -9c25 -7 45 -15 61 -26s30 -24 42 -39s20 -30 25 -47s8 -34 11 -51c2 -18 1 -36 -2 -53c-4 -27 -12 -52 -24 -77c-13 -25 -29 -49 -50 -71c-21 -23 -47 -41 -80 -54 s-70 -20 -110 -20z"></glyph><glyph glyph-name="six" unicode="6" d="M411 434c24 0 47 -4 70 -12c22 -8 42 -20 61 -36c18 -16 32 -37 41 -64s10 -58 5 -93c-9 -70 -41 -127 -95 -172s-115 -67 -184 -67c-19 0 -37 2 -54 6c-17 3 -35 10 -52 19c-18 9 -33 22 -46 38c-13 15 -24 35 -34 58s-16 51 -17 84s0 70 5 113c9 64 25 123 49 176 s52 96 85 131c32 35 67 62 106 81c38 19 76 28 115 28c29 0 57 -5 84 -16s47 -26 60 -46l-27 -22c-25 33 -63 49 -114 49c-71 0 -132 -33 -185 -99s-88 -153 -106 -262c27 29 63 54 106 75s86 31 127 31zM524 227c7 53 0 94 -23 124c-23 29 -58 44 -107 44 c-43 0 -84 -11 -124 -32s-73 -46 -98 -74c-10 -91 -2 -157 24 -198c25 -41 64 -62 117 -62c51 0 96 17 137 52c41 34 65 83 74 146z"></glyph><glyph glyph-name="seven" unicode="7" d="M228 0c41 110 100 223 177 339s161 225 251 326h-416l7 49h471l-5 -38c-87 -99 -172 -212 -253 -339s-138 -240 -169 -337h-63z"></glyph><glyph glyph-name="eight" unicode="8" d="M584 567c-3 -21 -10 -41 -20 -59c-10 -19 -21 -34 -33 -45c-13 -12 -28 -23 -45 -33s-32 -17 -44 -22c-13 -5 -27 -11 -43 -16c31 -15 56 -28 75 -40s37 -26 53 -42c15 -16 26 -34 31 -53s6 -41 3 -66c-9 -61 -38 -110 -89 -146c-51 -37 -111 -55 -178 -55 c-17 0 -34 1 -51 4c-17 2 -37 7 -59 15c-23 8 -42 19 -58 32c-17 13 -29 32 -38 56s-12 52 -8 83c13 93 77 159 192 198c-43 25 -73 52 -90 80c-17 27 -24 60 -19 97c4 29 13 54 28 76s33 40 55 53s46 23 73 30s55 10 84 10c61 0 108 -13 142 -40c33 -27 46 -66 39 -117z M527 570c5 37 -4 67 -27 88s-58 31 -105 31c-31 0 -59 -5 -84 -14s-45 -23 -60 -41c-15 -19 -25 -41 -28 -67c-2 -14 -2 -27 0 -38c1 -12 6 -23 13 -32c7 -10 14 -18 21 -25s17 -15 31 -23c14 -9 26 -15 35 -20s22 -11 40 -20c1 0 2 0 3 -1c25 14 45 26 60 35 c14 9 29 20 46 33s29 28 38 43s14 32 17 51zM502 180c2 12 2 23 1 34c-1 10 -4 19 -7 28c-4 8 -10 16 -18 24s-17 16 -28 23s-23 14 -38 21c-5 2 -20 9 -46 21c-27 12 -47 22 -61 29c-13 -6 -24 -12 -34 -17c-11 -6 -22 -13 -35 -21c-13 -9 -25 -18 -34 -27 c-10 -10 -20 -21 -29 -32s-17 -24 -23 -39s-10 -30 -12 -46c-7 -47 4 -84 33 -111c28 -28 70 -42 127 -42s103 14 140 42c36 28 57 66 64 113z"></glyph><glyph glyph-name="nine" unicode="9" d="M415 724c19 0 37 -2 54 -5c17 -4 34 -11 52 -20s33 -22 46 -37c13 -16 24 -36 34 -59s16 -51 17 -84s0 -70 -5 -113c-9 -64 -25 -122 -49 -175s-52 -97 -85 -132s-68 -61 -106 -80s-76 -29 -115 -29c-29 0 -57 5 -84 16s-47 26 -60 46l26 22c25 -33 64 -49 115 -49 c71 0 132 33 185 99s88 153 106 262c-27 -29 -63 -54 -106 -75s-86 -31 -127 -31c-24 0 -47 4 -70 12s-43 20 -61 36s-31 38 -40 65s-12 57 -7 92c10 70 42 127 96 172s115 67 184 67zM329 319c30 0 60 6 91 18c30 11 56 25 77 40s39 31 54 48c11 91 3 157 -22 198 c-26 41 -65 62 -118 62c-33 0 -63 -7 -92 -21s-55 -36 -77 -67s-36 -67 -42 -110c-7 -53 0 -94 23 -123c22 -30 57 -45 106 -45z"></glyph><glyph glyph-name="colon" unicode=":" d="M134 457c-12 0 -22 4 -29 13c-8 9 -11 19 -9 31c1 12 7 22 17 31s21 13 33 13s22 -4 29 -13s10 -19 9 -31c-2 -12 -8 -22 -17 -31c-10 -9 -21 -13 -33 -13zM69 -4c-13 0 -23 4 -30 13s-10 19 -8 31c1 12 7 22 17 31c9 9 20 13 33 13c12 0 22 -4 29 -13s9 -19 8 -31 c-2 -12 -8 -22 -17 -31c-10 -9 -21 -13 -32 -13z"></glyph><glyph glyph-name="semicolon" unicode=";" d="M117 457c-13 0 -23 4 -30 13s-10 19 -8 31c1 12 7 22 17 31s21 13 33 13s22 -4 29 -13s10 -19 9 -31c-2 -12 -8 -22 -17 -31c-10 -9 -21 -13 -33 -13zM-18 -137c45 40 70 78 75 113c1 7 0 14 -1 21c-6 0 -10 0 -13 1c-9 2 -16 7 -21 15s-6 17 -5 27c2 12 8 22 18 31 s21 13 33 13c16 0 28 -8 36 -24c7 -16 9 -35 6 -56c-4 -28 -16 -57 -36 -86c-21 -30 -47 -55 -78 -76c-3 3 -7 10 -14 21z"></glyph><glyph glyph-name="less" unicode="&lt;" d="M549 548l-7 -53l-344 -143l304 -144l-8 -53l-378 179l5 35z"></glyph><glyph glyph-name="equal" unicode="=" d="M161 464h452l-7 -49h-452zM130 243l7 49h452l-7 -49h-452z"></glyph><glyph glyph-name="greater" unicode="&gt;" d="M76 155l7 53l344 143l-303 144l7 53l379 -179l-5 -35z"></glyph><glyph glyph-name="question" unicode="?" d="M227 167c3 49 15 90 36 123s51 66 90 98c5 5 14 12 27 22c12 9 21 16 26 21c5 4 12 10 21 19c9 8 15 15 20 22c4 6 9 14 14 23s10 18 13 29c3 10 5 21 6 33c13 87 -26 131 -115 131c-82 0 -142 -39 -179 -116l-30 13c43 93 117 139 222 139c31 0 57 -4 80 -11 c22 -7 39 -17 50 -29c11 -13 21 -27 28 -42s10 -31 10 -47c-1 -17 -2 -33 -3 -48c-3 -20 -8 -38 -15 -55s-15 -32 -22 -43c-8 -12 -20 -25 -35 -38c-16 -14 -29 -25 -38 -32c-10 -7 -26 -18 -47 -33c-70 -47 -110 -107 -120 -179h-39zM223 -4c-12 0 -22 4 -29 13 c-8 9 -11 19 -9 31c1 12 7 22 17 31s21 13 34 13c11 0 21 -4 28 -13s10 -19 9 -31c-2 -12 -8 -22 -17 -31c-10 -9 -21 -13 -33 -13z"></glyph><glyph glyph-name="at" unicode="@" d="M397 -10c-41 0 -79 5 -112 14c-34 9 -62 23 -85 40s-43 37 -60 60s-30 48 -37 75s-12 56 -14 87s0 62 6 94c19 110 67 198 144 265c77 66 170 99 279 99c31 0 61 -3 88 -9s52 -14 73 -25s41 -23 59 -38c17 -15 32 -32 44 -49c11 -18 21 -37 30 -57c9 -21 15 -42 18 -63 c3 -22 5 -44 6 -66s-1 -44 -6 -65c-9 -56 -30 -103 -62 -140c-32 -38 -70 -57 -115 -57c-43 0 -72 16 -87 47c-5 10 -9 20 -10 31c-54 -52 -107 -78 -160 -78c-49 0 -87 19 -114 58c-28 38 -38 88 -29 149c9 62 32 112 71 150c38 38 81 57 130 57c47 0 88 -21 125 -63l8 58 h61c-27 -204 -38 -314 -33 -330c5 -28 21 -42 48 -42c25 0 48 15 67 44s33 70 41 124c14 101 -2 181 -47 239c-45 57 -115 86 -209 86c-97 0 -177 -29 -240 -88s-102 -139 -117 -238c-9 -64 -6 -121 10 -170c16 -50 45 -89 86 -117c41 -29 93 -43 155 -43c17 0 35 1 54 4 c18 2 35 5 50 9s30 9 44 14c13 5 25 10 36 15c10 5 18 11 25 16l12 -35c-27 -20 -62 -35 -104 -46s-85 -16 -129 -16zM411 188c50 0 97 27 141 80c-1 25 2 56 7 92l14 105c-29 47 -67 71 -112 71c-44 0 -79 -20 -106 -59s-41 -86 -44 -141c-2 -31 1 -57 8 -79s18 -39 34 -51 c15 -12 35 -18 58 -18z"></glyph><glyph glyph-name="A" unicode="A" d="M510 0l-63 254h-312l-135 -254h-42l382 714h57l182 -714h-69zM156 292h282l-90 360z"></glyph><glyph glyph-name="B" unicode="B" d="M541 376c41 -13 69 -36 86 -68s22 -69 16 -110c-8 -58 -34 -105 -78 -142c-45 -37 -99 -56 -162 -56h-293l100 714h265c67 0 117 -17 152 -50s48 -78 40 -134c-3 -22 -9 -42 -18 -60c-9 -19 -20 -34 -32 -46c-13 -12 -25 -22 -37 -29c-13 -8 -26 -14 -39 -19zM267 676 l-40 -284h214c17 0 33 2 49 7s32 12 49 22c16 9 30 24 42 43c11 19 19 42 23 69c4 26 3 49 -3 69c-7 19 -17 34 -30 45c-13 10 -27 17 -42 22s-31 7 -48 7h-214zM402 38c17 0 35 3 53 9c18 5 36 14 54 26c17 12 33 29 46 50s21 46 25 75c4 28 3 53 -4 74s-18 38 -32 49 c-15 11 -30 20 -46 25c-17 5 -34 8 -51 8h-105h-120l-45 -316h225z"></glyph><glyph glyph-name="C" unicode="C" d="M398 -10c-51 0 -96 10 -137 31s-74 48 -98 83c-25 35 -42 74 -52 119s-12 91 -5 140c7 53 24 102 51 148c26 46 57 84 94 115s77 55 122 72c44 17 88 26 132 26c57 0 107 -13 152 -40s76 -63 94 -108l-32 -16c-52 83 -124 125 -217 125c-85 0 -159 -30 -220 -91 s-99 -138 -112 -233c-9 -61 -5 -117 10 -166c15 -50 43 -90 84 -120c40 -30 89 -45 147 -45c97 0 186 41 265 124l27 -15c-33 -45 -77 -81 -132 -108s-112 -41 -173 -41z"></glyph><glyph glyph-name="D" unicode="D" d="M110 0l100 714h244c63 0 119 -16 167 -49c47 -33 82 -76 103 -131s28 -114 19 -177c-9 -64 -33 -123 -70 -178c-38 -55 -85 -98 -141 -130c-56 -33 -114 -49 -174 -49h-248zM177 38h189c55 0 106 15 151 44s82 68 109 116c27 47 45 101 53 160c13 91 -1 167 -41 228 c-40 60 -100 90 -181 90h-190z"></glyph><glyph glyph-name="E" unicode="E" d="M177 38h397l-5 -38h-459l100 714h457l-5 -38h-395l-41 -292h339l-5 -38h-339z"></glyph><glyph glyph-name="F" unicode="F" d="M662 676h-395l-41 -292h339l-5 -38h-339l-49 -346h-62l100 714h457z"></glyph><glyph glyph-name="G" unicode="G" d="M419 -10c-37 0 -71 4 -102 13c-31 8 -58 19 -79 34c-22 15 -41 32 -58 52c-17 19 -31 40 -40 63c-9 22 -17 45 -23 70c-6 24 -9 48 -8 72c0 24 1 47 3 70c9 67 34 128 74 183c39 55 88 99 146 130c57 31 117 47 178 47c33 0 65 -5 96 -14s60 -25 89 -48 c28 -23 49 -52 64 -87l-30 -14c-28 43 -60 74 -95 94s-78 30 -128 30c-45 0 -88 -9 -127 -27c-40 -19 -73 -43 -100 -74s-50 -65 -67 -103c-18 -38 -30 -78 -36 -119c-5 -23 -6 -48 -4 -73c2 -26 5 -51 10 -75c5 -25 14 -48 27 -70c13 -23 29 -42 48 -59 c18 -17 42 -31 72 -40c29 -10 63 -15 100 -15c25 0 50 2 75 6s51 11 77 20s49 21 69 34l28 193h-142l6 38h201l-32 -230c-30 -31 -72 -56 -127 -74s-110 -27 -165 -27z"></glyph><glyph glyph-name="H" unicode="H" d="M684 714h63l-101 -714h-62l49 346h-412l-49 -346h-62l100 714h62l-46 -330h412z"></glyph><glyph glyph-name="I" unicode="I" d="M210 714h62l-100 -714h-62z"></glyph><glyph glyph-name="J" unicode="J" d="M160 -10c-31 0 -59 4 -84 12s-46 19 -62 33s-27 30 -34 48l28 15c31 -45 77 -68 140 -68c19 0 38 2 55 6c17 3 35 10 53 19s33 23 46 41c12 18 20 40 23 65l78 553h62l-77 -546c-8 -57 -33 -101 -74 -132s-93 -46 -154 -46z"></glyph><glyph glyph-name="K" unicode="K" d="M348 419l272 -419h-79l-245 376l-80 -65l-44 -311h-62l100 714h62l-49 -351l435 351h55z"></glyph><glyph glyph-name="L" unicode="L" d="M177 38h392l-5 -38h-454l100 714h62z"></glyph><glyph glyph-name="M" unicode="M" d="M110 0l100 714h75l197 -377l302 377h63l-101 -714h-62l91 647l-321 -400l-214 410l-92 -657h-38z"></glyph><glyph glyph-name="N" unicode="N" d="M210 714h50l381 -629l88 629h38l-100 -714h-51l-380 627l-88 -627h-38z"></glyph><glyph glyph-name="O" unicode="O" d="M497 724c63 0 118 -16 167 -49c48 -33 84 -77 107 -133c23 -57 29 -118 20 -185s-33 -128 -72 -184c-39 -57 -87 -101 -144 -134c-58 -33 -118 -49 -181 -49s-118 16 -166 49c-49 33 -84 77 -107 134c-23 56 -30 117 -21 184s33 128 72 185c39 56 87 100 145 133 c57 33 117 49 180 49zM400 29c79 0 151 32 214 95s100 141 113 233c9 60 4 115 -13 166c-18 50 -46 90 -85 119s-85 43 -137 43c-80 0 -151 -32 -214 -95s-101 -141 -114 -233c-9 -60 -4 -115 14 -165c17 -51 46 -90 85 -119s84 -44 137 -44z"></glyph><glyph glyph-name="P" unicode="P" d="M110 0l100 714h258c64 0 113 -18 148 -55c34 -37 47 -87 38 -148c-9 -62 -35 -110 -80 -144s-101 -51 -166 -51h-192l-44 -316h-62zM222 355h196c47 0 85 13 116 40c31 26 50 64 57 113c7 51 -1 91 -25 122s-60 46 -107 46h-192z"></glyph><glyph glyph-name="Q" unicode="Q" d="M497 724c63 0 118 -16 167 -49c48 -33 84 -77 107 -133c23 -57 29 -118 20 -185c-13 -89 -50 -167 -113 -235l76 -92l-46 -40l-75 90c-73 -60 -153 -90 -239 -90c-63 0 -118 16 -166 49c-49 33 -84 77 -107 134c-23 56 -30 117 -21 184s33 128 72 185 c39 56 87 100 145 133c57 33 117 49 180 49zM727 357c9 60 4 115 -13 166c-18 50 -46 90 -85 119s-85 43 -137 43c-80 0 -151 -32 -214 -95s-101 -141 -114 -233c-9 -60 -4 -115 14 -165c17 -51 46 -90 85 -119s84 -44 137 -44c75 0 143 29 204 87l-88 107l45 41l85 -103 c43 57 70 123 81 196z"></glyph><glyph glyph-name="R" unicode="R" d="M110 0l100 714h258c64 0 113 -18 148 -55c34 -37 47 -87 38 -148c-7 -47 -25 -87 -54 -119c-30 -33 -69 -55 -118 -66l130 -326h-71l-127 317c-8 -1 -15 -1 -21 -1h-177l-44 -316h-62zM222 355h196c47 0 85 13 116 40c31 26 50 64 57 113c7 51 -1 91 -25 122 s-60 46 -107 46h-192z"></glyph><glyph glyph-name="S" unicode="S" d="M280 -10c-28 0 -54 3 -79 9c-25 5 -50 14 -73 27s-43 31 -58 54c-16 23 -26 51 -30 83l31 16c11 -36 27 -65 47 -88c19 -23 42 -39 69 -48c26 -9 57 -14 93 -14c65 0 115 14 150 43c35 28 55 66 62 114c9 59 -12 101 -61 126c-25 12 -71 25 -138 39 c-72 15 -121 38 -147 71c-26 31 -35 73 -28 124c8 59 33 103 75 133s97 45 165 45c61 0 110 -12 145 -37s62 -63 79 -112l-32 -16c-21 45 -46 78 -76 97c-31 19 -69 29 -115 29c-105 0 -164 -43 -176 -130c-9 -61 16 -103 74 -126c19 -8 47 -16 86 -24 c81 -17 136 -37 165 -60c42 -33 59 -82 50 -146c-9 -67 -39 -119 -90 -155s-113 -54 -188 -54z"></glyph><glyph glyph-name="T" unicode="T" d="M722 714l-6 -38h-252l-95 -676h-62l95 676h-252l5 38h567z"></glyph><glyph glyph-name="U" unicode="U" d="M725 714h38l-65 -465c-10 -71 -46 -132 -107 -183s-130 -76 -207 -76s-138 25 -185 76s-66 112 -56 183l66 465h62l-65 -465c-9 -61 6 -113 45 -155c38 -43 88 -64 151 -64s119 21 169 64c50 42 79 94 88 155z"></glyph><glyph glyph-name="V" unicode="V" d="M336 0l-176 714h67l160 -655l344 655h40l-376 -714h-59z"></glyph><glyph glyph-name="W" unicode="W" d="M1007 714h40l-302 -714h-62l-92 630l-268 -630h-62l-101 714h65l90 -638l273 638h57l92 -638z"></glyph><glyph glyph-name="X" unicode="X" d="M72 714h76l159 -304l266 304h47l-293 -332l204 -382h-77l-173 334l-290 -334h-47l316 362z"></glyph><glyph glyph-name="Y" unicode="Y" d="M694 714h47l-322 -409l-42 -305h-63l43 305l-201 409h74l176 -369z"></glyph><glyph glyph-name="Z" unicode="Z" d="M121 714h490l-6 -37l-536 -639h456l-5 -38h-532l5 36l536 640h-414z"></glyph><glyph glyph-name="bracketleft" unicode="[" d="M62 -158l123 872h209l-6 -38h-146l-112 -796h146l-5 -38h-209z"></glyph><glyph glyph-name="backslash" unicode="\" d="M346 0l-166 714h52l166 -714h-52z"></glyph><glyph glyph-name="bracketright" unicode="]" d="M320 714l-123 -872h-209l6 38h146l112 796h-146l5 38h209z"></glyph><glyph glyph-name="asciicircum" unicode="^" d="M88 269l271 445h54l146 -445h-54l-126 389l-237 -389h-54z"></glyph><glyph glyph-name="underscore" unicode="_" d="M336 -137l4 29h-450l-4 -29h450z"></glyph><glyph glyph-name="quoteleft" unicode="‘" d="M359 749c-45 -40 -69 -78 -74 -113c-1 -7 -1 -14 0 -20c6 -1 10 -1 13 -2c9 -2 16 -7 21 -15s6 -17 5 -27c-1 -7 -4 -14 -9 -21s-12 -13 -19 -17s-15 -6 -23 -6c-11 0 -20 4 -27 12s-12 18 -14 30c-3 11 -3 24 -1 38c4 28 16 57 37 87c21 29 46 54 77 75 c3 -3 7 -10 14 -21z"></glyph><glyph glyph-name="a" unicode="a" d="M514 535h61l-76 -535h-61l21 147c-22 -45 -53 -82 -92 -112s-81 -45 -125 -45c-60 0 -107 26 -142 79c-35 52 -46 118 -35 197c11 81 44 148 97 201c53 52 112 78 179 78c62 0 116 -31 161 -92zM260 29c39 0 77 16 112 49c35 32 67 74 95 127l29 203 c-42 65 -92 98 -149 98c-52 0 -99 -23 -142 -70s-69 -104 -78 -171c-5 -40 -4 -78 5 -113c8 -36 23 -65 46 -88s50 -35 82 -35z"></glyph><glyph glyph-name="b" unicode="b" d="M409 545c60 0 107 -26 142 -78c34 -53 46 -119 35 -198c-12 -81 -44 -148 -97 -200c-53 -53 -113 -79 -180 -79c-62 0 -116 31 -161 92l-11 -82h-61l107 760h61l-53 -372c22 45 53 82 92 112s81 45 126 45zM523 270c5 29 6 58 1 87s-12 54 -23 76s-26 40 -45 53 s-41 20 -65 20c-39 0 -77 -16 -112 -48c-36 -33 -68 -75 -96 -128l-28 -203c41 -65 91 -98 149 -98c52 0 99 23 142 70c42 47 68 104 77 171z"></glyph><glyph glyph-name="c" unicode="c" d="M527 417c-39 59 -90 89 -155 89c-43 0 -82 -11 -117 -33c-36 -23 -64 -52 -85 -88s-35 -75 -41 -117c-6 -41 -4 -80 7 -115c10 -35 30 -65 59 -88c29 -24 66 -36 110 -36c66 0 127 30 183 89l25 -18c-26 -33 -58 -60 -97 -80s-80 -30 -125 -30c-75 0 -134 27 -177 80 s-59 119 -48 198s46 145 105 198c58 53 124 79 198 79c44 0 82 -10 114 -29c32 -20 57 -47 74 -81z"></glyph><glyph glyph-name="d" unicode="d" d="M545 760h61l-107 -760h-61l21 147c-22 -45 -53 -82 -92 -112s-81 -45 -125 -45c-60 0 -107 26 -142 79c-35 52 -46 118 -35 197c11 81 44 148 97 201c53 52 112 78 179 78c62 0 116 -31 161 -92zM260 29c39 0 77 16 112 49c35 32 67 74 95 127l29 203 c-42 65 -92 98 -149 98c-52 0 -99 -23 -142 -70s-69 -104 -78 -171c-5 -40 -4 -78 5 -113c8 -36 23 -65 46 -88s50 -35 82 -35z"></glyph><glyph glyph-name="e" unicode="e" d="M370 264c-35 -11 -78 -19 -129 -22c-52 -3 -89 -4 -110 -2c-1 -27 1 -53 8 -77c6 -25 16 -47 30 -67c14 -21 34 -37 59 -49s54 -18 87 -18c34 0 65 7 92 20s54 34 82 63l25 -18c-31 -39 -64 -66 -99 -81s-78 -23 -128 -23c-49 0 -92 14 -129 41s-62 62 -77 105 s-19 89 -10 137c6 35 18 69 36 102c17 33 39 62 65 87c25 25 56 46 91 61s72 22 111 22c51 0 93 -13 124 -40s43 -59 37 -96c-5 -36 -21 -65 -46 -86c-26 -22 -66 -42 -119 -59zM365 505c-35 0 -69 -10 -102 -31s-61 -49 -84 -84c-23 -36 -38 -75 -45 -117c21 -1 43 -1 68 1 c29 1 57 5 84 10s54 13 83 22c28 9 51 23 70 40s30 38 33 61c5 28 -3 51 -25 70s-49 28 -82 28z"></glyph><glyph glyph-name="f" unicode="f" d="M344 770c57 0 94 -22 113 -67l-27 -21c-17 33 -43 49 -78 49c-59 0 -94 -39 -105 -117l-11 -79h140l-5 -38h-140l-70 -497c-6 -42 -18 -91 -35 -147c-5 -21 -10 -40 -15 -55c-5 -16 -8 -26 -10 -31l-4 -8h-31l104 738h-76l5 38h76l13 90c5 41 22 76 50 104 c27 27 63 41 106 41z"></glyph><glyph glyph-name="g" unicode="g" d="M502 535h61l-83 -584c-8 -62 -33 -111 -74 -147c-41 -37 -97 -55 -166 -55c-99 0 -171 35 -216 106l28 20c43 -58 103 -87 179 -87c51 0 94 14 127 42c33 27 54 66 61 117l28 200c-22 -45 -53 -82 -92 -112s-81 -45 -125 -45c-60 0 -107 26 -142 79 c-35 52 -46 118 -35 197c11 81 44 148 97 201c53 52 112 78 179 78c62 0 116 -31 161 -92zM455 205l29 203c-42 65 -92 98 -149 98c-52 0 -99 -23 -142 -70s-69 -104 -78 -171c-5 -40 -4 -78 5 -113c8 -36 23 -65 46 -88s50 -35 82 -35c39 0 77 16 112 49 c35 32 67 74 95 127z"></glyph><glyph glyph-name="h" unicode="h" d="M425 546c46 0 82 -14 107 -43s34 -69 27 -118l-54 -385h-61l54 384c6 41 1 72 -16 93c-17 20 -42 30 -74 30c-41 0 -81 -16 -121 -49c-41 -33 -76 -81 -106 -142l-44 -316h-61l107 760h61l-55 -391c27 55 61 99 102 130s85 47 134 47z"></glyph><glyph glyph-name="i" unicode="i" d="M197 633c-10 0 -18 4 -25 11s-9 16 -8 27c1 10 6 19 15 27c9 7 18 11 29 11c10 0 18 -4 25 -11c6 -8 8 -17 7 -27c-1 -11 -6 -20 -14 -27c-9 -7 -18 -11 -29 -11zM78 0l75 535h61l-75 -535h-61z"></glyph><glyph glyph-name="j" unicode="j" d="M-27 633c-11 0 -19 4 -26 11s-9 16 -7 27c1 10 6 19 15 27c8 7 17 11 28 11s19 -4 25 -11c6 -8 8 -17 7 -27c-1 -11 -6 -20 -14 -27c-9 -7 -18 -11 -28 -11zM-257 -251c-57 0 -94 22 -113 67l26 22c18 -33 44 -49 79 -49c59 0 94 39 105 116l88 630h61l-90 -640 c-3 -20 -8 -39 -16 -56c-9 -17 -19 -33 -32 -46c-13 -14 -28 -25 -47 -32c-19 -8 -39 -12 -61 -12z"></glyph><glyph glyph-name="k" unicode="k" d="M568 535l-271 -222l207 -313h-77l-180 271l-81 -66l-29 -205h-61l107 760h61l-71 -505l342 280h53z"></glyph><glyph glyph-name="l" unicode="l" d="M217 -10c-13 0 -26 2 -38 7s-23 12 -34 22s-19 25 -24 44s-5 41 -2 66l89 631h61l-87 -622c-2 -21 -2 -38 0 -51c2 -14 7 -25 14 -32c7 -8 14 -13 22 -16c7 -3 16 -5 25 -5c16 0 28 3 37 9l9 -30c-7 -5 -17 -10 -30 -15s-27 -8 -42 -8z"></glyph><glyph glyph-name="m" unicode="m" d="M753 546c44 0 78 -14 102 -43c23 -29 31 -69 24 -118l-55 -390s0 2 1 5h-61l54 384c6 41 1 71 -14 92s-37 31 -64 31c-37 0 -74 -16 -113 -49s-72 -79 -101 -139l-46 -324s0 2 1 5h-61l54 384c6 41 1 71 -14 92c-16 21 -37 31 -64 31c-37 0 -74 -16 -113 -49 s-72 -79 -101 -139l-45 -319h-61l75 535h61l-23 -166c56 118 129 177 220 177c44 0 78 -14 101 -43s32 -69 25 -118l-2 -16c56 118 129 177 220 177z"></glyph><glyph glyph-name="n" unicode="n" d="M425 546c46 0 82 -14 107 -43s34 -69 27 -118l-54 -385h-61l54 384c6 41 1 72 -16 93c-17 20 -42 30 -74 30c-41 0 -81 -16 -121 -49c-41 -33 -76 -81 -106 -142l-44 -316h-61l75 535h61l-23 -166c27 55 61 99 102 130s85 47 134 47z"></glyph><glyph glyph-name="o" unicode="o" d="M290 -10c-75 0 -133 27 -176 80s-59 119 -48 198s46 145 104 198c57 53 123 79 198 79s133 -26 176 -79c42 -53 57 -119 46 -198s-45 -145 -102 -198s-123 -80 -198 -80zM295 29c55 0 106 24 151 71s73 103 82 168c5 32 4 63 -2 92c-7 29 -17 55 -32 76s-34 38 -57 51 s-48 19 -75 19c-55 0 -105 -23 -150 -70c-46 -47 -74 -103 -83 -168s2 -121 35 -168s76 -71 131 -71z"></glyph><glyph glyph-name="p" unicode="p" d="M375 545c60 0 107 -26 142 -78c34 -53 46 -119 35 -198c-12 -81 -44 -148 -97 -200c-53 -53 -113 -79 -180 -79c-62 0 -116 31 -161 92l-45 -323h-61l109 776h61l-21 -147c22 45 53 82 92 112s81 45 126 45zM489 270c5 29 6 58 1 87s-12 54 -23 76s-26 40 -45 53 s-41 20 -65 20c-39 0 -77 -16 -112 -48c-36 -33 -68 -75 -96 -128l-28 -203c41 -65 91 -98 149 -98c52 0 99 23 142 70c42 47 68 104 77 171z"></glyph><glyph glyph-name="q" unicode="q" d="M514 535h61l-109 -776h-61l54 388c-22 -45 -53 -82 -92 -112s-81 -45 -125 -45c-60 0 -107 26 -142 79c-35 52 -46 118 -35 197c11 81 44 148 97 201c53 52 112 78 179 78c62 0 116 -31 161 -92zM260 29c39 0 77 16 112 49c35 32 67 74 95 127l29 203 c-42 65 -92 98 -149 98c-52 0 -99 -23 -142 -70s-69 -104 -78 -171c-5 -40 -4 -78 5 -113c8 -36 23 -65 46 -88s50 -35 82 -35z"></glyph><glyph glyph-name="r" unicode="r" d="M76 0l75 535h61l-20 -145c62 103 129 155 202 155c41 0 74 -14 99 -41l-30 -37c-21 24 -49 36 -86 36c-32 0 -65 -17 -100 -50s-66 -76 -94 -128l-46 -325h-61z"></glyph><glyph glyph-name="s" unicode="s" d="M209 -10c-54 0 -99 12 -134 36c-35 23 -56 55 -63 96l32 15c7 -31 25 -56 56 -77c30 -21 68 -31 113 -31s81 10 108 30s42 47 47 82c6 42 -12 72 -53 89c-12 5 -48 15 -108 30c-20 5 -37 10 -52 16s-31 15 -46 26s-26 25 -33 43s-9 39 -6 62c6 45 27 79 62 103 c35 23 79 35 132 35c94 0 154 -39 181 -118l-32 -16c-15 34 -33 58 -55 73c-23 15 -52 22 -88 22c-28 0 -52 -4 -71 -11c-20 -7 -35 -17 -45 -30c-11 -13 -17 -29 -20 -47c-2 -15 0 -29 5 -41s11 -21 18 -28s18 -14 33 -19c15 -6 26 -10 35 -12c9 -3 21 -6 37 -9 c7 -1 12 -2 15 -3c55 -11 97 -28 124 -51s37 -58 31 -104c-7 -52 -31 -92 -72 -119c-41 -28 -92 -42 -151 -42z"></glyph><glyph glyph-name="t" unicode="t" d="M116 497l5 38h76l20 143h61l-20 -143h140l-5 -38h-141l-50 -356c-5 -41 -3 -70 7 -86c9 -17 27 -25 53 -25c22 0 49 10 81 31l14 -27c-32 -29 -70 -44 -115 -44c-41 0 -69 13 -86 40c-17 26 -22 63 -15 111l50 356h-75z"></glyph><glyph glyph-name="u" unicode="u" d="M530 535h61l-75 -535h-61l23 166c-27 -55 -60 -99 -101 -130s-86 -47 -135 -47c-46 0 -81 15 -106 44s-35 68 -28 117l54 385h61l-54 -384c-6 -41 0 -72 17 -92c17 -21 41 -31 73 -31c41 0 81 17 122 50c40 33 75 80 105 141z"></glyph><glyph glyph-name="v" unicode="v" d="M249 0l-133 535h67l116 -476l251 476h41l-283 -535h-59z"></glyph><glyph glyph-name="w" unicode="w" d="M116 535h65l80 -469l212 469h57l78 -465l210 465h41l-242 -535h-61l-77 459l-208 -459h-62z"></glyph><glyph glyph-name="x" unicode="x" d="M-40 0l242 266l-159 269h75l131 -220l204 220h48l-233 -250l164 -285h-74l-137 236l-214 -236h-47z"></glyph><glyph glyph-name="y" unicode="y" d="M142 -241l119 221l-143 555h65l120 -476l254 476h42l-416 -776h-41z"></glyph><glyph glyph-name="z" unicode="z" d="M0 0l5 38l391 459h-304l6 38h381l-6 -38l-394 -459h334l-6 -38h-407z"></glyph><glyph glyph-name="braceleft" unicode="{" d="M304 -160c-25 0 -48 8 -69 25c-22 17 -38 42 -49 76c-10 28 -15 60 -14 95s4 64 10 89c5 25 9 49 11 74c1 24 -2 39 -9 45c-5 5 -14 11 -27 17s-26 10 -39 13l1 8c35 7 60 18 75 31c10 9 17 24 22 47s8 47 9 73c1 25 7 55 16 90c9 34 22 65 40 93c21 34 44 59 70 76 c26 16 51 24 76 24c7 0 14 -1 21 -2l-2 -19c-35 -1 -65 -15 -89 -42c-35 -39 -60 -107 -76 -204c-7 -44 -13 -75 -18 -93s-12 -34 -22 -47c-13 -17 -27 -27 -43 -31c14 -3 25 -13 34 -31c3 -5 5 -11 6 -18s2 -13 3 -20s1 -17 0 -28s-2 -22 -3 -32s-3 -24 -5 -41 c-11 -97 -5 -166 18 -205c17 -27 43 -41 78 -41l-3 -19c-5 -2 -13 -3 -22 -3z"></glyph><glyph glyph-name="bar" unicode="|" d="M175 760h46l-141 -1001h-46z"></glyph><glyph glyph-name="braceright" unicode="}" d="M129 716c24 0 47 -8 69 -25c21 -17 38 -42 49 -76c9 -27 14 -59 14 -94c-1 -35 -4 -65 -10 -89c-6 -25 -10 -49 -11 -73c-2 -25 1 -40 9 -46c5 -6 14 -12 27 -18s26 -10 39 -13l-1 -8c-35 -7 -60 -17 -75 -31c-10 -9 -17 -24 -22 -47s-8 -47 -9 -72s-7 -55 -16 -90 s-23 -66 -40 -94c-21 -34 -44 -59 -70 -75c-27 -17 -52 -25 -76 -25c-7 0 -15 1 -22 2l3 19c35 1 65 15 89 42c34 40 59 108 75 204c7 44 14 75 19 94c5 18 12 33 21 46c13 17 28 27 43 31c-13 3 -25 13 -34 31c-3 7 -6 14 -7 22s-2 18 -1 31c0 13 1 25 2 37c1 11 2 28 5 49 c11 97 5 166 -18 205c-17 27 -42 41 -77 42l3 18c5 2 12 3 22 3z"></glyph><glyph glyph-name="asciitilde" unicode="~" d="M478 302c-28 0 -64 10 -109 29s-79 29 -100 29c-42 0 -84 -19 -125 -58l3 23c15 21 34 39 59 55c24 15 52 23 84 23c29 0 66 -10 111 -29s79 -29 100 -29c41 0 82 19 123 58l-3 -23c-14 -21 -33 -39 -58 -54c-25 -16 -53 -24 -85 -24z"></glyph><glyph glyph-name="exclamdown" unicode="¡" d="M204 539c12 0 22 -4 30 -13c7 -9 10 -19 8 -31c-1 -8 -4 -15 -9 -22s-11 -12 -18 -16c-8 -4 -16 -6 -24 -6c-7 0 -14 2 -20 6c-7 4 -11 9 -14 16s-4 14 -3 22c2 12 8 22 18 31c9 9 20 13 32 13zM200 368l-65 -547h-63l89 547h39z"></glyph><glyph glyph-name="cent" unicode="¢" d="M528 417c-38 58 -88 88 -151 89l-67 -477c65 1 124 31 179 89l25 -18c-12 -15 -26 -29 -41 -42s-32 -25 -49 -34c-17 -10 -36 -18 -56 -23c-21 -6 -42 -10 -63 -11l-16 -113h-38l16 114c-68 7 -121 36 -158 88c-38 51 -52 114 -42 189c11 74 42 137 95 189 c53 51 114 80 183 87l16 116h38l-16 -115c40 -2 75 -13 105 -32s53 -45 70 -78zM130 268c-5 -37 -4 -73 4 -106s24 -62 48 -86s54 -39 91 -45l66 473c-55 -9 -102 -35 -140 -80s-61 -97 -69 -156z"></glyph><glyph glyph-name="sterling" unicode="£" d="M403 724c23 0 46 -3 69 -9c22 -6 43 -16 64 -31s36 -34 47 -56l-32 -16c-12 23 -31 41 -56 54c-25 12 -53 18 -83 18c-25 0 -48 -4 -67 -13s-36 -24 -49 -43s-22 -43 -26 -71c-9 -66 -16 -127 -20 -183h211l-6 -38h-208c-5 -41 -13 -78 -23 -112c-10 -35 -21 -63 -32 -85 c-12 -22 -24 -41 -37 -56c-13 -16 -24 -27 -34 -34c-11 -7 -19 -11 -26 -11h431l-5 -38h-495l6 38c49 9 86 38 111 87s41 119 48 211h-114l5 38h111c5 92 9 149 12 171c8 58 30 102 67 133c36 31 80 46 131 46z"></glyph><glyph glyph-name="fraction" unicode="⁄" d="M71 714h45l-501 -714h-45z"></glyph><glyph glyph-name="yen" unicode="¥" d="M761 714l-294 -375h143l-6 -38h-165l-14 -100h165l-5 -37h-165l-23 -164h-63l23 164h-158l5 37h159l14 100h-159l5 38h138l-185 375h75l176 -369l287 369h47z"></glyph><glyph glyph-name="fhook" unicode="ƒ" d="M104 358l7 37h96l15 55c34 128 79 211 187 211c31 -2 47 -7 59 -15l-15 -36c-16 7 -33 12 -57 12c-74 0 -110 -81 -135 -185l-10 -42h125l-7 -37h-126l-56 -219c-35 -134 -77 -219 -173 -219c-26 0 -55 8 -68 17l13 34c15 -9 38 -13 60 -13c61 0 95 71 121 173l59 227 h-95z"></glyph><glyph glyph-name="section" unicode="§" d="M323 485c23 -5 43 -11 59 -18s31 -17 44 -28s23 -26 28 -44c5 -19 6 -40 3 -64c-9 -61 -39 -105 -92 -130c42 -26 59 -67 51 -123c-7 -52 -30 -92 -67 -120c-38 -28 -84 -42 -138 -42c-49 0 -89 11 -121 34s-51 55 -56 96l29 15c21 -71 71 -107 149 -107 c42 0 75 10 98 30s37 47 42 80c2 17 1 31 -2 44c-4 12 -9 22 -14 29c-6 7 -16 14 -29 20c-14 6 -25 10 -34 13s-23 6 -42 11c-3 1 -5 1 -7 2c-2 0 -4 0 -7 1s-5 1 -7 2c-18 5 -34 10 -47 16s-27 15 -40 26s-23 25 -28 43c-6 18 -7 39 -4 62c9 64 44 106 104 127 c-50 26 -71 68 -63 126c4 30 14 55 31 76s38 36 63 47c25 10 54 15 86 15c86 0 140 -39 162 -117l-30 -16c-13 35 -30 59 -49 73s-45 21 -77 21c-37 0 -65 -8 -85 -23c-21 -16 -33 -38 -37 -65c-2 -15 -1 -29 4 -41c4 -13 9 -22 16 -29s17 -13 30 -19s23 -10 31 -12 c7 -2 18 -5 33 -8c6 -1 10 -2 13 -3zM394 318c2 15 1 29 -2 41s-8 22 -14 29s-15 14 -27 20s-23 11 -32 14c-10 3 -23 6 -40 10h-1c-74 0 -115 -29 -124 -88c-2 -15 -1 -29 4 -41c4 -12 9 -21 16 -28s17 -14 30 -19c13 -6 23 -10 31 -12c8 -3 19 -6 34 -9h5c1 -1 2 -1 4 -1 c1 -1 3 -1 4 -1c14 -3 27 -7 38 -11c43 17 67 49 74 96z"></glyph><glyph glyph-name="currency" unicode="¤" d="M125 130l-39 44l95 70c-21 33 -28 69 -22 109c5 41 23 78 53 110l-74 70l49 43l59 -84c35 25 73 38 114 38s75 -13 104 -38l82 84l37 -44l-94 -70c21 -31 29 -68 23 -109s-24 -78 -54 -110l75 -69l-51 -44l-57 84c-36 -25 -74 -37 -115 -37s-76 13 -104 38zM316 217 c38 0 72 13 103 40c30 27 48 59 53 96c5 38 -3 70 -26 97s-54 40 -92 40c-25 0 -48 -6 -71 -18s-41 -29 -56 -50s-25 -44 -29 -69c-5 -37 4 -69 27 -96s53 -40 91 -40z"></glyph><glyph glyph-name="quotesingle" unicode="'" d="M236 525l21 240h63l-46 -240h-38z"></glyph><glyph glyph-name="quotedblleft" unicode="“" d="M359 749c-45 -40 -69 -78 -74 -113c-1 -7 -1 -14 0 -20c6 -1 10 -1 13 -2c9 -2 16 -7 21 -15s6 -17 5 -27c-1 -7 -4 -14 -9 -21s-12 -13 -19 -17s-15 -6 -23 -6c-11 0 -20 4 -27 12s-12 18 -14 30c-3 11 -3 24 -1 38c4 28 16 57 37 87c21 29 46 54 77 75 c3 -3 7 -10 14 -21zM512 749c-45 -40 -69 -78 -74 -113c-1 -7 -1 -14 1 -20c5 -1 9 -1 12 -2c9 -2 16 -7 21 -15s6 -17 5 -27c-1 -6 -2 -12 -5 -17s-7 -10 -12 -14s-10 -7 -16 -9c-6 -3 -12 -4 -18 -4c-11 0 -19 4 -26 12s-12 18 -14 30c-3 11 -3 24 -2 38c2 13 6 27 13 42 c6 15 14 29 24 44c9 14 21 28 34 41s28 25 43 35c3 -3 7 -10 14 -21z"></glyph><glyph glyph-name="guillemotleft" unicode="«" d="M260 63l-180 200l236 199l22 -24l-171 -175l122 -176zM456 63l-181 200l237 199l22 -24l-171 -175l121 -176z"></glyph><glyph glyph-name="guilsinglleft" unicode="‹" d="M260 63l-180 200l236 199l22 -24l-171 -175l122 -176z"></glyph><glyph glyph-name="guilsinglright" unicode="›" d="M158 462l180 -200l-236 -199l-22 24l171 175l-122 176z"></glyph><glyph glyph-name="fi" unicode="ﬁ" d="M531 535l-75 -535h-61l70 497h-234l-70 -497c-6 -42 -18 -91 -35 -147c-3 -13 -7 -26 -10 -37s-6 -20 -8 -27s-4 -12 -5 -17c-2 -5 -3 -9 -4 -10l-2 -3h-31l104 738h-76l5 38h76l13 90c3 27 12 51 25 73c13 21 30 39 53 52s49 20 78 20c57 0 94 -22 113 -67l-27 -21 c-17 33 -43 49 -78 49c-59 0 -94 -39 -105 -117l-11 -79h295z"></glyph><glyph glyph-name="fl" unicode="ﬂ" d="M94 497l5 38h76l8 54c7 49 17 84 32 105c17 27 40 46 69 58s67 18 112 18c31 0 58 -3 83 -8s59 -14 102 -27l-85 -608c-3 -21 -3 -38 -1 -51c2 -14 7 -25 14 -32c7 -8 14 -13 22 -16s17 -5 26 -5c17 0 29 3 37 8l11 -17c-6 -5 -16 -11 -30 -16s-28 -8 -43 -8 c-13 0 -26 2 -38 7s-23 12 -34 22s-18 25 -23 44s-5 41 -2 66l82 585c-30 13 -68 19 -115 19s-83 -8 -108 -24c-25 -17 -40 -49 -47 -96l-11 -78h140l-5 -38h-140l-70 -497c-6 -42 -17 -91 -34 -147l-29 -94h-32l104 738h-76z"></glyph><glyph glyph-name="endash" unicode="–" d="M146 250l5 37h429l-6 -37h-428z"></glyph><glyph glyph-name="dagger" unicode="†" d="M542 601l-9 -69l-169 15l-61 -547h-68l93 547l-172 -15l9 69l167 -15l10 174h68l-39 -174z"></glyph><glyph glyph-name="daggerdbl" unicode="‡" d="M294 760h69l-39 -174l171 15l-10 -69l-167 15l-9 -167l-38 -167l172 14l-10 -68l-167 14l-10 -173h-68l39 173l-171 -14l10 68l167 -14l8 167l39 167l-172 -15l10 69l167 -15z"></glyph><glyph glyph-name="periodcentered" unicode="·" d="M256 353c-1 -9 -5 -18 -10 -26c-6 -8 -13 -14 -21 -19c-9 -5 -18 -7 -27 -7c-15 0 -26 5 -35 16c-9 10 -12 22 -10 36s9 26 21 36c11 10 24 15 38 15c15 0 26 -5 35 -15c8 -10 11 -22 9 -36z"></glyph><glyph glyph-name="paragraph" unicode="¶" d="M242 -127l68 482c-56 0 -101 20 -135 60c-34 39 -47 87 -39 142c5 37 19 72 42 103c22 31 50 55 84 73c33 18 68 27 105 27h204l-125 -887h-45l120 850h-114l-120 -850h-45z"></glyph><glyph glyph-name="bullet" unicode="•" d="M389 365c-4 -26 -17 -48 -38 -67s-45 -29 -72 -29c-26 0 -47 9 -63 28s-22 41 -19 68c2 13 6 26 13 38c7 11 15 21 25 30c9 9 20 16 33 21s25 7 38 7c27 0 48 -9 64 -28s22 -41 19 -68z"></glyph><glyph glyph-name="quotesinglbase" unicode="‚" d="M-18 -137c23 20 40 40 53 59c12 19 19 37 22 54c1 7 0 14 -1 21c-6 0 -10 0 -13 1c-9 2 -16 7 -21 15s-6 17 -5 27c2 12 8 22 18 31s21 13 33 13c16 0 28 -8 36 -24c7 -16 9 -35 6 -56c-4 -28 -16 -57 -36 -86c-21 -30 -47 -55 -78 -76c-3 3 -7 10 -14 21z"></glyph><glyph glyph-name="quotedblbase" unicode="„" d="M-18 -137c23 20 40 40 53 59c12 19 19 37 22 54c1 7 0 14 -1 21c-6 0 -10 0 -13 1c-9 2 -16 7 -21 15s-6 17 -5 27c2 12 8 22 18 31s21 13 33 13c16 0 28 -8 36 -24c7 -16 9 -35 6 -56c-4 -28 -16 -57 -36 -86c-21 -30 -47 -55 -78 -76c-3 3 -7 10 -14 21zM136 -137 c44 40 69 78 74 113c1 7 1 14 -1 21c-6 0 -10 0 -13 1c-9 2 -15 7 -20 15s-6 17 -5 27c1 12 7 22 17 31s21 13 33 13c17 0 29 -8 36 -24s9 -35 6 -56c-4 -28 -16 -57 -36 -86c-21 -30 -47 -55 -78 -76c-3 3 -7 10 -13 21z"></glyph><glyph glyph-name="quotedblright" unicode="”" d="M218 549c45 40 69 78 74 113c1 7 1 14 0 21c-6 1 -10 1 -13 1c-9 2 -16 7 -21 15s-6 17 -5 27c1 12 7 22 17 31s21 13 34 13c16 0 28 -8 35 -23c7 -16 10 -35 7 -57c-4 -28 -16 -57 -37 -86c-21 -30 -46 -55 -77 -76c-3 4 -7 11 -14 21zM371 549c45 40 70 78 75 113 c1 7 0 14 -1 21c-6 1 -10 1 -13 1c-9 2 -16 7 -21 15s-6 17 -5 27c1 8 5 15 10 22s11 12 18 16s15 6 23 6c16 0 28 -8 35 -23c7 -16 10 -35 7 -57c-4 -28 -16 -57 -37 -86c-21 -30 -46 -55 -77 -76c-3 3 -7 10 -14 21z"></glyph><glyph glyph-name="guillemotright" unicode="»" d="M158 462l180 -200l-236 -199l-22 24l171 175l-122 176zM353 462l181 -200l-237 -199l-22 24l171 175l-122 176z"></glyph><glyph glyph-name="ellipsis" unicode="…" d="M69 -4c-13 0 -23 4 -30 13s-10 19 -8 31c1 12 7 22 17 31c9 9 20 13 33 13c12 0 22 -4 29 -13s9 -19 8 -31c-2 -12 -8 -22 -17 -31c-10 -9 -21 -13 -32 -13zM311 -4c-13 0 -23 4 -30 13s-10 19 -8 31c1 12 7 22 17 31c9 9 20 13 33 13c12 0 22 -4 29 -13s9 -19 8 -31 c-2 -12 -8 -22 -17 -31c-10 -9 -21 -13 -32 -13zM552 -4c-12 0 -22 4 -29 13s-10 19 -8 31c1 12 7 22 17 31c9 9 20 13 33 13c12 0 22 -4 29 -13s9 -19 8 -31c-2 -12 -8 -22 -17 -31c-10 -9 -21 -13 -33 -13z"></glyph><glyph glyph-name="perthousand" unicode="‰" d="M328 720c50 0 86 -21 109 -62c22 -42 28 -95 19 -158c-9 -64 -30 -117 -64 -158s-76 -62 -126 -62c-51 0 -87 21 -109 62s-29 94 -20 158c9 63 31 116 65 158c33 41 75 62 126 62zM752 714h45l-501 -714h-45zM271 315c35 0 63 17 84 51s36 79 44 134c7 55 5 100 -6 134 c-12 34 -35 51 -70 51s-64 -17 -85 -51s-36 -79 -43 -134c-8 -55 -6 -100 6 -134c11 -34 35 -51 70 -51zM783 434c50 0 86 -21 108 -62c22 -42 29 -95 20 -158c-9 -64 -31 -117 -64 -158c-34 -41 -76 -62 -126 -62c-51 0 -87 21 -109 62c-23 41 -29 94 -20 158 c9 63 30 116 64 158c34 41 76 62 127 62zM1187 434c50 0 86 -21 108 -62c22 -42 29 -95 20 -158c-9 -64 -31 -117 -64 -158c-34 -41 -76 -62 -126 -62c-51 0 -87 21 -109 62c-23 41 -29 94 -20 158c9 63 30 116 64 158c34 41 76 62 127 62zM725 29c35 0 64 17 85 51 s35 79 43 134s6 100 -5 134c-12 34 -36 51 -71 51s-63 -17 -84 -51s-36 -79 -44 -134s-6 -100 6 -134s35 -51 70 -51zM1129 29c35 0 64 17 85 51s35 79 43 134s6 100 -5 134c-12 34 -36 51 -71 51s-63 -17 -84 -51s-36 -79 -44 -134s-6 -100 6 -134s35 -51 70 -51z"></glyph><glyph glyph-name="questiondown" unicode="¿" d="M306 539c13 0 23 -4 30 -13s10 -19 9 -31c-2 -12 -8 -22 -17 -31c-10 -9 -21 -13 -34 -13c-12 0 -21 4 -28 13s-10 19 -8 31c1 12 7 22 17 31c9 9 20 13 31 13zM302 368c-2 -49 -13 -90 -34 -123s-52 -66 -91 -98c-4 -3 -14 -11 -30 -24c-17 -13 -27 -22 -31 -25l-22 -22 s-18 -21 -21 -28c-4 -8 -8 -18 -13 -30c-5 -13 -9 -26 -11 -40c-12 -87 27 -131 116 -131c81 0 141 39 179 116l30 -13c-43 -93 -117 -139 -222 -139c-31 0 -57 4 -79 11c-23 7 -40 17 -51 30c-11 12 -20 26 -27 41s-11 31 -10 48c0 16 1 32 2 47c3 20 8 39 15 56 s15 31 23 43c7 11 19 24 35 38c15 13 28 24 38 31c9 7 25 18 46 33c69 47 109 107 120 179h38z"></glyph><glyph glyph-name="grave" unicode="`" d="M347 605l-121 156h81l88 -156h-48z"></glyph><glyph glyph-name="acute" unicode="´" d="M182 605l132 156h81l-165 -156h-48z"></glyph><glyph glyph-name="circumflexmod" unicode="ˆ" d="M182 605l131 154h84l87 -154h-49l-86 113l-119 -113h-48z"></glyph><glyph glyph-name="tildemod" unicode="˜" d="M192 642l4 31c5 9 12 18 20 26s19 15 32 22s26 10 41 10c19 0 42 -8 71 -24c28 -16 49 -24 62 -24c27 0 55 16 82 48l-4 -31c-9 -15 -21 -28 -37 -40c-17 -12 -35 -18 -56 -18c-19 0 -42 8 -70 25c-29 16 -50 24 -64 24c-15 0 -29 -5 -44 -15s-27 -21 -37 -34z"></glyph><glyph glyph-name="macron" unicode="¯" d="M190 637l5 36h286l-5 -36h-286z"></glyph><glyph glyph-name="brevemod" unicode="˘" d="M481 755h38c-3 -17 -8 -33 -16 -50s-19 -33 -32 -48c-14 -15 -31 -28 -52 -37s-45 -14 -71 -14c-25 0 -47 5 -65 14c-19 9 -32 22 -41 37s-16 31 -19 48s-4 33 -2 50h37c-3 -25 3 -47 20 -68c16 -21 42 -31 77 -31c36 0 65 10 87 31s35 43 39 68z"></glyph><glyph glyph-name="dotaccentmod" unicode="˙" d="M215 633c-11 0 -19 4 -25 11c-7 7 -9 16 -8 27c1 10 6 19 15 27c9 7 18 11 29 11c10 0 18 -4 25 -11c6 -8 8 -17 7 -27c-1 -11 -6 -20 -14 -27c-9 -7 -18 -11 -29 -11z"></glyph><glyph glyph-name="dieresis" unicode="¨" d="M245 653c-11 0 -19 4 -25 12c-7 7 -9 16 -8 27c1 10 6 19 15 26s18 11 29 11c10 0 18 -4 25 -11c6 -7 8 -16 7 -26c-2 -11 -7 -20 -15 -27c-9 -8 -18 -12 -28 -12zM395 653c-11 0 -19 4 -25 12c-7 7 -9 16 -8 26c1 7 3 13 8 19c4 6 9 11 16 14c6 3 13 5 20 5 c10 0 18 -4 25 -11c6 -7 8 -16 7 -26c-2 -11 -7 -20 -15 -27c-8 -8 -17 -12 -28 -12z"></glyph><glyph glyph-name="ringmod" unicode="˚" d="M312 795c27 0 48 -10 65 -30s23 -44 19 -72s-17 -52 -39 -72s-47 -30 -74 -30s-48 10 -64 30c-17 20 -23 44 -19 72c3 18 10 35 21 51c11 15 24 28 40 37s33 14 51 14zM287 621c11 0 22 3 32 9s19 15 26 26s11 23 13 37c3 21 -1 39 -10 52c-10 13 -24 19 -41 19 c-16 0 -31 -6 -44 -19c-14 -13 -22 -31 -25 -52c-1 -11 -1 -20 1 -29c1 -9 4 -17 9 -23c5 -7 10 -12 17 -15s14 -5 22 -5z"></glyph><glyph glyph-name="cedilla" unicode="¸" d="M30 -238c-16 0 -31 2 -46 7s-27 10 -34 15l13 20c15 -11 36 -16 62 -16c21 0 40 5 56 15c15 10 24 23 26 38c2 16 -4 30 -18 43c-15 12 -38 21 -71 28l58 96h33l-38 -63c23 -4 43 -14 58 -30c15 -17 21 -39 18 -67c-3 -17 -8 -31 -17 -43s-19 -21 -31 -27 s-24 -10 -35 -12c-11 -3 -23 -4 -34 -4z"></glyph><glyph glyph-name="doubleacutemod" unicode="˝" d="M182 605l131 156h82l-165 -156h-48zM315 605l131 156h82l-165 -156h-48z"></glyph><glyph glyph-name="ogonekmod" unicode="˛" d="M58 -206c-26 0 -47 9 -64 28s-24 41 -20 67c3 23 14 46 32 68s37 40 58 53h38l-1 -5c-17 -9 -37 -25 -58 -47s-32 -45 -31 -68c-1 -15 4 -27 14 -36c9 -9 20 -13 33 -13c17 0 33 6 49 18l25 -45c-8 -5 -19 -9 -34 -13c-15 -5 -28 -7 -41 -7z"></glyph><glyph glyph-name="caronmod" unicode="ˇ" d="M312 605l-88 154h49l87 -112l118 112h49l-131 -154h-84z"></glyph><glyph glyph-name="emdash" unicode="—" d="M146 250l5 37h749l-5 -37h-749z"></glyph><glyph glyph-name="AE" unicode="Æ" d="M891 676h-395l-41 -292h340l-6 -38h-339l-43 -308h396l-5 -38h-459l36 254h-232l-175 -254h-44l492 714h480zM380 292l54 385l-265 -385h211z"></glyph><glyph glyph-name="ordfeminine" unicode="ª" d="M212 394c-32 0 -57 9 -76 27c-19 17 -26 41 -22 71c4 29 18 53 41 72c23 18 51 27 84 27c16 0 32 -2 48 -7s28 -11 35 -16l12 -7l8 61c7 48 -13 72 -58 72c-19 0 -38 -4 -55 -13s-30 -19 -37 -28l-11 -13l-24 12c33 50 81 75 144 75c38 0 65 -10 81 -29s22 -45 17 -78 l-30 -220h-58l4 26c-36 -21 -70 -32 -103 -32zM238 427c12 0 25 2 38 6s24 8 31 13l11 6l12 85s-3 2 -9 5s-15 7 -27 11c-12 3 -24 5 -36 5c-13 0 -26 -2 -37 -6c-12 -5 -23 -12 -32 -22c-9 -11 -15 -23 -17 -38c-3 -21 2 -37 16 -48c13 -11 30 -17 50 -17z"></glyph><glyph glyph-name="Lslash" unicode="Ł" d="M360 0h-323l55 291l-102 -68l9 44l101 67l65 340h45l-58 -306l144 98l-9 -46l-144 -96l-54 -285h279z"></glyph><glyph glyph-name="Oslash" unicode="Ø" d="M703 644c36 -35 62 -77 78 -126c16 -50 20 -104 12 -161c-9 -67 -33 -128 -72 -184c-39 -57 -87 -101 -144 -134c-58 -33 -118 -49 -181 -49c-65 0 -123 18 -174 55l-36 -45h-52l57 71c-35 34 -61 76 -77 126s-20 103 -12 160c9 67 33 128 72 185c39 56 87 100 145 133 c57 33 117 49 180 49c65 0 123 -18 173 -54l35 44h53zM166 357c-7 -49 -5 -94 6 -136c10 -43 27 -79 52 -109l418 520c-41 35 -91 53 -148 53c-80 0 -151 -32 -214 -95s-101 -141 -114 -233zM729 357c7 49 5 94 -5 137c-11 42 -29 78 -54 109l-418 -520 c42 -36 92 -54 150 -54c79 0 151 32 214 95s100 141 113 233z"></glyph><glyph glyph-name="OE" unicode="Œ" d="M1192 676h-395l-41 -292h339l-5 -38h-340l-43 -308h397l-6 -38h-459l12 83c-34 -29 -73 -52 -117 -68c-44 -17 -89 -25 -136 -25c-51 0 -96 10 -137 31s-74 48 -98 83c-25 35 -42 74 -52 119s-12 91 -5 140c7 53 24 102 51 148c26 46 57 84 94 115s77 55 122 72 c44 17 88 26 132 26c47 0 90 -9 129 -28s70 -44 93 -76l13 94h457zM659 137l59 425c-52 82 -124 123 -216 123c-85 0 -159 -30 -220 -91s-99 -138 -112 -233c-9 -61 -5 -117 10 -166c15 -50 43 -90 84 -120c40 -30 89 -45 147 -45c90 0 173 36 248 107z"></glyph><glyph glyph-name="ordmasculine" unicode="º" d="M270 395c-45 0 -82 16 -109 49c-27 32 -38 71 -31 118s28 86 64 118s77 48 123 48c45 0 82 -16 109 -48s37 -71 30 -118c-5 -31 -16 -59 -34 -84c-18 -26 -40 -46 -67 -61s-56 -22 -85 -22zM275 428c29 0 56 13 80 40c23 26 38 57 43 94s-1 68 -17 94 c-17 26 -40 39 -69 39s-56 -13 -80 -39s-39 -57 -44 -94s1 -68 18 -94c16 -27 39 -40 69 -40z"></glyph><glyph glyph-name="ae" unicode="æ" d="M714 264c-35 -11 -78 -19 -130 -22s-89 -4 -110 -2c-1 -18 0 -35 3 -52c2 -17 6 -33 12 -49s14 -31 24 -44s22 -25 35 -35s30 -18 49 -23s39 -8 62 -8c34 0 65 7 92 20s54 34 81 63l25 -18c-31 -39 -64 -66 -99 -81s-78 -23 -127 -23c-41 0 -77 9 -108 28 c-32 18 -58 43 -77 74c-35 -32 -73 -57 -114 -75s-82 -27 -121 -27c-23 0 -44 3 -65 10c-21 6 -40 15 -57 28c-17 12 -30 29 -38 51c-9 21 -11 46 -7 73c7 53 32 94 73 123s88 43 140 43c34 0 67 -6 98 -17s51 -21 60 -29v1l13 98c6 43 0 76 -17 100s-46 36 -86 36 s-76 -10 -108 -29c-32 -20 -59 -45 -81 -74l-25 19c59 81 138 122 237 122c43 0 76 -9 99 -28c22 -19 35 -48 39 -88c19 23 40 44 63 61s50 30 79 40s59 15 90 15c51 0 93 -13 124 -40s43 -59 37 -96c-4 -25 -12 -46 -25 -63c-13 -18 -31 -33 -53 -46 c-23 -13 -52 -25 -87 -36zM709 505c-53 0 -103 -23 -148 -68s-73 -100 -83 -164c20 -1 43 -1 68 1c29 1 57 5 84 10s54 13 83 22c28 9 51 23 70 40s30 38 33 61c3 19 0 36 -9 51c-10 15 -24 27 -41 35s-36 12 -57 12zM229 28c32 0 68 8 107 25s72 37 99 60 c-19 40 -27 83 -24 129c-12 8 -31 16 -57 25c-27 8 -54 12 -81 12c-18 0 -35 -2 -52 -6s-34 -10 -51 -19s-31 -23 -42 -40c-12 -17 -20 -37 -23 -60c-3 -24 -1 -45 6 -62s18 -30 32 -39s28 -15 43 -19c14 -4 28 -6 43 -6z"></glyph><glyph glyph-name="idotless" unicode="ı" d="M121 0h-45l92 480h45z"></glyph><glyph glyph-name="lslash" unicode="ł" d="M112 0h-45l60 318l-77 -55l8 42l77 56l67 349h45l-59 -312l78 57l-8 -43l-78 -57z"></glyph><glyph glyph-name="oslash" unicode="ø" d="M534 483c17 -17 31 -36 42 -58s18 -46 22 -73s4 -55 -1 -84c-11 -79 -45 -145 -102 -198s-123 -80 -198 -80c-49 0 -92 12 -129 36l-21 -26h-52l41 52c-25 25 -44 57 -55 94s-14 78 -8 122c11 79 46 145 104 198c57 53 123 79 198 79c49 0 91 -12 128 -36l21 26h52z M136 268c-9 -67 3 -124 37 -171l298 372c-29 25 -63 37 -102 37c-55 0 -105 -23 -150 -70c-46 -47 -74 -103 -83 -168zM535 268c9 67 -3 124 -36 171l-299 -372c29 -25 63 -38 102 -38c55 0 106 24 151 71s73 103 82 168z"></glyph><glyph glyph-name="oe" unicode="œ" d="M828 264c-35 -11 -78 -19 -130 -22s-89 -4 -110 -2c-1 -21 1 -42 5 -62c3 -20 10 -39 19 -57c9 -19 20 -35 35 -48c14 -13 32 -24 54 -32c21 -8 45 -12 72 -12c33 0 64 7 91 20s55 34 82 63l25 -18c-31 -39 -64 -66 -99 -81s-78 -23 -127 -23c-33 0 -63 6 -90 19 c-28 12 -51 29 -70 50s-34 46 -45 73c-28 -43 -64 -78 -108 -103c-45 -26 -92 -39 -142 -39c-75 0 -133 27 -176 80s-59 119 -48 198s46 145 104 198c57 53 123 79 198 79c51 0 95 -13 132 -39s64 -61 79 -105c29 43 65 78 109 105c43 26 91 39 144 39c51 0 93 -13 124 -40 s43 -59 37 -96c-5 -36 -21 -65 -46 -86c-26 -22 -66 -42 -119 -59zM295 29c53 0 103 22 148 67s73 99 84 162c0 5 1 9 2 14c8 65 -4 120 -36 166c-33 45 -76 68 -131 68s-105 -23 -150 -70c-46 -47 -74 -103 -83 -168s2 -121 35 -168s76 -71 131 -71zM823 505 c-53 0 -103 -23 -148 -68s-73 -100 -83 -164c20 -1 43 -1 68 1c29 1 57 5 84 10s54 13 83 22c28 9 51 23 70 40s30 38 33 61c3 19 0 36 -9 51c-10 15 -24 27 -41 35s-36 12 -57 12z"></glyph><glyph glyph-name="germandbls" unicode="ß" d="M245 -10l6 39c158 25 244 91 259 197c8 56 -5 101 -39 136c-35 34 -82 55 -141 63l4 33c43 -1 80 12 113 39s52 60 57 100c5 37 -3 69 -25 96c-23 26 -60 39 -111 39c-47 0 -81 -12 -104 -35s-37 -59 -44 -107l-83 -590h-61l83 594c4 25 11 48 21 69c9 21 23 39 40 56 c17 16 38 29 64 38s56 13 89 13c36 0 68 -5 95 -15c27 -11 47 -24 62 -41s25 -36 32 -56c6 -20 8 -40 5 -61c-5 -35 -21 -66 -48 -94s-57 -48 -90 -60c19 -4 37 -11 55 -22s35 -26 50 -43s27 -39 34 -65c7 -27 8 -56 4 -87c-7 -50 -28 -93 -62 -130 c-35 -37 -75 -63 -120 -80s-94 -25 -145 -26z"></glyph><glyph glyph-name="onesuperior" unicode="¹" d="M371 764h57l-56 -394h88l-5 -34h-235l5 34h91l49 349l-101 -83l-19 24z"></glyph><glyph glyph-name="logicalnot" unicode="¬" d="M180 376h465l-34 -246h-45l29 208h-421z"></glyph><glyph glyph-name="mu" unicode="µ" d="M485 535h61l-75 -535h-61l23 166c-27 -55 -60 -99 -101 -130s-86 -47 -135 -47c-37 0 -68 10 -92 30l-37 -260h-60l55 390v1l54 381v2v1v1h61l-54 -384c-6 -41 0 -72 17 -92c17 -21 41 -31 73 -31c41 0 81 17 122 50c40 33 75 80 105 141z"></glyph><glyph glyph-name="trademark" unicode="™" d="M312 362l45 325h-117l4 27h279l-4 -27h-116l-46 -325h-45zM525 362l50 352h53l94 -173l141 173h44l-49 -352h-45l43 302l-153 -189l-107 198l-44 -311h-27z"></glyph><glyph glyph-name="Eth" unicode="Ð" d="M461 714c63 0 119 -16 166 -49s82 -76 104 -131c21 -55 27 -114 18 -177c-9 -64 -32 -123 -69 -178c-38 -55 -85 -98 -141 -130c-56 -33 -114 -49 -174 -49h-249l47 335h-75l5 39h76l48 340h244zM686 358c13 91 -1 167 -41 228c-41 60 -101 90 -181 90h-190l-43 -302h199 l-5 -39h-199l-42 -297h189c55 0 106 15 151 44s82 68 109 116c27 47 44 101 53 160z"></glyph><glyph glyph-name="onehalf" unicode="½" d="M347 714h57l-56 -394h88l-5 -34h-235l5 34h91l49 349l-101 -83l-19 24zM788 714h45l-501 -714h-45zM586 0l5 34l175 173l3 3c44 43 68 81 73 114c3 23 -2 41 -15 55c-13 13 -34 20 -61 20c-40 0 -72 -14 -96 -41l-19 17c7 9 15 17 24 24s19 14 31 19c11 5 24 9 38 12 s28 4 43 4c41 0 71 -10 90 -30s26 -46 22 -78c-3 -22 -11 -42 -23 -59c-12 -18 -29 -37 -50 -58l-176 -168h224l-6 -41h-282z"></glyph><glyph glyph-name="plusminus" unicode="±" d="M576 390l-7 -49h-207l-30 -217h-53l31 217h-208l7 49h208l30 216h52l-30 -216h207zM61 49h467l-7 -49h-467z"></glyph><glyph glyph-name="Thorn" unicode="Þ" d="M156 -1454v0h2c0 -1 1 -1 3 -1c1 0 2 0 4 1h1h1v0v0v1v0c-1 0 -1 1 -1 1c-1 0 -1 1 -2 1h-1v0v0v-1c-1 0 -1 0 -2 -1h-1h-1v0v0v0v0v0v0c2 0 3 1 4 2c0 0 1 1 1 2h1v1c0 1 1 1 1 1v0v1v0h-2c0 0 -1 0 -2 -1c-1 0 -1 0 -1 -1v0v0v0v0c0 -2 -1 -3 -1 -3c0 -1 -1 -1 -1 -1 c0 -1 0 -1 -1 -1v0v0v0v1c1 0 2 1 2 1v3v3s0 1 -1 1v0v1v1v0v0s-1 0 -1 -1v0l-1 -1v-3v-1v-1v-1v0v0c1 0 1 -1 1 -1s0 -1 -1 -1v0v0v0v0v0v0v0v0v0c1 0 1 1 1 1v1h-2h-1v-1s0 -1 1 -1v0v0v0v0v0h-1v0v0v0l-1 1l1 1v0h1v1v1v1s0 2 -1 3c0 1 -1 1 -1 1v0v0v1v0h-1v-1v-1v0v-1 s-1 -2 -1 -3s0 -2 1 -3l1 -1c0 -1 1 -1 1 -1v0v0h-1v1c0 0 -1 0 -1 1c-1 0 -1 1 -1 3v0v0v0c0 1 -1 1 -1 1c-1 1 -2 1 -3 1h-1v0v-1v0l1 -1v-1v0c1 -1 1 -2 2 -2c1 -1 2 -2 4 -2v0v0v0v0h-1v0h-1c-1 1 -2 1 -2 1v1v0v0h-1c-1 0 -1 -1 -2 -1l-1 -1v0v-1v0v0h1h1 c1 -1 3 -1 4 -1s2 0 3 1h1v0zM156 -1454v0h2c0 -1 1 -1 3 -1c1 0 2 0 4 1h1h1v0v0v1v0c-1 0 -1 1 -1 1c-1 0 -1 1 -2 1h-1v0v0v-1c-1 0 -1 0 -2 -1h-1h-1v0v0v0v0v0v0c2 0 3 1 4 2c0 0 1 1 1 2h1v1c0 1 1 1 1 1v0v1v0h-2c0 0 -1 0 -2 -1c-1 0 -1 0 -1 -1v0v0v0v0 c0 -2 -1 -3 -1 -3c0 -1 -1 -1 -1 -1c0 -1 0 -1 -1 -1v0v0v0v1c1 0 2 1 2 1v3v3s0 1 -1 1v0v1v1v0v0s-1 0 -1 -1v0l-1 -1v-3v-1v-1v-1v0v0c1 0 1 -1 1 -1s0 -1 -1 -1v0v0v0v0v0v0v0v0v0c1 0 1 1 1 1v1h-2h-1v-1s0 -1 1 -1v0v0v0v0v0h-1v0v0v0l-1 1l1 1v0h1v1v1v1s0 2 -1 3 c0 1 -1 1 -1 1v0v0v1v0h-1v-1v-1v0v-1s-1 -2 -1 -3s0 -2 1 -3l1 -1c0 -1 1 -1 1 -1v0v0h-1v1c0 0 -1 0 -1 1c-1 0 -1 1 -1 3v0v0v0c0 1 -1 1 -1 1c-1 1 -2 1 -3 1h-1v0v-1v0l1 -1v-1v0c1 -1 1 -2 2 -2c1 -1 2 -2 4 -2v0v0v0v0h-1v0h-1c-1 1 -2 1 -2 1v1v0v0h-1 c-1 0 -1 -1 -2 -1l-1 -1v0v-1v0v0h1h1c1 -1 3 -1 4 -1s2 0 3 1h1v0zM715 68c1 -1 3 -2 5 -4c5 -4 14 -9 25 -16c12 -7 26 -13 44 -20c18 -8 39 -14 64 -19c24 -5 52 -7 83 -7c25 0 50 2 74 7c25 4 49 9 71 15c23 7 44 13 63 19c36 11 62 18 78 18c14 0 25 -2 34 -6 c8 -3 15 -3 20 1c4 3 6 7 6 13c-1 4 -5 11 -10 18l-15 21c-13 17 -30 32 -51 47c-29 18 -55 29 -79 33c-23 4 -41 4 -53 2h-1c-2 0 -5 -1 -10 -3s-11 -7 -18 -14c-21 -19 -46 -38 -75 -57c-30 -18 -59 -30 -86 -36h-11c-4 -1 -9 -1 -13 0s-6 2 -6 4s0 3 1 3c1 1 2 2 4 2 c1 1 2 1 3 1v0c42 11 77 25 106 44c28 18 53 39 76 60c38 37 68 77 90 121c3 6 6 12 9 20c8 18 19 37 31 57s27 35 46 45c3 2 5 5 6 8c1 4 0 8 -3 12c-2 3 -7 6 -14 8c-5 1 -17 2 -36 2c-20 0 -44 -3 -73 -9c-29 -7 -61 -19 -97 -38c-20 -11 -34 -22 -42 -32 s-13 -17 -13 -21v0s-1 0 -1 -1c0 0 0 -1 -1 -2c0 -1 0 -2 -1 -3v-6c-3 -49 -10 -89 -22 -119c-13 -30 -27 -53 -42 -69s-28 -28 -39 -35c-7 -5 -14 -8 -20 -10c-7 -2 -11 -2 -14 0v3c1 1 2 3 3 4s3 2 4 3c44 30 74 64 90 103c15 38 23 78 24 121c2 35 -2 69 -11 101 c-9 31 -19 61 -31 88c-4 9 -7 19 -11 28c-2 5 -5 15 -8 30c-3 16 -2 32 2 49c3 11 3 19 1 23c-3 4 -7 6 -14 7c-6 0 -12 -4 -19 -11s-12 -13 -16 -19c-1 0 -2 -1 -2 -2c-3 -3 -8 -10 -16 -21s-18 -29 -31 -54c-16 -33 -27 -65 -34 -97c-7 -31 -12 -58 -13 -80 c-2 -22 -2 -35 -2 -40c0 -23 2 -39 5 -50c3 -12 8 -20 14 -25c7 -5 15 -10 25 -15c1 0 2 -1 3 -1c14 -6 25 -13 32 -23c8 -10 11 -21 11 -32s-4 -21 -12 -29c-7 -8 -19 -16 -34 -22h-1c-1 -1 -2 -1 -3 -2h-3c-7 -2 -13 -2 -17 -1c-5 1 -7 3 -8 5c0 1 1 2 2 3c2 1 3 2 5 2 c2 1 3 1 4 1c2 0 2 1 2 1c34 9 50 23 50 42c0 13 -8 25 -24 36s-35 16 -58 16h-2h-3c-23 0 -42 -5 -58 -16s-24 -23 -24 -36c0 -19 17 -33 50 -42c0 0 0 -1 2 -1c1 0 3 0 4 -1c2 0 3 -1 5 -2c1 -1 2 -2 2 -3c0 -2 -3 -4 -7 -5c-5 -1 -11 -1 -18 1h-2c-1 1 -2 1 -3 1 c0 0 -1 1 -2 1c-15 6 -26 14 -34 22s-12 18 -12 29s3 21 11 31c7 11 18 18 32 24c1 1 2 1 3 1c10 5 19 10 25 15c7 5 11 14 14 25s5 27 5 50c0 4 0 17 -2 40c-1 22 -5 49 -12 80c-7 32 -19 64 -35 97c-12 24 -22 42 -30 53s-13 18 -16 21v1l-3 3c-4 6 -10 12 -16 19 c-7 6 -13 10 -19 10c-6 -1 -11 -3 -13 -7c-3 -4 -3 -12 0 -23c4 -17 5 -33 2 -49c-3 -15 -6 -25 -8 -30c-4 -9 -7 -18 -11 -28c-11 -27 -22 -56 -31 -88s-13 -65 -11 -101c1 -43 9 -83 24 -121c16 -39 46 -73 90 -103c2 -1 3 -2 4 -3s2 -3 3 -4s1 -2 0 -3c-2 -2 -7 -2 -14 0 c-6 2 -13 5 -19 10c-12 7 -25 19 -40 35s-29 39 -42 69c-12 30 -19 70 -22 119v5s-1 2 -1 3v2c-1 1 -1 1 -1 2h-1v0c0 4 -5 11 -13 21s-22 21 -42 32c-35 19 -67 31 -97 38c-29 6 -53 9 -72 9c-20 0 -32 -1 -37 -2c-7 -2 -11 -5 -14 -8c-3 -4 -4 -8 -3 -12c1 -3 3 -6 7 -8 c18 -10 33 -25 45 -45c12 -19 23 -39 31 -57c3 -8 6 -14 9 -20c22 -44 52 -84 90 -121c23 -21 48 -42 76 -60c29 -19 64 -34 106 -44c1 0 2 0 3 -1c2 0 3 -1 4 -2c1 0 2 -1 2 -3c-1 -2 -3 -3 -7 -4s-9 -1 -13 0h-11c-27 6 -56 18 -86 36c-29 19 -54 38 -74 57 c-8 7 -14 12 -19 14s-8 3 -10 3h-1c-12 2 -30 2 -53 -2c-24 -4 -50 -15 -79 -33c-21 -15 -38 -31 -51 -47l-15 -21s-9 -14 -10 -18c0 -6 2 -10 7 -13c4 -4 11 -4 19 -1c9 4 20 6 34 6c16 0 42 -6 78 -18c19 -6 40 -12 63 -19c22 -6 46 -11 71 -15c24 -5 49 -7 74 -7 c31 0 59 2 84 7c24 5 45 12 63 19s33 14 44 20c12 7 20 12 25 16c3 2 4 3 6 4z"></glyph><glyph glyph-name="onequarter" unicode="¼" d="M347 714h57l-56 -394h88l-5 -34h-235l5 34h91l49 349l-101 -83l-19 24zM788 714h45l-501 -714h-45zM815 151h59l-4 -34h-60l-16 -117h-56l16 117h-205l4 34l245 280h56zM759 151l31 220l-192 -220h161z"></glyph><glyph glyph-name="divide" unicode="÷" d="M407 472c-7 0 -13 2 -18 5c-6 3 -10 8 -13 14s-3 12 -2 19c1 11 6 20 15 27s18 11 29 11c7 0 13 -2 18 -5s9 -8 12 -14c2 -6 3 -12 2 -19c-1 -10 -6 -19 -15 -26c-9 -8 -18 -12 -28 -12zM154 334l6 38h467l-6 -38h-467zM363 158c-11 0 -19 4 -26 11s-9 16 -7 27 c1 10 6 19 15 27c9 7 18 11 29 11c10 0 18 -4 25 -11c6 -8 8 -17 7 -27c-1 -11 -6 -20 -15 -27s-18 -11 -28 -11z"></glyph><glyph glyph-name="brokenbar" unicode="¦" d="M165 337h-46l59 423h46zM97 183h46l-60 -424h-45z"></glyph><glyph glyph-name="degree" unicode="°" d="M270 395c-45 0 -82 16 -109 49c-27 32 -38 71 -31 118s28 86 64 118s77 48 123 48c45 0 82 -16 109 -48s37 -71 30 -118c-5 -31 -16 -59 -34 -84c-18 -26 -40 -46 -67 -61s-56 -22 -85 -22zM275 428c29 0 56 13 80 40c23 26 38 57 43 94s-1 68 -17 94 c-17 26 -40 39 -69 39s-56 -13 -80 -39s-39 -57 -44 -94s1 -68 18 -94c16 -27 39 -40 69 -40z"></glyph><glyph glyph-name="thorn" unicode="þ" d="M156 -1454v0h2c0 -1 1 -1 3 -1c1 0 2 0 4 1h1h1v0v0v1v0c-1 0 -1 1 -1 1c-1 0 -1 1 -2 1h-1v0v0v-1c-1 0 -1 0 -2 -1h-1h-1v0v0v0v0v0v0c2 0 3 1 4 2c0 0 1 1 1 2h1v1c0 1 1 1 1 1v0v1v0h-2c0 0 -1 0 -2 -1c-1 0 -1 0 -1 -1v0v0v0v0c0 -2 -1 -3 -1 -3c0 -1 -1 -1 -1 -1 c0 -1 0 -1 -1 -1v0v0v0v1c1 0 2 1 2 1v3v3s0 1 -1 1v0v1v1v0v0s-1 0 -1 -1v0l-1 -1v-3v-1v-1v-1v0v0c1 0 1 -1 1 -1s0 -1 -1 -1v0v0v0v0v0v0v0v0v0c1 0 1 1 1 1v1h-2h-1v-1s0 -1 1 -1v0v0v0v0v0h-1v0v0v0l-1 1l1 1v0h1v1v1v1s0 2 -1 3c0 1 -1 1 -1 1v0v0v1v0h-1v-1v-1v0v-1 s-1 -2 -1 -3s0 -2 1 -3l1 -1c0 -1 1 -1 1 -1v0v0h-1v1c0 0 -1 0 -1 1c-1 0 -1 1 -1 3v0v0v0c0 1 -1 1 -1 1c-1 1 -2 1 -3 1h-1v0v-1v0l1 -1v-1v0c1 -1 1 -2 2 -2c1 -1 2 -2 4 -2v0v0v0v0h-1v0h-1c-1 1 -2 1 -2 1v1v0v0h-1c-1 0 -1 -1 -2 -1l-1 -1v0v-1v0v0h1h1 c1 -1 3 -1 4 -1s2 0 3 1h1v0zM156 -1454v0h2c0 -1 1 -1 3 -1c1 0 2 0 4 1h1h1v0v0v1v0c-1 0 -1 1 -1 1c-1 0 -1 1 -2 1h-1v0v0v-1c-1 0 -1 0 -2 -1h-1h-1v0v0v0v0v0v0c2 0 3 1 4 2c0 0 1 1 1 2h1v1c0 1 1 1 1 1v0v1v0h-2c0 0 -1 0 -2 -1c-1 0 -1 0 -1 -1v0v0v0v0 c0 -2 -1 -3 -1 -3c0 -1 -1 -1 -1 -1c0 -1 0 -1 -1 -1v0v0v0v1c1 0 2 1 2 1v3v3s0 1 -1 1v0v1v1v0v0s-1 0 -1 -1v0l-1 -1v-3v-1v-1v-1v0v0c1 0 1 -1 1 -1s0 -1 -1 -1v0v0v0v0v0v0v0v0v0c1 0 1 1 1 1v1h-2h-1v-1s0 -1 1 -1v0v0v0v0v0h-1v0v0v0l-1 1l1 1v0h1v1v1v1s0 2 -1 3 c0 1 -1 1 -1 1v0v0v1v0h-1v-1v-1v0v-1s-1 -2 -1 -3s0 -2 1 -3l1 -1c0 -1 1 -1 1 -1v0v0h-1v1c0 0 -1 0 -1 1c-1 0 -1 1 -1 3v0v0v0c0 1 -1 1 -1 1c-1 1 -2 1 -3 1h-1v0v-1v0l1 -1v-1v0c1 -1 1 -2 2 -2c1 -1 2 -2 4 -2v0v0v0v0h-1v0h-1c-1 1 -2 1 -2 1v1v0v0h-1 c-1 0 -1 -1 -2 -1l-1 -1v0v-1v0v0h1h1c1 -1 3 -1 4 -1s2 0 3 1h1v0zM715 68c1 -1 3 -2 5 -4c5 -4 14 -9 25 -16c12 -7 26 -13 44 -20c18 -8 39 -14 64 -19c24 -5 52 -7 83 -7c25 0 50 2 74 7c25 4 49 9 71 15c23 7 44 13 63 19c36 11 62 18 78 18c14 0 25 -2 34 -6 c8 -3 15 -3 20 1c4 3 6 7 6 13c-1 4 -5 11 -10 18l-15 21c-13 17 -30 32 -51 47c-29 18 -55 29 -79 33c-23 4 -41 4 -53 2h-1c-2 0 -5 -1 -10 -3s-11 -7 -18 -14c-21 -19 -46 -38 -75 -57c-30 -18 -59 -30 -86 -36h-11c-4 -1 -9 -1 -13 0s-6 2 -6 4s0 3 1 3c1 1 2 2 4 2 c1 1 2 1 3 1v0c42 11 77 25 106 44c28 18 53 39 76 60c38 37 68 77 90 121c3 6 6 12 9 20c8 18 19 37 31 57s27 35 46 45c3 2 5 5 6 8c1 4 0 8 -3 12c-2 3 -7 6 -14 8c-5 1 -17 2 -36 2c-20 0 -44 -3 -73 -9c-29 -7 -61 -19 -97 -38c-20 -11 -34 -22 -42 -32 s-13 -17 -13 -21v0s-1 0 -1 -1c0 0 0 -1 -1 -2c0 -1 0 -2 -1 -3v-6c-3 -49 -10 -89 -22 -119c-13 -30 -27 -53 -42 -69s-28 -28 -39 -35c-7 -5 -14 -8 -20 -10c-7 -2 -11 -2 -14 0v3c1 1 2 3 3 4s3 2 4 3c44 30 74 64 90 103c15 38 23 78 24 121c2 35 -2 69 -11 101 c-9 31 -19 61 -31 88c-4 9 -7 19 -11 28c-2 5 -5 15 -8 30c-3 16 -2 32 2 49c3 11 3 19 1 23c-3 4 -7 6 -14 7c-6 0 -12 -4 -19 -11s-12 -13 -16 -19c-1 0 -2 -1 -2 -2c-3 -3 -8 -10 -16 -21s-18 -29 -31 -54c-16 -33 -27 -65 -34 -97c-7 -31 -12 -58 -13 -80 c-2 -22 -2 -35 -2 -40c0 -23 2 -39 5 -50c3 -12 8 -20 14 -25c7 -5 15 -10 25 -15c1 0 2 -1 3 -1c14 -6 25 -13 32 -23c8 -10 11 -21 11 -32s-4 -21 -12 -29c-7 -8 -19 -16 -34 -22h-1c-1 -1 -2 -1 -3 -2h-3c-7 -2 -13 -2 -17 -1c-5 1 -7 3 -8 5c0 1 1 2 2 3c2 1 3 2 5 2 c2 1 3 1 4 1c2 0 2 1 2 1c34 9 50 23 50 42c0 13 -8 25 -24 36s-35 16 -58 16h-2h-3c-23 0 -42 -5 -58 -16s-24 -23 -24 -36c0 -19 17 -33 50 -42c0 0 0 -1 2 -1c1 0 3 0 4 -1c2 0 3 -1 5 -2c1 -1 2 -2 2 -3c0 -2 -3 -4 -7 -5c-5 -1 -11 -1 -18 1h-2c-1 1 -2 1 -3 1 c0 0 -1 1 -2 1c-15 6 -26 14 -34 22s-12 18 -12 29s3 21 11 31c7 11 18 18 32 24c1 1 2 1 3 1c10 5 19 10 25 15c7 5 11 14 14 25s5 27 5 50c0 4 0 17 -2 40c-1 22 -5 49 -12 80c-7 32 -19 64 -35 97c-12 24 -22 42 -30 53s-13 18 -16 21v1l-3 3c-4 6 -10 12 -16 19 c-7 6 -13 10 -19 10c-6 -1 -11 -3 -13 -7c-3 -4 -3 -12 0 -23c4 -17 5 -33 2 -49c-3 -15 -6 -25 -8 -30c-4 -9 -7 -18 -11 -28c-11 -27 -22 -56 -31 -88s-13 -65 -11 -101c1 -43 9 -83 24 -121c16 -39 46 -73 90 -103c2 -1 3 -2 4 -3s2 -3 3 -4s1 -2 0 -3c-2 -2 -7 -2 -14 0 c-6 2 -13 5 -19 10c-12 7 -25 19 -40 35s-29 39 -42 69c-12 30 -19 70 -22 119v5s-1 2 -1 3v2c-1 1 -1 1 -1 2h-1v0c0 4 -5 11 -13 21s-22 21 -42 32c-35 19 -67 31 -97 38c-29 6 -53 9 -72 9c-20 0 -32 -1 -37 -2c-7 -2 -11 -5 -14 -8c-3 -4 -4 -8 -3 -12c1 -3 3 -6 7 -8 c18 -10 33 -25 45 -45c12 -19 23 -39 31 -57c3 -8 6 -14 9 -20c22 -44 52 -84 90 -121c23 -21 48 -42 76 -60c29 -19 64 -34 106 -44c1 0 2 0 3 -1c2 0 3 -1 4 -2c1 0 2 -1 2 -3c-1 -2 -3 -3 -7 -4s-9 -1 -13 0h-11c-27 6 -56 18 -86 36c-29 19 -54 38 -74 57 c-8 7 -14 12 -19 14s-8 3 -10 3h-1c-12 2 -30 2 -53 -2c-24 -4 -50 -15 -79 -33c-21 -15 -38 -31 -51 -47l-15 -21s-9 -14 -10 -18c0 -6 2 -10 7 -13c4 -4 11 -4 19 -1c9 4 20 6 34 6c16 0 42 -6 78 -18c19 -6 40 -12 63 -19c22 -6 46 -11 71 -15c24 -5 49 -7 74 -7 c31 0 59 2 84 7c24 5 45 12 63 19s33 14 44 20c12 7 20 12 25 16c3 2 4 3 6 4z"></glyph><glyph glyph-name="threequarters" unicode="¾" d="M165 363c20 -32 53 -48 98 -48c21 0 40 4 57 13c17 8 30 19 39 33s15 30 17 47c3 16 1 30 -4 41s-12 20 -20 26c-9 6 -20 11 -33 15c-14 3 -26 5 -36 6s-21 1 -34 1l4 32c81 0 126 28 134 84c3 23 -1 40 -13 53s-31 19 -58 19c-41 0 -73 -14 -96 -41l-19 17 c13 17 32 31 55 42s49 17 78 17c34 0 62 -8 84 -24s31 -41 26 -74c-4 -31 -17 -55 -39 -73s-47 -29 -75 -33c33 -3 59 -14 79 -32c20 -19 28 -45 23 -78s-20 -63 -47 -88s-65 -38 -115 -38c-63 0 -106 22 -128 66zM761 714h45l-501 -714h-45zM788 151h59l-4 -34h-60 l-16 -117h-56l16 117h-205l4 34l245 280h56zM732 151l31 220l-192 -220h161z"></glyph><glyph glyph-name="twosuperior" unicode="²" d="M136 336l5 34l175 173c12 13 21 22 28 29s16 19 27 38c11 18 18 35 20 50c2 11 2 22 -1 31s-7 16 -13 23c-7 7 -15 12 -25 16c-11 3 -23 5 -36 5c-40 0 -72 -14 -97 -41l-18 17c13 18 32 32 56 43c23 11 50 16 80 16c41 0 71 -10 90 -30s26 -46 21 -78 c-3 -22 -10 -42 -22 -59c-12 -18 -29 -37 -50 -58l-176 -168h224l-6 -41h-282z"></glyph><glyph glyph-name="registered" unicode="®" d="M416 -10c-67 0 -126 16 -178 49s-90 77 -115 134c-25 56 -32 117 -23 184s34 128 75 185c41 56 92 100 153 133s124 49 191 49c66 0 125 -16 177 -49c51 -33 90 -77 115 -134s32 -118 23 -184c-10 -67 -35 -128 -76 -184c-41 -57 -91 -101 -152 -134s-124 -49 -190 -49z M420 24c45 0 90 9 134 27c43 17 82 41 116 71c33 29 62 65 85 106s38 84 45 129c9 60 2 116 -21 167s-57 92 -104 122c-47 29 -101 44 -161 44c-61 0 -119 -15 -174 -44c-55 -30 -101 -71 -138 -122s-59 -107 -68 -167c-9 -61 -2 -116 21 -167s58 -92 105 -121 c47 -30 100 -45 160 -45zM287 144l61 428h170c39 0 69 -12 90 -35s29 -53 24 -90c-4 -27 -14 -50 -30 -69c-17 -19 -38 -33 -64 -42l75 -192h-70l-70 183c-3 -1 -7 -1 -13 -1h-86l-26 -182h-61zM379 364h101c25 0 45 7 61 22c16 14 26 34 29 60c4 27 0 49 -12 65 c-13 16 -31 24 -56 24h-99z"></glyph><glyph glyph-name="minus" unicode="−" d="M161 378h467l-7 -49h-467z"></glyph><glyph glyph-name="eth" unicode="ð" d="M618 697l-100 -45c77 -83 105 -196 85 -340c-9 -58 -23 -109 -43 -152c-21 -43 -45 -77 -73 -101c-29 -24 -58 -41 -88 -52c-31 -11 -63 -17 -96 -17c-35 0 -68 6 -99 19s-58 30 -79 53c-22 23 -38 51 -48 85c-10 33 -12 70 -6 110c7 52 26 99 57 140s67 73 110 95 s87 33 133 33c44 0 82 -10 114 -30c32 -21 54 -44 65 -69c-2 91 -26 161 -72 208l-114 -51l-11 35l96 42c-37 29 -88 54 -153 77l15 33c73 -21 132 -51 179 -91l117 52zM533 258c9 68 -2 123 -33 166c-31 42 -76 63 -134 63c-59 0 -110 -21 -153 -63 c-43 -43 -70 -98 -80 -166c-9 -69 2 -124 33 -166c31 -43 76 -64 135 -64s111 21 154 64s69 98 78 166z"></glyph><glyph glyph-name="multiply" unicode="×" d="M506 551l30 -34l-172 -151l131 -153l-43 -38l-131 154l-173 -152l-30 34l173 152l-131 153l42 37l132 -153z"></glyph><glyph glyph-name="threesuperior" unicode="³" d="M179 413c20 -32 53 -48 98 -48c32 0 58 9 78 26s32 40 35 67c3 16 2 30 -3 41s-12 20 -21 26s-20 11 -33 15c-14 3 -26 5 -36 6s-21 1 -34 1l4 32c81 0 126 28 134 84c1 9 2 17 1 25c-1 7 -4 14 -7 20c-4 5 -9 10 -15 15c-6 4 -13 7 -21 9c-9 2 -18 3 -29 3 c-41 0 -73 -14 -96 -41l-19 17c13 17 32 31 55 42s50 17 79 17c33 0 61 -8 84 -24c22 -16 30 -41 25 -74c-4 -31 -17 -55 -39 -73s-47 -29 -75 -33c33 -3 59 -14 79 -32c20 -19 28 -45 23 -78s-20 -63 -47 -88s-65 -38 -115 -38c-63 0 -106 22 -128 66z"></glyph><glyph glyph-name="copyright" unicode="©" d="M519 724c66 0 125 -16 177 -49c51 -33 90 -77 115 -134s32 -118 23 -184c-10 -67 -35 -128 -76 -184c-41 -57 -91 -101 -152 -134s-124 -49 -190 -49c-67 0 -126 16 -178 49s-90 77 -115 134c-25 56 -32 117 -23 184s34 128 75 185c41 56 92 100 153 133s124 49 191 49z M421 24c60 0 118 15 173 45c55 29 101 70 138 121s59 106 68 167c9 60 2 116 -21 167s-57 92 -104 122c-47 29 -101 44 -161 44c-61 0 -119 -15 -174 -44c-55 -30 -101 -71 -138 -122s-59 -107 -68 -167c-9 -61 -2 -116 21 -167s58 -92 105 -121c47 -30 100 -45 161 -45z M442 139c-62 0 -110 22 -144 66c-34 43 -47 95 -38 155c9 63 37 115 86 157c48 41 101 62 159 62c35 0 67 -8 94 -24c27 -17 47 -40 58 -69l-27 -15c-29 47 -69 70 -121 70c-48 0 -89 -17 -123 -50c-35 -33 -56 -76 -63 -129s2 -97 27 -132s61 -53 110 -53 c53 0 101 24 146 71l22 -15c-21 -29 -47 -52 -80 -69s-69 -25 -106 -25z"></glyph><glyph glyph-name="Aacute" unicode="Á" d="M556 940l-165 -156h-48l132 156h81zM510 0l-63 254h-312l-135 -254h-42l382 714h57l182 -714h-69zM156 292h282l-90 360z"></glyph><glyph glyph-name="Acircumflex" unicode="Â" d="M395 897l-119 -113h-48l131 154h83l88 -154h-49zM510 0l-63 254h-312l-135 -254h-42l382 714h57l182 -714h-69zM156 292h282l-90 360z"></glyph><glyph glyph-name="Adieresis" unicode="Ä" d="M311 832c-11 0 -19 4 -26 12c-7 7 -9 16 -7 26c1 7 3 13 8 19c4 6 9 11 16 14c6 3 13 5 20 5s13 -2 18 -5s8 -8 11 -14s3 -12 2 -19c-1 -10 -6 -19 -14 -26c-9 -8 -18 -12 -28 -12zM461 832c-11 0 -19 4 -25 12c-7 7 -9 16 -8 27c1 10 6 19 15 26s18 11 29 11 c10 0 18 -4 25 -11c6 -7 8 -16 7 -26c-2 -11 -7 -20 -15 -27c-9 -8 -18 -12 -28 -12zM510 0l-63 254h-312l-135 -254h-42l382 714h57l182 -714h-69zM156 292h282l-90 360z"></glyph><glyph glyph-name="Agrave" unicode="À" d="M401 784h-48l-121 156h81zM510 0l-63 254h-312l-135 -254h-42l382 714h57l182 -714h-69zM156 292h282l-90 360z"></glyph><glyph glyph-name="Aring" unicode="Å" d="M376 770c-27 0 -49 10 -65 30s-22 44 -18 72c3 18 9 35 20 51c11 15 24 28 41 37c16 9 33 14 50 14c27 0 49 -10 66 -30s23 -44 19 -72s-17 -52 -39 -72s-47 -30 -74 -30zM331 872c-2 -14 -1 -26 3 -37c3 -11 9 -20 18 -26c8 -6 17 -9 28 -9c17 0 33 7 46 20s22 31 25 52 s-1 39 -10 52c-10 13 -24 19 -41 19s-32 -6 -45 -19s-21 -31 -24 -52zM510 0l-63 254h-312l-135 -254h-42l382 714h57l182 -714h-69zM156 292h282l-90 360z"></glyph><glyph glyph-name="Atilde" unicode="Ã" d="M315 870c-15 0 -30 -5 -44 -15c-15 -10 -27 -21 -37 -34l4 31c9 15 21 28 38 40c16 12 34 18 54 18c19 0 43 -8 71 -24s49 -24 63 -24c27 0 54 16 82 48l-4 -31c-9 -15 -22 -28 -38 -40c-17 -12 -35 -18 -55 -18c-19 0 -43 8 -71 25c-28 16 -49 24 -63 24zM510 0l-63 254 h-312l-135 -254h-42l382 714h57l182 -714h-69zM156 292h282l-90 360z"></glyph><glyph glyph-name="Ccedilla" unicode="Ç" d="M499 685c-56 0 -108 -14 -155 -42c-48 -28 -87 -66 -118 -115s-50 -105 -59 -167c-9 -61 -5 -117 10 -166c15 -50 43 -90 84 -120c40 -30 89 -45 147 -45c97 0 186 41 265 124l27 -15c-32 -44 -75 -79 -128 -106s-110 -42 -169 -43l-29 -48c23 -4 42 -14 58 -30 c15 -17 21 -39 17 -67c-3 -21 -11 -39 -26 -53s-29 -23 -44 -27c-15 -5 -31 -7 -46 -7c-11 0 -23 1 -34 4s-21 6 -28 9c-8 3 -14 6 -18 9l13 21c15 -11 36 -16 62 -16c21 0 40 5 55 15s24 23 27 38c1 8 0 15 -3 22s-7 13 -14 20c-7 6 -17 11 -29 16s-26 9 -43 13l50 82 c-63 5 -117 25 -161 61c-45 36 -76 81 -93 136c-18 54 -23 112 -14 175c7 53 24 102 51 148c26 46 57 84 94 115s77 55 122 72c44 17 88 26 132 26c57 0 107 -13 152 -40s76 -63 94 -108l-32 -16c-52 83 -124 125 -217 125z"></glyph><glyph glyph-name="Eacute" unicode="É" d="M417 784l132 156h81l-164 -156h-49zM177 38h397l-5 -38h-459l100 714h457l-5 -38h-395l-41 -292h339l-5 -38h-339z"></glyph><glyph glyph-name="Ecircumflex" unicode="Ê" d="M289 784l131 154h84l88 -154h-49l-87 113l-118 -113h-49zM177 38h397l-6 -38h-458l100 714h457l-5 -38h-395l-41 -292h339l-5 -38h-339z"></glyph><glyph glyph-name="Edieresis" unicode="Ë" d="M372 832c-11 0 -19 4 -25 12c-7 7 -9 16 -8 26c1 5 2 10 5 15s6 9 10 12s9 6 14 8s10 3 15 3c10 0 18 -4 25 -11c6 -7 8 -16 7 -26c-1 -11 -6 -20 -14 -27c-9 -8 -18 -12 -29 -12zM522 832c-10 0 -18 4 -25 12c-7 7 -9 16 -8 26c1 7 4 13 8 19s9 11 16 14s13 5 20 5 s13 -2 18 -5s9 -8 12 -14c2 -6 3 -12 2 -19s-3 -13 -7 -18c-5 -6 -10 -11 -16 -14c-6 -4 -13 -6 -20 -6zM177 38h397l-5 -38h-459l100 714h457l-5 -38h-395l-41 -292h339l-5 -38h-339z"></glyph><glyph glyph-name="Egrave" unicode="È" d="M438 784l-121 156h81l88 -156h-48zM177 38h397l-6 -38h-458l100 714h457l-5 -38h-395l-41 -292h339l-5 -38h-339z"></glyph><glyph glyph-name="Iacute" unicode="Í" d="M214 784l132 156h81l-164 -156h-49zM210 714h62l-100 -714h-62z"></glyph><glyph glyph-name="Icircumflex" unicode="Î" d="M90 784l131 154h84l88 -154h-49l-87 113l-118 -113h-49zM200 714h62l-100 -714h-62z"></glyph><glyph glyph-name="Idieresis" unicode="Ï" d="M183 832c-11 0 -19 4 -25 12c-7 7 -9 16 -8 26c1 7 4 13 8 19s9 11 16 14s13 5 20 5c10 0 18 -4 25 -11c6 -7 8 -16 7 -26c-1 -11 -6 -20 -14 -27c-9 -8 -18 -12 -29 -12zM334 832c-11 0 -19 4 -26 12c-7 7 -9 16 -8 26c1 7 4 13 8 19s9 11 16 14s13 5 20 5 c11 0 19 -4 25 -11s8 -16 7 -26c-1 -11 -6 -20 -14 -27c-9 -8 -18 -12 -28 -12zM210 714h62l-100 -714h-62z"></glyph><glyph glyph-name="Igrave" unicode="Ì" d="M227 784l-121 156h81l88 -156h-48zM208 714h62l-100 -714h-62z"></glyph><glyph glyph-name="Ntilde" unicode="Ñ" d="M354 821l4 31c5 9 12 18 20 26s19 15 32 22s26 10 40 10c19 0 43 -8 72 -24c28 -16 49 -24 62 -24c27 0 55 16 82 48l-4 -31c-9 -15 -21 -28 -37 -40c-17 -12 -35 -18 -56 -18c-19 0 -42 8 -70 25c-29 16 -50 24 -64 24c-10 0 -21 -3 -32 -8c-11 -6 -21 -12 -28 -19 c-8 -7 -15 -14 -21 -22zM210 714h50l381 -629l88 629h38l-100 -714h-51l-380 627l-88 -627h-38z"></glyph><glyph glyph-name="Oacute" unicode="Ó" d="M449 784l132 156h81l-165 -156h-48zM497 724c63 0 118 -16 167 -49c48 -33 84 -77 107 -133c23 -57 29 -118 20 -185s-33 -128 -72 -184c-39 -57 -87 -101 -144 -134c-58 -33 -118 -49 -181 -49s-118 16 -166 49c-49 33 -84 77 -107 134c-23 56 -30 117 -21 184 s33 128 72 185c39 56 87 100 145 133c57 33 117 49 180 49zM400 29c79 0 151 32 214 95s100 141 113 233c9 60 4 115 -13 166c-18 50 -46 90 -85 119s-85 43 -137 43c-80 0 -151 -32 -214 -95s-101 -141 -114 -233c-9 -60 -4 -115 14 -165c17 -51 46 -90 85 -119 s84 -44 137 -44z"></glyph><glyph glyph-name="Ocircumflex" unicode="Ô" d="M355 785l131 154h84l87 -154h-49l-86 112l-118 -112h-49zM497 724c63 0 118 -16 167 -49c48 -33 84 -77 107 -133c23 -57 29 -118 20 -185s-33 -128 -72 -184c-39 -57 -87 -101 -144 -134c-58 -33 -118 -49 -181 -49s-118 16 -166 49c-49 33 -84 77 -107 134 c-23 56 -30 117 -21 184s33 128 72 185c39 56 87 100 145 133c57 33 117 49 180 49zM400 29c79 0 151 32 214 95s100 141 113 233c9 60 4 115 -13 166c-18 50 -46 90 -85 119s-85 43 -137 43c-80 0 -151 -32 -214 -95s-101 -141 -114 -233c-9 -60 -4 -115 14 -165 c17 -51 46 -90 85 -119s84 -44 137 -44z"></glyph><glyph glyph-name="Odieresis" unicode="Ö" d="M438 833c-11 0 -19 4 -25 11c-7 7 -9 16 -8 27c1 5 2 9 5 14s6 9 10 12s9 6 14 8s10 3 15 3c10 0 18 -4 25 -11c6 -7 8 -16 7 -26c-2 -11 -7 -20 -15 -27c-9 -7 -18 -11 -28 -11zM588 833c-11 0 -19 4 -25 11c-7 7 -9 16 -8 27c1 7 3 13 8 19c4 5 9 10 16 13 c6 3 13 5 20 5c10 0 18 -4 25 -11c6 -7 8 -16 7 -26c-2 -11 -7 -20 -15 -27s-17 -11 -28 -11zM497 724c63 0 118 -16 167 -49c48 -33 84 -77 107 -133c23 -57 29 -118 20 -185s-33 -128 -72 -184c-39 -57 -87 -101 -144 -134c-58 -33 -118 -49 -181 -49s-118 16 -166 49 c-49 33 -84 77 -107 134c-23 56 -30 117 -21 184s33 128 72 185c39 56 87 100 145 133c57 33 117 49 180 49zM400 29c79 0 151 32 214 95s100 141 113 233c9 60 4 115 -13 166c-18 50 -46 90 -85 119s-85 43 -137 43c-80 0 -151 -32 -214 -95s-101 -141 -114 -233 c-9 -60 -4 -115 14 -165c17 -51 46 -90 85 -119s84 -44 137 -44z"></glyph><glyph glyph-name="Ograve" unicode="Ò" d="M496 784l-121 156h81l88 -156h-48zM497 724c63 0 118 -16 167 -49c48 -33 84 -77 107 -133c23 -57 29 -118 20 -185s-33 -128 -72 -184c-39 -57 -87 -101 -144 -134c-58 -33 -118 -49 -181 -49s-118 16 -166 49c-49 33 -84 77 -107 134c-23 56 -30 117 -21 184 s33 128 72 185c39 56 87 100 145 133c57 33 117 49 180 49zM400 29c79 0 151 32 214 95s100 141 113 233c9 60 4 115 -13 166c-18 50 -46 90 -85 119s-85 43 -137 43c-80 0 -151 -32 -214 -95s-101 -141 -114 -233c-9 -60 -4 -115 14 -165c17 -51 46 -90 85 -119 s84 -44 137 -44z"></glyph><glyph glyph-name="Otilde" unicode="Õ" d="M361 822l4 30c9 15 21 29 38 41c16 12 34 18 54 18c19 0 43 -8 72 -24c28 -17 49 -25 62 -25c27 0 55 16 82 48l-4 -30c-9 -15 -21 -29 -38 -40c-17 -12 -35 -18 -55 -18c-19 0 -42 8 -70 25c-29 16 -50 24 -64 24c-15 0 -29 -5 -44 -15c-15 -11 -27 -22 -37 -34z M497 724c63 0 118 -16 167 -49c48 -33 84 -77 107 -133c23 -57 29 -118 20 -185s-33 -128 -72 -184c-39 -57 -87 -101 -144 -134c-58 -33 -118 -49 -181 -49s-118 16 -166 49c-49 33 -84 77 -107 134c-23 56 -30 117 -21 184s33 128 72 185c39 56 87 100 145 133 c57 33 117 49 180 49zM400 29c79 0 151 32 214 95s100 141 113 233c9 60 4 115 -13 166c-18 50 -46 90 -85 119s-85 43 -137 43c-80 0 -151 -32 -214 -95s-101 -141 -114 -233c-9 -60 -4 -115 14 -165c17 -51 46 -90 85 -119s84 -44 137 -44z"></glyph><glyph glyph-name="Scaron" unicode="Š" d="M38 35l19 37c34 -25 81 -43 133 -43c89 0 170 57 170 156c0 57 -27 102 -103 145c-95 51 -131 106 -131 169c0 111 94 185 204 185c56 0 105 -20 125 -36l-20 -36c-20 14 -59 33 -111 33c-93 0 -153 -68 -153 -134c0 -65 30 -100 109 -143c83 -46 125 -98 125 -182 c0 -96 -71 -197 -224 -197c-51 0 -117 21 -143 46zM342 710h-37l-80 113h49l52 -78h3l80 78h51z"></glyph><glyph glyph-name="Uacute" unicode="Ú" d="M466 784l132 156h81l-165 -156h-48zM725 714h38l-65 -465c-10 -71 -46 -132 -107 -183s-130 -76 -207 -76s-138 25 -185 76s-66 112 -56 183l66 465h62l-65 -465c-9 -61 6 -113 45 -155c38 -43 88 -64 151 -64s119 21 169 64c50 42 79 94 88 155z"></glyph><glyph glyph-name="Ucircumflex" unicode="Û" d="M357 784l131 154h84l88 -154h-49l-87 113l-118 -113h-49zM725 714h38l-65 -465c-10 -71 -46 -132 -107 -183s-130 -76 -207 -76s-138 25 -185 76s-66 112 -56 183l66 465h62l-65 -465c-9 -61 6 -113 45 -155c38 -43 88 -64 151 -64s119 21 169 64c50 42 79 94 88 155z "></glyph><glyph glyph-name="Udieresis" unicode="Ü" d="M441 832c-11 0 -19 4 -26 12c-7 7 -9 16 -7 27c1 10 6 19 15 26c8 7 17 11 28 11s19 -4 25 -11s8 -16 7 -26c-1 -11 -6 -20 -14 -27c-9 -8 -18 -12 -28 -12zM591 832c-11 0 -19 4 -26 12c-7 7 -9 16 -7 26c1 7 3 13 8 19c4 6 9 11 16 14c6 3 12 5 19 5c11 0 19 -4 25 -11 s8 -16 7 -26c-1 -11 -6 -20 -14 -27c-9 -8 -18 -12 -28 -12zM725 714h38l-65 -465c-10 -71 -46 -132 -107 -183s-130 -76 -207 -76s-138 25 -185 76s-66 112 -56 183l66 465h62l-65 -465c-9 -61 6 -113 45 -155c38 -43 88 -64 151 -64s119 21 169 64c50 42 79 94 88 155z "></glyph><glyph glyph-name="Ugrave" unicode="Ù" d="M490 784l-121 156h81l88 -156h-48zM725 714h38l-65 -465c-10 -71 -46 -132 -107 -183s-130 -76 -207 -76s-138 25 -185 76s-66 112 -56 183l66 465h62l-65 -465c-9 -61 6 -113 45 -155c38 -43 88 -64 151 -64s119 21 169 64c50 42 79 94 88 155z"></glyph><glyph glyph-name="Yacute" unicode="Ý" d="M429 784l132 156h81l-165 -156h-48zM694 714h47l-322 -409l-42 -305h-63l43 305l-201 409h74l176 -369z"></glyph><glyph glyph-name="Ydieresis" unicode="Ÿ" d="M304 0h-45l54 283l-129 391h48l79 -247c20 -62 26 -86 30 -107h2c14 22 39 61 74 111l173 243h51l-284 -392zM340 726c-20 0 -35 19 -35 39c0 19 17 40 39 40s36 -21 36 -39c0 -19 -16 -40 -40 -40zM511 726c-20 0 -35 19 -35 39c0 19 17 40 39 40s36 -21 36 -39 c0 -19 -16 -40 -40 -40z"></glyph><glyph glyph-name="Zcaron" unicode="Ž" d="M-32 0l6 31l498 601l-1 3h-349l8 39h410l-7 -32l-497 -600l2 -3h386l-8 -39h-448zM359 710h-37l-80 113h49l52 -78h3l80 78h51z"></glyph><glyph glyph-name="aacute" unicode="á" d="M535 761l-165 -156h-48l132 156h81zM514 535h61l-76 -535h-61l21 147c-22 -45 -53 -82 -92 -112s-81 -45 -125 -45c-60 0 -107 26 -142 79c-35 52 -46 118 -35 197c11 81 44 148 97 201c53 52 112 78 179 78c62 0 116 -31 161 -92zM260 29c39 0 77 16 112 49 c35 32 67 74 95 127l29 203c-42 65 -92 98 -149 98c-52 0 -99 -23 -142 -70s-69 -104 -78 -171c-5 -40 -4 -78 5 -113c8 -36 23 -65 46 -88s50 -35 82 -35z"></glyph><glyph glyph-name="acircumflex" unicode="â" d="M390 718l-118 -113h-49l131 154h84l87 -154h-48zM514 535h61l-76 -535h-61l21 147c-22 -45 -53 -82 -92 -112s-81 -45 -125 -45c-60 0 -107 26 -142 79c-35 52 -46 118 -35 197c11 81 44 148 97 201c53 52 112 78 179 78c62 0 116 -31 161 -92zM260 29c39 0 77 16 112 49 c35 32 67 74 95 127l29 203c-42 65 -92 98 -149 98c-52 0 -99 -23 -142 -70s-69 -104 -78 -171c-5 -40 -4 -78 5 -113c8 -36 23 -65 46 -88s50 -35 82 -35z"></glyph><glyph glyph-name="adieresis" unicode="ä" d="M306 653c-11 0 -19 4 -25 12c-7 7 -9 16 -8 26c1 7 3 13 8 19c4 6 9 11 16 14c6 3 13 5 20 5c10 0 18 -4 25 -11c6 -7 8 -16 7 -26c-2 -11 -7 -20 -15 -27c-8 -8 -17 -12 -28 -12zM456 653c-11 0 -19 4 -25 12c-7 7 -9 16 -8 26c1 7 4 13 8 19s9 11 16 14c6 3 13 5 20 5 s13 -2 18 -5s9 -8 12 -14c2 -6 3 -12 2 -19c-1 -10 -6 -19 -14 -26c-9 -8 -18 -12 -29 -12zM514 535h61l-76 -535h-61l21 147c-22 -45 -53 -82 -92 -112s-81 -45 -125 -45c-60 0 -107 26 -142 79c-35 52 -46 118 -35 197c11 81 44 148 97 201c53 52 112 78 179 78 c62 0 116 -31 161 -92zM260 29c27 0 53 8 79 25c26 16 49 37 70 62s40 55 58 89l29 203c-42 65 -92 98 -149 98c-52 0 -99 -23 -142 -70s-69 -104 -78 -171c-5 -40 -4 -78 5 -113c8 -36 23 -65 46 -88s50 -35 82 -35z"></glyph><glyph glyph-name="agrave" unicode="à" d="M425 605h-48l-121 156h81zM514 535h61l-76 -535h-61l21 147c-22 -45 -53 -82 -92 -112s-81 -45 -125 -45c-60 0 -107 26 -142 79c-35 52 -46 118 -35 197c11 81 44 148 97 201c53 52 112 78 179 78c62 0 116 -31 161 -92zM260 29c39 0 77 16 112 49c35 32 67 74 95 127 l29 203c-42 65 -92 98 -149 98c-52 0 -99 -23 -142 -70s-69 -104 -78 -171c-5 -40 -4 -78 5 -113c8 -36 23 -65 46 -88s50 -35 82 -35z"></glyph><glyph glyph-name="aring" unicode="å" d="M371 591c-27 0 -48 10 -64 30c-17 20 -23 44 -19 72c3 18 10 35 21 51c11 15 24 28 40 37s33 14 51 14c27 0 48 -10 65 -30s23 -44 19 -72c-2 -14 -6 -27 -13 -40s-16 -23 -26 -32s-21 -17 -34 -22s-27 -8 -40 -8zM326 693c-3 -21 0 -39 10 -52c9 -13 22 -20 39 -20 s33 7 46 20s22 31 25 52s-1 39 -10 52c-10 13 -24 19 -41 19c-16 0 -31 -6 -44 -19c-14 -13 -22 -31 -25 -52zM514 535h61l-76 -535h-61l21 147c-22 -45 -53 -82 -92 -112s-81 -45 -125 -45c-60 0 -107 26 -142 79c-35 52 -46 118 -35 197c11 81 44 148 97 201 c53 52 112 78 179 78c62 0 116 -31 161 -92zM260 29c39 0 77 16 112 49c35 32 67 74 95 127l29 203c-42 65 -92 98 -149 98c-52 0 -99 -23 -142 -70s-69 -104 -78 -171c-5 -40 -4 -78 5 -113c8 -36 23 -65 46 -88s50 -35 82 -35z"></glyph><glyph glyph-name="atilde" unicode="ã" d="M310 691c-8 0 -16 -1 -24 -4c-9 -3 -16 -8 -23 -13s-14 -10 -19 -15c-6 -5 -11 -11 -15 -17l4 31c9 15 21 28 38 40c16 12 34 18 55 18c19 0 42 -8 71 -24c28 -16 49 -24 62 -24c27 0 55 16 82 48l-4 -31c-9 -15 -21 -28 -37 -40c-17 -12 -35 -18 -56 -18 c-19 0 -42 8 -70 25c-29 16 -50 24 -64 24zM514 535h61l-76 -535h-61l21 147c-22 -45 -53 -82 -92 -112s-81 -45 -125 -45c-60 0 -107 26 -142 79c-35 52 -46 118 -35 197c11 81 44 148 97 201c53 52 112 78 179 78c62 0 116 -31 161 -92zM260 29c39 0 77 16 112 49 c35 32 67 74 95 127l29 203c-42 65 -92 98 -149 98c-52 0 -99 -23 -142 -70s-69 -104 -78 -171c-5 -40 -4 -78 5 -113c8 -36 23 -65 46 -88s50 -35 82 -35z"></glyph><glyph glyph-name="ccedilla" unicode="ç" d="M373 506c-64 0 -118 -23 -163 -70s-71 -103 -80 -168c-6 -41 -4 -80 7 -115c10 -35 30 -65 59 -88c29 -24 66 -36 110 -36c66 0 127 30 183 89l25 -18c-26 -33 -58 -60 -97 -80s-80 -30 -125 -30h-8l-29 -48c23 -4 43 -14 58 -30c15 -17 21 -39 18 -67 c-3 -17 -8 -31 -17 -43s-19 -21 -31 -27s-24 -10 -35 -13s-23 -4 -34 -4c-16 0 -31 3 -46 8s-27 9 -34 14l13 21c16 -11 37 -16 62 -16c21 0 40 5 56 15c15 10 24 23 26 38c2 16 -4 30 -18 42c-15 12 -38 22 -71 29l51 84c-64 9 -113 40 -148 91s-48 112 -38 184 c11 79 46 145 105 198c58 53 124 79 198 79c44 0 82 -10 114 -29c32 -20 57 -47 74 -81l-30 -18c-39 59 -90 89 -155 89z"></glyph><glyph glyph-name="eacute" unicode="é" d="M562 761l-164 -156h-49l132 156h81zM370 264c-35 -11 -78 -19 -129 -22c-52 -3 -89 -4 -110 -2c-1 -27 1 -53 8 -77c6 -25 16 -47 30 -67c14 -21 34 -37 59 -49s54 -18 87 -18c34 0 65 7 92 20s54 34 82 63l25 -18c-31 -39 -64 -66 -99 -81s-78 -23 -128 -23 c-49 0 -92 14 -129 41s-62 62 -77 105s-19 89 -10 137c6 35 18 69 36 102c17 33 39 62 65 87c25 25 56 46 91 61s72 22 111 22c51 0 93 -13 124 -40s43 -59 37 -96c-5 -36 -21 -65 -46 -86c-26 -22 -66 -42 -119 -59zM365 505c-53 0 -103 -23 -148 -68s-73 -100 -83 -164 c21 -1 43 -1 68 1c29 1 57 5 84 10s54 13 83 22c28 9 51 23 70 40s30 38 33 61c5 28 -3 51 -25 70s-49 28 -82 28z"></glyph><glyph glyph-name="ecircumflex" unicode="ê" d="M394 718l-118 -113h-49l131 154h84l88 -154h-49zM370 264c-35 -11 -78 -19 -129 -22c-52 -3 -89 -4 -110 -2c-1 -27 1 -53 8 -77c6 -25 16 -47 30 -67c14 -21 34 -37 59 -49s54 -18 87 -18c34 0 65 7 92 20s54 34 82 63l25 -18c-31 -39 -64 -66 -99 -81s-78 -23 -128 -23 c-49 0 -92 14 -129 41s-62 62 -77 105s-19 89 -10 137c6 35 18 69 36 102c17 33 39 62 65 87c25 25 56 46 91 61s72 22 111 22c51 0 93 -13 124 -40s43 -59 37 -96c-5 -36 -21 -65 -46 -86c-26 -22 -66 -42 -119 -59zM365 505c-53 0 -103 -23 -148 -68s-73 -100 -83 -164 c21 -1 43 -1 68 1c29 1 57 5 84 10s54 13 83 22c28 9 51 23 70 40s30 38 33 61c5 28 -3 51 -25 70s-49 28 -82 28z"></glyph><glyph glyph-name="edieresis" unicode="ë" d="M310 653c-11 0 -19 4 -25 12c-7 7 -9 16 -8 26c1 7 4 13 8 19s9 11 16 14s13 5 20 5c10 0 18 -4 25 -11c6 -7 8 -16 7 -27c-1 -7 -4 -13 -8 -18c-4 -6 -9 -11 -15 -14c-7 -4 -13 -6 -20 -6zM461 653c-11 0 -19 4 -26 12c-7 7 -9 16 -8 26c1 5 2 10 5 15s6 9 10 12 s9 6 14 8s10 3 15 3c11 0 19 -4 25 -11s8 -16 7 -27c-1 -7 -3 -13 -7 -18c-5 -6 -10 -11 -16 -14c-6 -4 -12 -6 -19 -6zM370 264c-35 -11 -78 -19 -129 -22c-52 -3 -89 -4 -110 -2c-1 -27 1 -53 8 -77c6 -25 16 -47 30 -67c14 -21 34 -37 59 -49s54 -18 87 -18 c34 0 65 7 92 20s54 34 82 63l25 -18c-31 -39 -64 -66 -99 -81s-78 -23 -128 -23c-49 0 -92 14 -129 41s-62 62 -77 105s-19 89 -10 137c6 35 18 69 36 102c17 33 39 62 65 87c25 25 56 46 91 61s72 22 111 22c51 0 93 -13 124 -40s43 -59 37 -96c-5 -36 -21 -65 -46 -86 c-26 -22 -66 -42 -119 -59zM365 505c-53 0 -103 -23 -148 -68s-73 -100 -83 -164c21 -1 43 -1 68 1c29 1 57 5 84 10s54 13 83 22c28 9 51 23 70 40s30 38 33 61c5 28 -3 51 -25 70s-49 28 -82 28z"></glyph><glyph glyph-name="egrave" unicode="è" d="M410 605h-49l-121 156h81zM370 264c-35 -11 -78 -19 -129 -22c-52 -3 -89 -4 -110 -2c-1 -27 1 -53 8 -77c6 -25 16 -47 30 -67c14 -21 34 -37 59 -49s54 -18 87 -18c34 0 65 7 92 20s54 34 82 63l25 -18c-31 -39 -64 -66 -99 -81s-78 -23 -128 -23c-49 0 -92 14 -129 41 s-62 62 -77 105s-19 89 -10 137c6 35 18 69 36 102c17 33 39 62 65 87c25 25 56 46 91 61s72 22 111 22c51 0 93 -13 124 -40s43 -59 37 -96c-5 -36 -21 -65 -46 -86c-26 -22 -66 -42 -119 -59zM365 505c-35 0 -69 -10 -102 -31s-61 -49 -84 -84c-23 -36 -38 -75 -45 -117 c21 -1 43 -1 68 1c29 1 57 5 84 10s54 13 83 22c28 9 51 23 70 40s30 38 33 61c5 28 -3 51 -25 70s-49 28 -82 28z"></glyph><glyph glyph-name="iacute" unicode="í" d="M150 605l132 156h81l-165 -156h-48zM76 0l75 535h61l-75 -535h-61z"></glyph><glyph glyph-name="icircumflex" unicode="î" d="M6 605l131 154h83l88 -154h-49l-86 113l-119 -113h-48zM41 0l75 535h61l-75 -535h-61z"></glyph><glyph glyph-name="idieresis" unicode="ï" d="M124 653c-11 0 -19 4 -26 12c-7 7 -9 16 -7 26c1 7 3 13 8 19c4 6 9 11 16 14c6 3 13 5 20 5c10 0 18 -4 25 -11c6 -7 8 -16 7 -26c-2 -11 -7 -20 -15 -27c-9 -8 -18 -12 -28 -12zM274 653c-11 0 -19 4 -25 12c-7 7 -9 16 -8 26c1 7 3 13 8 19c4 6 9 11 16 14 c6 3 13 5 20 5s13 -2 18 -5s8 -8 11 -14s4 -12 3 -19c-2 -10 -7 -19 -15 -26c-9 -8 -18 -12 -28 -12zM76 0l75 535h61l-75 -535h-61z"></glyph><glyph glyph-name="igrave" unicode="ì" d="M133 605l-121 156h81l88 -156h-48zM44 0l75 535h61l-75 -535h-61z"></glyph><glyph glyph-name="ntilde" unicode="ñ" d="M310 691c-10 0 -21 -3 -32 -8c-11 -6 -21 -12 -28 -19c-8 -7 -15 -14 -21 -22l4 31c9 15 21 28 38 40c16 12 34 18 55 18c19 0 42 -8 71 -24c28 -16 49 -24 62 -24c27 0 55 16 83 48l-5 -31c-9 -15 -21 -28 -37 -40c-17 -12 -35 -18 -56 -18c-19 0 -42 8 -70 25 c-29 16 -50 24 -64 24zM425 546c46 0 82 -14 107 -43s34 -69 27 -118l-54 -385h-61l54 384c4 28 3 52 -4 71s-18 32 -32 40c-15 8 -33 12 -54 12c-41 0 -81 -16 -121 -49c-41 -33 -76 -81 -106 -142l-44 -316h-61l75 535h61l-23 -166c27 55 61 99 102 130s85 47 134 47z"></glyph><glyph glyph-name="oacute" unicode="ó" d="M340 605l132 156h81l-165 -156h-48zM290 -10c-75 0 -133 27 -176 80s-59 119 -48 198s46 145 104 198c57 53 123 79 198 79s133 -26 176 -79c42 -53 57 -119 46 -198s-45 -145 -102 -198s-123 -80 -198 -80zM295 29c36 0 71 11 105 32c33 21 62 51 85 88s37 76 43 119 c5 32 4 63 -2 92c-7 29 -17 55 -32 76s-34 38 -57 51s-48 19 -75 19c-55 0 -105 -23 -150 -70c-46 -47 -74 -103 -83 -168s2 -121 35 -168s76 -71 131 -71z"></glyph><glyph glyph-name="ocircumflex" unicode="ô" d="M225 605l131 154h84l87 -154h-48l-87 112l-118 -112h-49zM290 -10c-75 0 -133 27 -176 80s-59 119 -48 198s46 145 104 198c57 53 123 79 198 79s133 -26 176 -79c42 -53 57 -119 46 -198s-45 -145 -102 -198s-123 -80 -198 -80zM295 29c36 0 71 11 105 32 c33 21 62 51 85 88s37 76 43 119c5 32 4 63 -2 92c-7 29 -17 55 -32 76s-34 38 -57 51s-48 19 -75 19c-55 0 -105 -23 -150 -70c-46 -47 -74 -103 -83 -168s2 -121 35 -168s76 -71 131 -71z"></glyph><glyph glyph-name="odieresis" unicode="ö" d="M308 653c-11 0 -19 4 -25 11c-7 7 -9 16 -8 27c1 10 6 19 15 27c9 7 18 11 29 11c10 0 18 -4 25 -11c6 -8 8 -17 7 -27c-1 -11 -6 -20 -14 -27c-9 -7 -18 -11 -29 -11zM458 653c-11 0 -19 4 -25 11c-7 7 -9 16 -8 27c1 10 6 19 15 27c9 7 18 11 29 11c10 0 18 -4 25 -11 c6 -8 8 -17 7 -27c-1 -11 -6 -20 -14 -27c-9 -7 -18 -11 -29 -11zM290 -10c-75 0 -133 27 -176 80s-59 119 -48 198s46 145 104 198c57 53 123 79 198 79s133 -26 176 -79c42 -53 57 -119 46 -198s-45 -145 -102 -198s-123 -80 -198 -80zM295 29c36 0 71 11 105 32 c33 21 62 51 85 88s37 76 43 119c5 32 4 63 -2 92c-7 29 -17 55 -32 76s-34 38 -57 51s-48 19 -75 19c-55 0 -105 -23 -150 -70c-46 -47 -74 -103 -83 -168s2 -121 35 -168s76 -71 131 -71z"></glyph><glyph glyph-name="ograve" unicode="ò" d="M350 605l-121 156h81l88 -156h-48zM290 -10c-75 0 -133 27 -176 80s-59 119 -48 198s46 145 104 198c57 53 123 79 198 79s133 -26 176 -79c42 -53 57 -119 46 -198s-45 -145 -102 -198s-123 -80 -198 -80zM295 29c55 0 106 24 151 71s73 103 82 168c5 32 4 63 -2 92 c-7 29 -17 55 -32 76s-34 38 -57 51s-48 19 -75 19c-55 0 -105 -23 -150 -70c-46 -47 -74 -103 -83 -168s2 -121 35 -168s76 -71 131 -71z"></glyph><glyph glyph-name="otilde" unicode="õ" d="M231 642l4 31c9 15 21 28 38 40c16 12 34 18 55 18c19 0 42 -8 71 -24c28 -17 49 -25 62 -25c27 0 55 16 82 49l-4 -31c-9 -15 -21 -28 -37 -40c-17 -12 -35 -18 -56 -18c-19 0 -42 8 -70 25c-29 16 -50 24 -64 24c-15 0 -29 -5 -44 -15s-27 -21 -37 -34zM290 -10 c-75 0 -133 27 -176 80s-59 119 -48 198s46 145 104 198c57 53 123 79 198 79s133 -26 176 -79c42 -53 57 -119 46 -198s-45 -145 -102 -198s-123 -80 -198 -80zM295 29c36 0 71 11 105 32c33 21 62 51 85 88s37 76 43 119s3 82 -10 119s-33 66 -60 87c-28 21 -60 32 -96 32 c-55 0 -105 -23 -150 -70c-46 -47 -74 -103 -83 -168s2 -121 35 -168s76 -71 131 -71z"></glyph><glyph glyph-name="scaron" unicode="š" d="M32 20l17 37c20 -14 54 -28 89 -28c66 0 111 46 111 100c0 46 -18 74 -70 106c-56 33 -78 76 -78 119c0 74 64 137 151 137c36 0 71 -12 85 -23l-16 -38c-15 9 -43 22 -75 22c-58 0 -100 -41 -100 -91c0 -45 25 -69 70 -97c54 -33 79 -77 79 -123 c0 -95 -75 -151 -160 -151c-46 0 -85 16 -103 30zM266 540h-36l-66 138h43l45 -100h3l79 100h46z"></glyph><glyph glyph-name="uacute" unicode="ú" d="M569 761l-165 -156h-48l132 156h81zM530 535h61l-75 -535h-61l23 166c-27 -55 -60 -99 -101 -130s-86 -47 -135 -47c-46 0 -81 15 -106 44s-35 68 -28 117l54 385h61l-54 -384c-6 -41 0 -72 17 -92c17 -21 41 -31 73 -31c41 0 81 17 122 50c40 33 75 80 105 141z"></glyph><glyph glyph-name="ucircumflex" unicode="û" d="M400 718l-118 -113h-49l131 154h84l88 -154h-49zM530 535h61l-75 -535h-61l23 166c-27 -55 -60 -99 -101 -130s-86 -47 -135 -47c-46 0 -81 15 -106 44s-35 68 -28 117l54 385h61l-54 -384c-6 -41 0 -72 17 -92c17 -21 41 -31 73 -31c41 0 81 17 122 50 c40 33 75 80 105 141z"></glyph><glyph glyph-name="udieresis" unicode="ü" d="M317 653c-11 0 -19 4 -26 12c-7 7 -9 16 -7 26c1 5 2 10 5 15s6 9 10 12c3 3 8 6 13 8s10 3 15 3c11 0 19 -4 25 -11s8 -16 7 -26c-1 -11 -6 -20 -14 -27c-9 -8 -18 -12 -28 -12zM467 653c-11 0 -19 4 -25 12c-7 7 -9 16 -8 26c1 7 3 13 8 19c4 6 9 11 16 14 c6 3 13 5 20 5c10 0 18 -4 25 -11c6 -7 8 -16 7 -26c-2 -11 -7 -20 -15 -27c-9 -8 -18 -12 -28 -12zM530 535h61l-75 -535h-61l23 166c-27 -55 -60 -99 -101 -130s-86 -47 -135 -47c-46 0 -81 15 -106 44s-35 68 -28 117l54 385h61l-54 -384c-6 -41 0 -72 17 -92 c17 -21 41 -31 73 -31c41 0 81 17 122 50c40 33 75 80 105 141z"></glyph><glyph glyph-name="ugrave" unicode="ù" d="M421 605h-48l-121 156h81zM530 535h61l-75 -535h-61l23 166c-27 -55 -60 -99 -101 -130s-86 -47 -135 -47c-46 0 -81 15 -106 44s-35 68 -28 117l54 385h61l-54 -384c-6 -41 0 -72 17 -92c17 -21 41 -31 73 -31c41 0 81 17 122 50c40 33 75 80 105 141z"></glyph><glyph glyph-name="yacute" unicode="ý" d="M333 605l132 156h81l-165 -156h-48zM142 -241l119 221l-143 555h65l120 -476l254 476h42l-416 -776h-41z"></glyph><glyph glyph-name="ydieresis" unicode="ÿ" d="M320 653c-11 0 -19 4 -26 12c-7 7 -9 16 -8 26c1 7 4 13 9 19c4 6 9 11 16 14c6 3 12 5 19 5c11 0 19 -4 25 -11s8 -16 7 -26c-1 -11 -6 -20 -14 -27c-9 -8 -18 -12 -28 -12zM470 653c-11 0 -19 4 -26 12c-7 7 -9 16 -7 26c1 5 2 10 5 15s6 9 10 12s9 6 14 8s9 3 14 3 c7 0 14 -2 19 -5s8 -8 11 -14s3 -12 2 -19c-1 -10 -6 -19 -14 -26c-9 -8 -18 -12 -28 -12zM142 -241l119 221l-143 555h65l120 -476l254 476h42l-416 -776h-41z"></glyph><glyph glyph-name="zcaron" unicode="ž" d="M-38 0l5 29l282 317c41 46 65 68 89 93v3h-272l8 38h326l-7 -32l-279 -314c-43 -48 -65 -70 -88 -93v-3h292l-8 -38h-348zM265 540h-36l-66 138h43l45 -100h3l79 100h45z"></glyph><glyph glyph-name="Dcroat" unicode="Đ" d="M461 714c63 0 119 -16 166 -49s82 -76 104 -131c21 -55 27 -114 18 -177c-9 -64 -32 -123 -69 -178c-38 -55 -85 -98 -141 -130c-56 -33 -114 -49 -174 -49h-249l47 335h-75l5 39h76l48 340h244zM686 358c13 91 -1 167 -41 228c-41 60 -101 90 -181 90h-190l-43 -302h199 l-5 -39h-199l-42 -297h189c55 0 106 15 151 44s82 68 109 116c27 47 44 101 53 160z"></glyph><glyph glyph-name="Eng" unicode="Ŋ" d="M505 -215c-29 0 -53 7 -72 21s-33 30 -42 49l27 19c11 -18 22 -31 35 -40s30 -14 52 -14c65 0 104 40 115 120l8 60l-392 629l-89 -629h-37l100 714h49l381 -627l88 627h38l-110 -784c-6 -41 -22 -76 -49 -103c-27 -28 -61 -42 -102 -42z"></glyph><glyph glyph-name="Hbar" unicode="Ħ" d="M565 485h-350l-22 -114h350zM108 521h70l29 153h45l-29 -153h350l29 153h45l-29 -153h61l-7 -36h-61l-93 -485h-45l63 332h-351l-62 -332h-45l93 485h-70z"></glyph><glyph glyph-name="Tbar" unicode="Ŧ" d="M462 340h-136l-65 -340h-45l65 340h-131l8 38h129l50 257h-209l8 39h462l-8 -39h-209l-49 -257h138z"></glyph><glyph glyph-name="Yogh" unicode="Ȝ" d="M-32 -107l-6 38c200 28 371 127 371 284c0 64 -48 122 -149 122c-26 0 -57 -7 -88 -16l-7 34c125 28 244 98 244 199c0 58 -48 91 -108 91c-53 0 -107 -27 -129 -38l-12 33c27 16 89 46 152 45c84 0 146 -53 146 -126c0 -92 -81 -158 -150 -186l-1 -3 c71 -11 150 -55 150 -155c0 -138 -136 -285 -413 -322z"></glyph><glyph glyph-name="dcroat" unicode="đ" d="M699 658l-6 -38h-106l-88 -620h-61l21 147c-22 -45 -53 -82 -92 -112s-81 -45 -125 -45c-60 0 -107 26 -142 79c-35 52 -46 118 -35 197c11 81 44 148 97 201c53 52 112 78 179 78c62 0 116 -31 161 -92l24 167h-194l5 38h194l14 102h61l-14 -102h107zM260 29 c39 0 77 16 112 49c35 32 67 74 95 127l29 203c-42 65 -92 98 -149 98c-52 0 -99 -23 -142 -70s-69 -104 -78 -171c-5 -40 -4 -78 5 -113c8 -36 23 -65 46 -88s50 -35 82 -35z"></glyph><glyph glyph-name="eng" unicode="ŋ" d="M425 546c46 0 82 -14 107 -43s34 -69 27 -118l-54 -385l-10 -70c-6 -41 -23 -76 -50 -103c-27 -28 -63 -42 -107 -42c-56 0 -93 22 -112 67l26 21c18 -33 44 -49 79 -49c59 0 94 39 105 117l8 61l54 382c6 41 1 72 -16 93c-17 20 -42 30 -74 30c-41 0 -81 -16 -121 -49 c-41 -33 -76 -81 -106 -142l-44 -316h-61l75 535h61l-23 -166c27 55 61 99 102 130s85 47 134 47z"></glyph><glyph glyph-name="hbar" unicode="ħ" d="M105 596h85l21 114h46l-23 -114h198l-7 -36h-197l-36 -179h2c43 68 105 110 184 110c42 0 118 -24 118 -128c0 -27 -3 -55 -7 -78l-54 -285h-45l54 287c4 16 7 40 7 70c0 52 -26 94 -91 94c-73 0 -171 -83 -192 -197l-47 -254h-45l107 560h-85z"></glyph><glyph glyph-name="kra" unicode="ĸ" d="M121 0h-45l91 480h45l-43 -228h2c14 16 34 34 46 45l198 183h56l-213 -197l150 -283h-49l-135 257l-66 -56z"></glyph><glyph glyph-name="napostrophe" unicode="ŉ" d="M121 0h-45l67 351c9 48 15 91 20 129h42l-14 -103h2c42 70 110 114 184 114c43 0 120 -23 120 -134c0 -22 -4 -49 -9 -76l-53 -281h-45l54 285c3 20 7 44 7 66c0 57 -23 100 -92 100c-67 0 -169 -78 -192 -205zM117 546l-8 26c28 10 59 32 59 76c0 22 -12 43 -26 54 l41 11c14 -9 29 -34 29 -60c0 -66 -52 -100 -95 -107z"></glyph><glyph glyph-name="tbar" unicode="ŧ" d="M87 300h65l28 143h-73l7 37h74l16 88l49 18l-20 -106h122l-7 -37h-123l-27 -143h93l-7 -37h-93l-18 -98c-6 -32 -10 -56 -10 -86c0 -33 16 -51 48 -51c16 0 29 1 39 5l4 -36c-13 -5 -32 -8 -52 -8c-65 0 -86 45 -86 87c0 29 4 58 11 91l18 96h-65z"></glyph><glyph glyph-name="yogh" unicode="ȝ" d="M-125 -208l-5 36c78 10 348 59 348 241c0 63 -57 110 -141 108c-21 0 -44 -4 -81 -15l-7 34c122 32 227 86 227 175c0 46 -39 81 -105 81c-52 0 -100 -24 -122 -36l-10 31c27 16 81 44 148 44c76 0 133 -50 133 -115c0 -82 -67 -135 -134 -161l-1 -3 c70 -10 138 -59 138 -143c0 -144 -146 -255 -388 -277z"></glyph><glyph glyph-name="IJ" unicode="Ĳ" d="M206 674h46l-129 -674h-45zM467 203l89 471h45l-90 -475c-28 -150 -89 -210 -199 -210c-39 0 -79 10 -93 18l12 39c22 -11 50 -16 87 -16c76 0 124 41 149 173z"></glyph><glyph glyph-name="ij" unicode="ĳ" d="M121 0h-45l92 480h45zM213 577c-21 0 -33 19 -33 41c1 21 16 40 38 40s35 -18 35 -40c-2 -22 -15 -41 -40 -41zM373 480h45l-93 -487c-15 -79 -31 -128 -58 -158c-25 -29 -61 -44 -97 -44c-20 0 -34 1 -46 6l6 37c8 -2 23 -4 42 -4c47 0 83 31 104 138zM414 577 c-21 0 -33 19 -33 41c1 21 16 40 38 40s35 -18 35 -40c-2 -22 -15 -41 -40 -41z"></glyph><glyph glyph-name="zero.slash" unicode="" d="M110 126l298 439c-14 32 -40 57 -85 57c-124 0 -221 -223 -221 -421c0 -24 2 -50 8 -75zM420 520l-297 -438c16 -32 42 -54 86 -54c137 0 216 275 216 433c0 16 -1 38 -5 59zM516 653l-60 -82c12 -31 16 -68 16 -103c0 -217 -102 -479 -269 -479c-50 0 -84 20 -108 51 l-46 -65l-29 25l55 76c-14 36 -20 80 -20 128c0 224 118 457 272 457c53 0 87 -22 110 -53l47 68z"></glyph><glyph glyph-name="euro" unicode="€" d="M484 685c-71 0 -135 -22 -190 -65c-56 -43 -97 -101 -122 -173h334l-5 -34h-340c-4 -17 -7 -34 -10 -52c-3 -19 -4 -38 -4 -56h339l-5 -34h-333c5 -72 29 -130 72 -174c43 -45 100 -67 173 -67c97 0 185 41 264 124l27 -15c-33 -45 -76 -81 -131 -108s-113 -41 -173 -41 c-85 0 -154 27 -206 80c-53 53 -83 120 -90 201h-74l4 34h69c0 19 1 39 4 58c3 17 6 34 10 50h-67l4 34h74c30 83 81 150 153 201c71 51 146 76 225 76c29 0 56 -4 82 -11s50 -17 71 -30s40 -29 56 -47s28 -38 37 -60l-32 -16c-52 83 -124 125 -216 125z"></glyph><glyph glyph-name="Aringacute" unicode="Ǻ" d="M341 691c-48 0 -77 30 -77 67c0 42 38 75 87 75c42 0 73 -27 73 -66c0 -47 -39 -76 -83 -76zM342 720c29 0 48 19 48 44c0 22 -15 41 -43 41c-27 0 -47 -21 -47 -45s17 -40 42 -40zM430 926h75l-122 -74h-48zM375 237h-256l-125 -237h-46l361 674h44l102 -674h-44z M141 276h228l-34 225c-4 34 -10 81 -14 119h-2c-18 -39 -34 -75 -56 -117z"></glyph><glyph glyph-name="estimated" unicode="℮" d="M817 316h-605c-3 0 -5 -1 -5 -4v-183c0 -8 4 -15 9 -21c57 -61 139 -99 229 -99c96 0 182 43 240 111h55c-68 -79 -176 -131 -296 -131c-206 0 -374 150 -374 336s168 336 374 336s373 -150 373 -336v-9zM681 340v184c0 9 -4 16 -10 22c-58 58 -138 95 -226 95 c-90 0 -170 -38 -228 -98c-6 -6 -10 -14 -10 -23v-180c0 -3 2 -5 5 -5h464c3 0 5 2 5 5z"></glyph><glyph glyph-name="zero.oldstyle" unicode="" d="M247 -11c-88 0 -167 70 -167 195c0 140 95 309 248 309c83 0 168 -71 168 -197c0 -141 -95 -307 -249 -307zM256 28c122 0 193 151 193 266c0 95 -50 160 -129 160c-124 0 -193 -152 -193 -267c0 -94 49 -159 129 -159z"></glyph><glyph glyph-name="one.oldstyle" unicode="" d="M329 484l-92 -484h-44l83 436h-2l-143 -71l-7 37l164 82h41z"></glyph><glyph glyph-name="two.oldstyle" unicode="" d="M349 39l-7 -39h-370l5 27l112 78c159 111 217 176 217 252c0 69 -46 100 -100 100s-103 -31 -127 -48l-16 28c32 26 85 59 152 59c75 0 138 -48 138 -138c0 -87 -66 -157 -227 -271l-66 -47v-2c20 1 48 1 66 1h223z"></glyph><glyph glyph-name="three.oldstyle" unicode="" d="M-46 -82l12 36c26 -13 68 -22 106 -22c115 0 200 61 200 150c0 74 -64 112 -135 112c-27 0 -45 -1 -62 -2l5 37c5 1 11 1 16 1c87 7 192 56 192 145c0 52 -42 79 -98 79c-48 0 -87 -17 -111 -30l-14 29c27 19 80 40 137 40c64 0 133 -37 133 -119 c0 -76 -64 -130 -141 -151l-1 -3c72 -12 126 -59 126 -133c0 -128 -130 -194 -241 -194c-53 0 -102 12 -124 25z"></glyph><glyph glyph-name="four.oldstyle" unicode="" d="M317 62l-33 -169h-42l32 169h-274l7 31l354 399h37l-73 -391h94l-7 -39h-95zM281 101l46 240c6 30 12 60 19 86l-3 1c-20 -31 -42 -59 -62 -84l-216 -240l1 -3h215z"></glyph><glyph glyph-name="five.oldstyle" unicode="" d="M-20 -87l12 37c24 -10 63 -18 98 -18c108 0 199 60 199 162c0 34 -12 62 -34 84c-45 43 -131 47 -200 40l84 264h247l-15 -40h-204l-60 -184c66 5 141 -9 186 -54c28 -27 43 -63 43 -106c0 -125 -114 -205 -246 -205c-46 0 -92 11 -110 20z"></glyph><glyph glyph-name="six.oldstyle" unicode="" d="M270 28c85 0 167 85 167 192c0 81 -52 126 -117 126c-75 0 -125 -41 -152 -85c-19 -26 -24 -53 -24 -81c0 -90 48 -152 126 -152zM506 597l5 -36c-120 -13 -200 -57 -253 -110c-47 -47 -76 -93 -93 -145h2c33 40 90 79 167 79s150 -59 150 -158 c0 -131 -100 -238 -221 -238c-88 0 -165 62 -165 199c0 73 34 194 122 281c67 66 157 117 286 128z"></glyph><glyph glyph-name="seven.oldstyle" unicode="" d="M421 482l-6 -32c-71 -148 -242 -399 -371 -557l-46 14c103 115 306 405 365 533l1 2h-294l6 40h345z"></glyph><glyph glyph-name="eight.oldstyle" unicode="" d="M337 600c89 0 153 -59 153 -136c0 -70 -53 -112 -132 -152v-2c71 -38 111 -87 111 -149c0 -107 -105 -172 -207 -172c-107 0 -182 61 -182 155c0 86 82 138 161 174v2c-54 28 -87 71 -87 124c0 89 83 156 183 156zM327 563c-67 0 -129 -40 -129 -110 c0 -59 46 -95 118 -123c73 31 128 69 128 134c0 50 -36 99 -117 99zM262 27c90 0 160 57 160 128c0 66 -51 107 -140 145c-71 -27 -155 -76 -155 -158c0 -69 56 -115 135 -115z"></glyph><glyph glyph-name="nine.oldstyle" unicode="" d="M260 133c61 0 124 41 159 92c11 17 20 47 20 80c0 101 -57 149 -128 149c-86 0 -164 -87 -164 -192c0 -84 50 -129 113 -129zM85 -109l-5 38c28 2 54 5 78 10c163 35 233 140 266 240l-3 1c-32 -42 -98 -85 -170 -85c-87 0 -151 62 -151 160c0 126 102 238 226 238 c89 0 160 -72 160 -197c0 -165 -97 -356 -338 -398c-19 -4 -41 -7 -63 -7z"></glyph><glyph glyph-name="percent.oldstyle" unicode="" d="M248 600c77 0 104 -68 104 -127c0 -143 -66 -271 -169 -271c-71 0 -107 58 -107 139c0 119 64 259 172 259zM240 566c-72 0 -122 -120 -122 -226c0 -52 14 -104 72 -104c72 0 120 123 120 228c0 42 -12 102 -70 102zM196 -13h-44l450 613h44zM623 393 c76 0 103 -68 103 -127c0 -143 -66 -271 -168 -271c-71 0 -107 58 -107 139c0 119 64 259 172 259zM614 359c-72 0 -121 -120 -121 -226c0 -52 14 -104 72 -104c71 0 119 123 119 228c0 42 -12 102 -70 102z"></glyph><glyph glyph-name="zero.fitted" unicode="" d="M237 -11c-109 0 -147 96 -147 216c0 223 118 456 272 456c114 0 145 -102 145 -193c0 -217 -102 -479 -270 -479zM245 28c136 0 215 275 215 433c0 56 -8 161 -102 161c-124 0 -221 -223 -221 -421c0 -79 17 -173 108 -173z"></glyph><glyph glyph-name="one.fitted" unicode="" d="M231 0l114 598h-2l-101 -56l-12 37l128 71h41l-124 -650h-44z"></glyph><glyph glyph-name="two.fitted" unicode="" d="M307 0h-361l7 32l70 63c201 173 314 290 314 415c0 48 -22 111 -108 111c-58 0 -104 -31 -131 -53l-17 34c41 35 103 59 155 59c117 0 149 -84 149 -147c0 -142 -139 -279 -319 -432l-48 -41v-2h296z"></glyph><glyph glyph-name="three.fitted" unicode="" d="M-24 29l18 35c24 -15 60 -35 115 -35c129 0 182 98 182 174c0 95 -72 132 -143 132h-37l7 38h39c58 0 172 48 172 151c0 61 -33 97 -100 97c-44 0 -87 -16 -116 -39l-17 35c37 24 86 44 139 44c108 0 142 -73 142 -131c0 -90 -72 -153 -143 -174v-2 c73 -19 106 -85 106 -150c0 -114 -94 -215 -235 -215c-62 0 -111 21 -129 40z"></glyph><glyph glyph-name="four.fitted" unicode="" d="M313 0h-44l37 192h-282l7 31l369 427h37l-80 -419h96l-8 -39h-96zM89 231h224l50 263c7 31 13 61 20 90l-3 1c-25 -37 -39 -64 -65 -95l-226 -257v-2z"></glyph><glyph glyph-name="five.fitted" unicode="" d="M426 650l-8 -41h-218l-64 -204c11 2 22 2 34 2c23 0 67 -7 101 -25c58 -29 81 -90 81 -142c0 -155 -120 -251 -246 -251c-54 0 -104 20 -122 34l18 36c21 -14 64 -30 114 -30c107 0 189 94 189 198c0 77 -35 141 -155 141c-23 0 -43 -2 -68 -4l88 286h256z"></glyph><glyph glyph-name="six.fitted" unicode="" d="M481 661l-5 -43c-17 0 -39 -1 -64 -7c-116 -27 -226 -131 -276 -288h2c40 60 113 101 176 101c107 0 152 -80 152 -173c0 -121 -94 -262 -226 -262c-111 0 -166 84 -166 204c0 153 86 297 166 365c60 54 125 85 184 96c22 5 43 7 57 7zM246 28c96 0 173 112 173 223 c0 88 -42 133 -117 133c-58 0 -123 -40 -165 -107c-5 -9 -10 -19 -12 -30c-3 -16 -5 -37 -5 -62c0 -93 41 -157 126 -157z"></glyph><glyph glyph-name="seven.fitted" unicode="" d="M91 650h357l-6 -35c-129 -204 -258 -410 -390 -615h-50c131 203 260 405 388 608l-1 2h-306z"></glyph><glyph glyph-name="eight.fitted" unicode="" d="M328 661h2c88 0 147 -59 147 -141c0 -80 -56 -140 -135 -177v-4c73 -38 101 -98 101 -159c0 -119 -104 -191 -208 -191c-112 0 -181 68 -181 158c0 105 78 171 160 203v3c-55 40 -74 83 -74 131c0 95 82 177 188 177zM235 27c93 0 161 62 161 149c0 73 -38 120 -133 153 c-78 -20 -162 -77 -162 -178c0 -62 42 -124 134 -124zM319 623c-77 0 -135 -63 -135 -135c0 -57 30 -99 108 -126c78 25 138 80 138 152c0 47 -21 109 -111 109z"></glyph><glyph glyph-name="nine.fitted" unicode="" d="M118 -11l5 42c18 0 41 2 62 6c47 10 98 35 145 79c48 43 95 110 129 205h-4c-46 -57 -108 -86 -165 -86c-109 0 -148 91 -148 165c0 127 100 261 226 261c112 0 154 -91 154 -191c0 -167 -99 -324 -170 -387c-50 -43 -108 -73 -163 -86c-22 -5 -49 -8 -71 -8zM362 622 c-95 0 -173 -105 -173 -219c0 -72 34 -128 111 -128c62 0 119 37 156 94c5 9 10 17 13 28c4 19 7 46 7 76c0 86 -30 149 -114 149z"></glyph><glyph glyph-name="zero.slashfitted" unicode="" d="M110 126l298 439c-14 32 -40 57 -85 57c-124 0 -221 -223 -221 -421c0 -24 2 -50 8 -75zM420 520l-297 -438c16 -32 42 -54 86 -54c137 0 216 275 216 433c0 16 -1 38 -5 59zM516 653l-60 -82c12 -31 16 -68 16 -103c0 -217 -102 -479 -269 -479c-50 0 -84 20 -108 51 l-46 -65l-29 25l55 76c-14 36 -20 80 -20 128c0 224 118 457 272 457c53 0 87 -22 110 -53l47 68z"></glyph><glyph glyph-name="zero.taboldstyle" unicode="" d="M247 -11c-88 0 -167 70 -167 195c0 140 95 309 248 309c83 0 168 -71 168 -197c0 -141 -95 -307 -249 -307zM256 28c122 0 193 151 193 266c0 95 -50 160 -129 160c-124 0 -193 -152 -193 -267c0 -94 49 -159 129 -159z"></glyph><glyph glyph-name="one.taboldstyle" unicode="" d="M471 484l-92 -484h-44l84 440h-2l-194 -76l-5 37l212 83h41z"></glyph><glyph glyph-name="two.taboldstyle" unicode="" d="M427 39l-7 -39h-370l5 27l112 78c159 111 217 176 217 252c0 69 -46 100 -100 100s-103 -31 -127 -48l-16 28c32 26 85 59 152 59c75 0 138 -48 138 -138c0 -87 -66 -157 -227 -271l-66 -47v-2c20 1 48 1 66 1h223z"></glyph><glyph glyph-name="three.taboldstyle" unicode="" d="M54 -82l12 36c26 -13 68 -22 106 -22c115 0 200 61 200 150c0 74 -64 112 -135 112c-27 0 -45 -1 -62 -2l5 37c5 1 11 1 16 1c87 7 192 56 192 145c0 52 -42 79 -98 79c-48 0 -87 -17 -111 -30l-14 29c27 19 80 40 137 40c64 0 133 -37 133 -119 c0 -76 -64 -130 -141 -151l-1 -3c72 -12 126 -59 126 -133c0 -128 -130 -194 -241 -194c-53 0 -102 12 -124 25z"></glyph><glyph glyph-name="four.taboldstyle" unicode="" d="M345 62l-33 -169h-42l32 169h-274l7 31l353 399h37l-73 -391h95l-8 -39h-94zM309 101l45 240c6 30 12 60 20 86l-3 1c-20 -31 -42 -59 -62 -84l-216 -240l1 -3h215z"></glyph><glyph glyph-name="five.taboldstyle" unicode="" d="M70 -87l12 37c24 -10 63 -18 98 -18c108 0 199 60 199 162c0 34 -12 62 -34 84c-45 43 -131 47 -200 40l84 264h247l-15 -40h-204l-60 -184c66 5 141 -9 186 -54c28 -27 43 -63 43 -106c0 -125 -114 -205 -246 -205c-46 0 -92 11 -110 20z"></glyph><glyph glyph-name="six.taboldstyle" unicode="" d="M283 28c85 0 167 85 167 192c0 81 -52 126 -117 126c-75 0 -126 -41 -153 -85c-19 -26 -24 -53 -24 -81c0 -90 48 -152 127 -152zM519 597l5 -36c-121 -13 -200 -57 -253 -110c-48 -47 -77 -93 -94 -145h2c33 40 90 79 168 79c77 0 150 -59 150 -158 c0 -131 -101 -238 -222 -238c-88 0 -165 62 -165 199c0 73 34 194 122 281c68 66 158 117 287 128z"></glyph><glyph glyph-name="seven.taboldstyle" unicode="" d="M475 482l-6 -32c-71 -148 -242 -399 -371 -557l-46 14c103 115 306 405 365 533l1 2h-294l6 40h345z"></glyph><glyph glyph-name="eight.taboldstyle" unicode="" d="M341 600c90 0 154 -59 154 -136c0 -70 -53 -112 -132 -152v-2c71 -38 111 -87 111 -149c0 -107 -106 -172 -207 -172c-108 0 -183 61 -183 155c0 86 82 138 161 174v2c-54 28 -87 71 -87 124c0 89 84 156 183 156zM331 563c-66 0 -129 -40 -129 -110 c0 -59 47 -95 119 -123c72 31 128 69 128 134c0 50 -36 99 -118 99zM265 27h2c89 0 160 57 160 128c0 66 -51 107 -140 145c-71 -27 -156 -76 -156 -158c0 -69 57 -115 134 -115z"></glyph><glyph glyph-name="nine.taboldstyle" unicode="" d="M262 133c61 0 124 41 159 92c11 17 20 47 20 80c0 101 -57 149 -128 149c-86 0 -164 -87 -164 -192c0 -84 50 -129 113 -129zM87 -109l-5 38c28 2 54 5 78 10c163 35 233 140 266 240l-3 1c-32 -42 -98 -85 -170 -85c-87 0 -151 62 -151 160c0 126 102 238 226 238 c89 0 160 -72 160 -197c0 -165 -97 -356 -338 -398c-19 -4 -41 -7 -63 -7z"></glyph><glyph glyph-name="dollar.taboldstyle" unicode="" d="M267 -77h-35l14 77c-48 1 -97 20 -124 40l23 34c19 -16 61 -35 115 -35c74 0 137 39 137 97c0 33 -18 66 -99 99c-81 35 -108 69 -108 116c0 73 73 124 153 129l16 81h36l-16 -81c43 -5 82 -21 103 -38l-22 -34c-26 20 -63 34 -104 34c-71 0 -118 -37 -118 -86 c0 -37 19 -55 96 -88c71 -30 110 -72 110 -123c0 -86 -79 -138 -163 -145z"></glyph><glyph glyph-name="cent.taboldstyle" unicode="" d="M410 116l10 -36c-21 -10 -62 -26 -108 -29l-14 -71h-34l14 72c-84 9 -142 68 -142 149c0 119 92 226 215 242l12 65h35l-12 -64c41 -2 78 -19 95 -32l-20 -33c-19 13 -51 27 -88 27c-112 0 -190 -97 -190 -197c0 -73 44 -119 125 -119c40 0 76 13 102 26z"></glyph><glyph glyph-name="euro.taboldstyle" unicode="" d="M427 59l11 -35c-27 -18 -81 -35 -146 -35c-112 0 -190 81 -193 197h-51l7 36h46c2 19 6 37 11 57h-48l7 36h52c46 119 147 197 271 197c55 0 92 -15 116 -28l-17 -36c-24 13 -58 25 -100 25c-103 0 -185 -67 -225 -158h263l-7 -36h-267c-6 -19 -9 -37 -10 -57h267l-7 -36 h-262c6 -97 63 -158 161 -158c46 0 99 17 121 31z"></glyph><glyph glyph-name="fhook.taboldstyle" unicode="" d="M481 586l-15 -36c-16 6 -28 10 -48 10c-79 0 -117 -68 -142 -170l-13 -56h125l-5 -38h-130l-47 -191c-33 -136 -84 -216 -179 -216c-25 0 -52 7 -65 16l15 36c17 -10 35 -13 54 -13c52 0 99 44 128 166l49 202h-94l4 38h100l13 54c25 108 79 212 193 212 c22 0 44 -7 57 -14z"></glyph><glyph glyph-name="sterling.taboldstyle" unicode="" d="M453 489l-16 -36c-13 8 -43 19 -80 19c-86 0 -140 -72 -136 -198v-14h152l-6 -37h-144c4 -74 -16 -138 -80 -183v-2h286l-6 -38h-371l5 30c87 37 128 94 121 193h-88l6 37h79v9c-4 139 64 243 191 243c41 0 71 -13 87 -23z"></glyph><glyph glyph-name="yen.taboldstyle" unicode="" d="M273 0h-44l24 121h-147l7 36h146l12 64h-146l6 36h131l-99 244h48l65 -171c9 -26 17 -48 23 -67h3c14 20 34 46 53 70l135 168h53l-202 -244h128l-7 -36h-148l-12 -64h147l-7 -36h-147z"></glyph><glyph glyph-name="numbersign.taboldstyle" unicode="" d="M235 220h92l51 165h-93zM167 0h-40l56 182h-83l7 38h88l50 165h-87l7 38h92l55 177h39l-54 -177h92l55 177h39l-54 -177h83l-7 -38h-87l-51 -165h88l-6 -38h-94l-56 -182h-40l56 182h-92z"></glyph><glyph glyph-name="zerosuperior" unicode="⁰" d="M342 770c50 0 86 -21 109 -62c22 -42 28 -95 19 -158c-9 -64 -30 -117 -63 -158c-34 -41 -76 -62 -127 -62s-87 21 -109 62s-29 94 -20 158c9 63 31 116 65 158c33 41 75 62 126 62zM285 365c35 0 63 17 84 51s36 79 44 134c7 55 5 100 -6 134c-12 34 -35 51 -70 51 s-64 -17 -85 -51s-36 -79 -44 -134c-4 -35 -5 -67 -3 -94s10 -49 24 -66c13 -17 32 -25 56 -25z"></glyph><glyph glyph-name="one.superior" d="M297 406h-39l67 350h-2l-68 -33l-5 32l86 41h35z"></glyph><glyph glyph-name="two.superior" d="M334 406h-238l5 28l72 59c99 82 165 141 165 211c0 29 -14 62 -66 62c-34 0 -66 -19 -83 -32l-14 28c28 22 67 39 106 39c71 0 100 -49 100 -97c0 -79 -84 -151 -179 -227l-42 -34v-2h181z"></glyph><glyph glyph-name="three.superior" d="M197 739l-11 29c21 17 60 33 95 33c71 0 96 -42 96 -83c0 -46 -37 -82 -86 -99l-1 -2c43 -12 68 -51 67 -91c-1 -71 -57 -125 -150 -125c-41 0 -78 14 -93 26l15 31c15 -10 44 -24 82 -24c70 0 105 44 105 90c0 55 -50 76 -96 76h-21l6 31h23c48 0 107 34 107 82 c0 31 -16 54 -63 54c-27 0 -57 -14 -75 -28z"></glyph><glyph glyph-name="foursuperior" unicode="⁴" d="M386 486h60l-5 -34h-59l-17 -117h-56l16 117h-205l5 34l245 280h56zM330 486l31 220l-191 -220h160z"></glyph><glyph glyph-name="fivesuperior" unicode="⁵" d="M288 330c-32 0 -59 6 -80 19c-21 12 -36 28 -44 48l23 17c19 -33 49 -49 90 -49c27 0 52 8 75 24c22 15 35 41 40 76c3 20 2 37 -3 51s-12 25 -22 32s-20 12 -31 15s-24 5 -37 5c-29 0 -53 -7 -71 -20l-21 17l28 199h225l-6 -41h-191l-19 -136c20 10 44 15 73 15 c49 0 84 -13 107 -39c23 -27 31 -59 26 -98c-3 -25 -12 -47 -25 -67s-32 -36 -55 -49c-24 -13 -51 -19 -82 -19z"></glyph><glyph glyph-name="sixsuperior" unicode="⁶" d="M359 600c33 0 60 -11 82 -33c21 -23 29 -54 24 -93c-6 -43 -25 -77 -57 -104c-33 -27 -70 -40 -111 -40c-19 0 -36 3 -51 10c-16 6 -31 16 -44 30c-14 13 -24 33 -29 60c-6 26 -6 57 -1 92c10 74 36 134 79 180c43 45 88 68 137 68c19 0 38 -4 55 -11 c17 -8 29 -19 36 -33l-22 -18c-17 21 -39 32 -66 32c-36 0 -68 -17 -97 -52s-50 -84 -61 -145c15 16 34 30 57 41s46 16 69 16zM407 472c3 19 2 36 -2 51c-5 14 -12 25 -23 32s-24 10 -41 10c-11 0 -22 -2 -33 -5c-12 -3 -23 -8 -33 -13s-19 -11 -27 -17s-15 -12 -20 -19 c-12 -97 12 -146 71 -146c27 0 50 9 71 28c20 19 32 45 37 79z"></glyph><glyph glyph-name="sevensuperior" unicode="⁷" d="M222 336c43 123 127 252 252 387h-241l6 41h295l-5 -34c-52 -54 -102 -117 -149 -190s-81 -141 -101 -204h-57z"></glyph><glyph glyph-name="eightsuperior" unicode="⁸" d="M462 675c-7 -47 -39 -81 -98 -103c34 -18 58 -36 72 -53c13 -17 18 -39 14 -65c-5 -39 -24 -69 -55 -91c-32 -22 -70 -33 -113 -33c-16 0 -32 2 -47 5s-30 9 -45 17s-26 20 -33 37c-7 16 -9 35 -6 57c7 54 42 93 104 116c-42 28 -60 63 -55 104c3 22 12 41 25 57 c13 15 31 27 52 35s45 12 72 12c39 0 69 -8 90 -25c20 -17 28 -40 23 -70zM413 674c1 13 0 24 -4 34c-5 9 -13 17 -24 23c-11 5 -25 8 -42 8s-31 -2 -44 -7s-24 -13 -32 -23c-9 -10 -14 -22 -16 -35c-1 -11 -1 -21 2 -29s9 -15 18 -22s17 -13 24 -17s18 -10 35 -18 c12 7 20 11 24 14c4 2 11 6 20 13c9 6 15 12 19 17c3 5 7 11 12 18c4 7 7 15 8 24zM398 443c2 15 -1 29 -8 40s-21 22 -41 33c-3 1 -12 5 -27 12s-26 12 -35 16c-51 -24 -80 -57 -86 -98c-3 -25 3 -46 18 -61s38 -23 69 -23c30 0 55 8 75 23s32 34 35 58z"></glyph><glyph glyph-name="ninesuperior" unicode="⁹" d="M364 770c19 0 36 -3 52 -9c16 -7 31 -17 44 -30c13 -14 23 -34 29 -60c5 -27 5 -58 0 -93c-10 -74 -36 -134 -78 -179c-43 -46 -89 -69 -138 -69c-19 0 -37 4 -54 12c-17 7 -30 18 -37 32l22 18c17 -21 39 -32 66 -32c24 0 47 8 68 23s39 38 55 68s28 65 36 106 c-15 -16 -34 -29 -57 -40s-47 -17 -70 -17c-33 0 -60 11 -81 34c-22 22 -30 53 -24 92c6 43 25 77 57 104s69 40 110 40zM320 535c21 0 42 6 63 17s38 23 51 37c11 97 -13 146 -72 146c-27 0 -50 -9 -70 -28c-21 -19 -33 -45 -38 -79c-4 -29 0 -52 12 -68 c11 -17 29 -25 54 -25z"></glyph><glyph glyph-name="period.superior" unicode="" d="M180 399c-16 0 -28 14 -28 32c0 19 13 35 32 35s30 -14 30 -33s-13 -34 -34 -34z"></glyph><glyph glyph-name="comma.superior" unicode="" d="M100 335l-32 -4c17 31 45 96 58 137l50 6c-20 -49 -58 -116 -76 -139z"></glyph><glyph glyph-name="dollar.superior" unicode="" d="M242 355h-31l12 61c-27 1 -61 13 -77 26l13 32c20 -14 45 -25 79 -25c46 0 85 29 85 74c0 26 -13 50 -54 69c-54 27 -77 57 -77 94c0 53 45 98 104 103l13 61h31l-12 -61c29 -1 54 -12 64 -20l-15 -31c-11 7 -30 19 -67 19c-47 0 -76 -30 -76 -66c0 -27 14 -43 61 -67 c49 -25 71 -55 71 -94c0 -64 -47 -106 -112 -114z"></glyph><glyph glyph-name="cent.superior" unicode="" d="M310 396h-32l13 62c-35 5 -57 19 -73 41c-15 21 -22 47 -22 73c0 94 71 169 153 178l11 62h31l-11 -61c21 0 49 -9 59 -16l-16 -32c-14 9 -33 16 -64 16c-57 0 -120 -59 -120 -144c0 -48 28 -85 82 -85c29 0 52 9 67 16l6 -32c-12 -7 -44 -16 -73 -16z"></glyph><glyph glyph-name="hyphenminus.superior" unicode="" d="M186 603h141l-7 -33h-140z"></glyph><glyph glyph-name="parenleftsuperior" unicode="⁽" d="M348 831h36c-61 -67 -130 -176 -130 -322c0 -50 10 -104 37 -164h-32c-26 50 -41 101 -41 167c0 149 74 260 130 319z"></glyph><glyph glyph-name="parenrightsuperior" unicode="⁾" d="M117 345h-37c61 69 131 177 131 323c0 50 -11 104 -38 163h32c26 -49 42 -100 42 -166c0 -149 -75 -259 -130 -320z"></glyph><glyph glyph-name="zeroinferior" unicode="₀" d="M233 383c50 0 86 -21 108 -62c22 -42 29 -95 20 -158c-9 -64 -31 -117 -64 -158c-34 -41 -76 -62 -126 -62c-51 0 -87 21 -109 62c-23 41 -29 94 -20 158c9 63 30 116 64 158c34 41 76 62 127 62zM175 -22c35 0 63 17 84 51s36 79 44 134c4 26 6 50 5 73 c-1 22 -5 41 -10 58s-14 30 -26 40c-12 9 -27 14 -45 14c-35 0 -63 -17 -84 -51s-36 -79 -44 -134s-6 -100 6 -134c11 -34 35 -51 70 -51z"></glyph><glyph glyph-name="oneinferior" unicode="₁" d="M189 377h56l-55 -394h87l-5 -34h-234l4 34h91l49 349l-101 -83l-19 24z"></glyph><glyph glyph-name="twoinferior" unicode="₂" d="M28 -51l5 34l174 173l29 29c6 7 15 19 27 38c11 18 18 35 20 50c1 11 1 22 -1 31c-3 9 -7 16 -13 23c-7 7 -15 12 -25 16c-11 3 -23 5 -37 5c-39 0 -71 -14 -96 -41l-19 17c13 18 32 32 56 43s51 16 81 16c40 0 70 -10 89 -30s27 -46 22 -78c-2 -15 -7 -30 -14 -44 c-8 -15 -16 -27 -25 -37s-20 -22 -33 -36l-176 -168h223l-6 -41h-281z"></glyph><glyph glyph-name="threeinferior" unicode="₃" d="M71 26c20 -32 52 -48 97 -48c33 0 59 9 79 26c19 17 31 40 35 67c2 16 1 30 -4 41s-12 20 -20 26c-9 6 -20 11 -33 15c-14 3 -26 5 -36 6s-22 1 -35 1l5 32c81 0 126 28 134 84c1 11 1 21 -1 30c-3 9 -7 16 -12 23c-6 6 -14 11 -23 14c-10 3 -22 5 -35 5 c-41 0 -73 -14 -96 -41l-19 17c13 17 31 31 54 42s50 17 79 17c33 0 61 -8 84 -24c22 -16 31 -41 26 -74c-4 -31 -17 -55 -39 -73c-23 -18 -48 -29 -75 -33c32 -3 58 -14 79 -32c20 -19 28 -45 23 -78s-20 -63 -47 -88s-65 -38 -115 -38c-64 0 -107 22 -128 66z"></glyph><glyph glyph-name="fourinferior" unicode="₄" d="M278 99h59l-4 -34h-60l-16 -117h-56l16 117h-205l4 34l245 280h56zM222 99l31 220l-192 -220h161z"></glyph><glyph glyph-name="fiveinferior" unicode="₅" d="M179 -57c-31 0 -58 6 -79 19c-21 12 -36 28 -44 48l23 17c19 -33 49 -49 90 -49c27 0 51 8 74 24c22 15 36 41 41 76c3 20 2 37 -3 51s-12 25 -22 32s-21 12 -32 15s-23 5 -36 5c-29 0 -53 -7 -72 -20l-21 17l28 199h226l-6 -41h-191l-20 -136c21 10 45 15 73 15 c49 0 85 -13 108 -39c23 -27 31 -59 26 -98s-22 -71 -51 -96c-29 -26 -66 -39 -112 -39z"></glyph><glyph glyph-name="sixinferior" unicode="₆" d="M251 213c33 0 60 -11 82 -33c21 -23 29 -54 23 -93c-6 -43 -25 -77 -57 -104s-69 -40 -110 -40c-19 0 -36 3 -52 10c-16 6 -31 16 -44 30c-14 13 -24 33 -29 60c-5 26 -6 57 -1 92c7 49 22 93 45 132s49 68 79 87s61 29 92 29c13 0 26 -2 38 -5s23 -8 32 -15 s17 -15 22 -24l-22 -18c-17 21 -40 32 -67 32c-36 0 -68 -17 -97 -52s-50 -84 -61 -145c15 16 35 30 58 41s46 16 69 16zM299 85c4 29 0 52 -11 69c-12 16 -30 24 -55 24c-21 0 -42 -5 -63 -16s-38 -24 -51 -38c-12 -97 12 -146 72 -146c27 0 50 9 71 28c20 19 32 45 37 79z "></glyph><glyph glyph-name="seveninferior" unicode="₇" d="M112 -51c43 123 128 252 253 387h-241l6 41h295l-5 -34c-53 -54 -103 -117 -150 -190s-81 -141 -100 -204h-58z"></glyph><glyph glyph-name="eightinferior" unicode="₈" d="M354 288c-7 -47 -39 -81 -98 -103c34 -18 58 -36 71 -53s18 -39 15 -65c-5 -39 -24 -69 -56 -91s-69 -33 -112 -33c-17 0 -32 2 -47 5s-30 9 -45 17s-26 20 -33 37c-7 16 -10 35 -7 57c8 54 43 93 105 116c-43 28 -61 63 -55 104c5 33 20 59 47 77s61 27 102 27 c26 0 48 -4 66 -11c17 -7 30 -18 39 -32c8 -15 11 -32 8 -52zM304 287c3 20 -2 36 -14 48c-12 11 -30 17 -55 17s-46 -6 -63 -17c-17 -12 -26 -28 -29 -48c-1 -11 -1 -21 2 -29c2 -8 8 -15 17 -22s18 -13 25 -17s18 -10 35 -18c11 7 19 11 23 14c4 2 11 6 20 13 c9 6 16 12 20 17c3 5 7 11 11 18s7 15 8 24zM290 56c2 15 -1 29 -8 40c-8 11 -22 22 -42 33c-2 1 -5 3 -10 5s-10 4 -15 7c-5 2 -11 5 -18 8s-13 5 -18 8c-51 -24 -80 -57 -86 -98c-3 -25 3 -46 18 -61s37 -23 68 -23s56 8 76 23s32 34 35 58z"></glyph><glyph glyph-name="nineinferior" unicode="₉" d="M180 383c19 0 36 -3 52 -9c16 -7 31 -17 45 -30c13 -14 23 -34 28 -60c5 -27 6 -58 1 -93c-5 -37 -15 -72 -30 -103c-15 -32 -32 -58 -51 -79c-20 -21 -42 -37 -65 -48c-23 -12 -47 -18 -70 -18c-20 0 -38 4 -55 12c-17 7 -29 18 -37 32l23 18c17 -21 39 -32 66 -32 c36 0 69 18 98 53s49 83 60 144c-15 -16 -34 -29 -57 -40s-46 -17 -69 -17c-33 0 -60 11 -81 34c-22 22 -30 53 -25 92c4 29 14 54 31 76s37 39 61 51c23 11 48 17 75 17zM136 148c21 0 43 6 64 17s37 23 50 37c12 97 -12 146 -72 146c-27 0 -50 -9 -70 -28s-32 -45 -37 -79 c-5 -29 -1 -52 11 -68c11 -17 29 -25 54 -25z"></glyph><glyph glyph-name="period.inferior" unicode="" d="M-32 -151c-16 0 -28 14 -28 32c0 19 13 35 32 35s30 -14 30 -33s-13 -34 -34 -34z"></glyph><glyph glyph-name="comma.inferior" unicode="" d="M-112 -215l-32 -4c17 31 45 96 58 137l50 6c-20 -49 -58 -116 -76 -139z"></glyph><glyph glyph-name="dollar.inferior" unicode="" d="M29 -195h-30l12 61c-27 0 -61 13 -77 26l13 32c20 -14 45 -25 79 -25c46 0 85 28 85 73c0 27 -13 51 -54 70c-54 27 -77 56 -77 94c0 53 45 98 104 103l13 61h31l-12 -61c29 -1 54 -12 64 -20l-15 -31c-11 7 -30 19 -67 19c-47 0 -76 -30 -76 -66c0 -27 14 -43 61 -67 c49 -25 71 -55 71 -94c0 -64 -47 -106 -112 -114z"></glyph><glyph glyph-name="cent.inferior" unicode="" d="M98 -154h-32l13 62c-35 5 -57 19 -73 41c-15 21 -22 47 -22 73c0 94 71 169 153 178l11 62h31l-11 -61c21 0 49 -9 59 -17l-16 -31c-14 9 -33 16 -64 16c-57 0 -120 -59 -120 -144c0 -48 28 -85 82 -85c29 0 52 9 67 16l6 -32c-12 -7 -44 -16 -73 -16z"></glyph><glyph glyph-name="hyphenminus.inferior" unicode="" d="M-26 53h141l-7 -33h-140z"></glyph><glyph glyph-name="parenleftinferior" unicode="₍" d="M136 281h36c-61 -67 -130 -176 -130 -322c0 -50 10 -104 37 -164h-32c-26 50 -41 101 -41 167c0 149 74 260 130 319z"></glyph><glyph glyph-name="parenrightinferior" unicode="₎" d="M-95 -205h-37c61 69 131 177 131 323c0 50 -11 104 -38 163h32c26 -49 42 -100 42 -166c0 -149 -75 -259 -130 -320z"></glyph><glyph glyph-name="zero.numerator" unicode="" d="M223 259c-71 0 -97 57 -97 135c0 137 73 269 171 269c73 0 96 -61 96 -121c0 -137 -66 -283 -170 -283zM230 292c77 0 122 155 122 244c0 33 -6 94 -60 94c-70 0 -125 -128 -125 -239c0 -43 10 -99 63 -99z"></glyph><glyph glyph-name="one.numerator" unicode="" d="M241 266h-39l67 350h-2l-68 -33l-5 32l86 41h35z"></glyph><glyph glyph-name="two.numerator" unicode="" d="M278 266h-238l5 28l72 59c99 82 165 141 165 211c0 29 -14 62 -66 62c-34 0 -66 -19 -83 -32l-14 28c28 22 67 39 106 39c71 0 100 -49 100 -97c0 -79 -84 -151 -179 -227l-42 -34v-2h181z"></glyph><glyph glyph-name="three.numerator" unicode="" d="M141 599l-11 29c21 17 60 33 95 33c71 0 96 -42 96 -83c0 -46 -37 -82 -86 -99l-1 -2c43 -12 68 -51 67 -91c-1 -71 -57 -125 -150 -125c-41 0 -78 14 -93 26l15 31c15 -10 44 -24 82 -24c70 0 105 44 105 90c0 55 -50 76 -96 76h-21l6 31h23c48 0 107 34 107 82 c0 31 -16 54 -63 54c-27 0 -57 -14 -75 -28z"></glyph><glyph glyph-name="four.numerator" unicode="" d="M275 266h-39l22 112h-176l6 26l222 253h40l-47 -246h57l-7 -33h-57zM264 411l28 144c4 21 9 40 13 56h-2c-16 -21 -26 -39 -41 -57l-126 -142v-1h128z"></glyph><glyph glyph-name="five.numerator" unicode="" d="M349 656l-8 -35h-138l-34 -109c8 1 14 1 22 1c15 0 43 -4 65 -15c36 -18 51 -55 51 -88c0 -96 -77 -151 -158 -151c-37 0 -71 13 -83 22l13 32c15 -9 43 -20 76 -20c59 0 110 49 110 107c0 41 -19 80 -97 80c-16 0 -28 -2 -45 -3l54 179h172z"></glyph><glyph glyph-name="six.numerator" unicode="" d="M386 663l-6 -36c-10 0 -25 -1 -41 -5c-77 -17 -134 -74 -161 -155l1 -1c24 34 67 57 105 57c65 0 97 -48 97 -107c0 -77 -62 -157 -145 -157c-73 0 -110 53 -110 127c0 94 53 177 102 218c30 24 64 42 104 51c17 5 35 7 54 8zM241 292c54 0 98 60 98 122 c0 49 -25 76 -69 76c-34 0 -71 -23 -94 -60c-4 -6 -6 -13 -7 -20c-2 -7 -2 -19 -2 -31c0 -51 24 -87 74 -87z"></glyph><glyph glyph-name="seven.numerator" unicode="" d="M143 656h232l-5 -30c-55 -86 -168 -258 -235 -360h-45c71 106 173 262 233 354v1h-186z"></glyph><glyph glyph-name="eight.numerator" unicode="" d="M289 663c56 0 98 -33 98 -88c0 -46 -32 -81 -79 -103v-1c44 -23 60 -59 60 -94c0 -77 -70 -118 -135 -118c-74 0 -119 42 -119 97c0 60 44 100 95 119v2c-33 22 -44 49 -44 77c0 62 55 109 124 109zM234 290c51 0 92 33 92 83c0 41 -23 68 -78 85 c-45 -10 -92 -41 -92 -97c0 -35 25 -71 78 -71zM281 632c-43 0 -77 -36 -77 -75c0 -32 18 -56 64 -70c43 12 78 42 78 83c0 26 -13 62 -65 62z"></glyph><glyph glyph-name="nine.numerator" unicode="" d="M126 259l5 36c11 -1 25 0 39 2c29 5 60 19 89 44c28 25 55 61 75 112l-2 1c-28 -34 -66 -50 -99 -50c-67 0 -95 54 -95 102c0 80 64 157 144 157c74 0 104 -57 104 -122c0 -102 -61 -192 -105 -228c-33 -27 -72 -44 -110 -51c-16 -3 -32 -4 -45 -3zM277 630 c-52 0 -98 -55 -98 -120c0 -38 20 -72 65 -72c36 0 68 21 89 52c4 5 6 10 8 16c2 10 4 26 4 40c0 48 -20 84 -68 84z"></glyph><glyph glyph-name="period.numerator" unicode="" d="M124 259c-16 0 -28 14 -28 32c0 19 13 35 32 35s30 -14 30 -33s-13 -34 -34 -34z"></glyph><glyph glyph-name="comma.numerator" unicode="" d="M44 195l-32 -4c17 31 45 96 58 137l50 6c-20 -49 -58 -116 -76 -139z"></glyph><glyph glyph-name="dollar.numerator" unicode="" d="M186 215h-31l12 61c-27 1 -61 13 -77 26l13 32c20 -14 45 -25 79 -25c46 0 85 29 85 74c0 26 -13 50 -54 69c-54 27 -77 57 -77 94c0 53 45 98 104 103l13 61h31l-12 -61c29 -1 54 -12 64 -20l-15 -31c-11 7 -30 19 -67 19c-47 0 -76 -30 -76 -66c0 -27 14 -43 61 -67 c49 -25 71 -55 71 -94c0 -64 -47 -106 -112 -114z"></glyph><glyph glyph-name="cent.numerator" unicode="" d="M254 256h-32l13 62c-35 5 -57 19 -73 41c-15 21 -22 47 -22 73c0 94 71 169 153 178l11 62h31l-11 -61c21 0 49 -9 59 -17l-16 -31c-14 9 -33 16 -64 16c-57 0 -120 -59 -120 -144c0 -48 28 -85 82 -85c29 0 52 9 67 16l6 -32c-12 -7 -44 -16 -73 -16z"></glyph><glyph glyph-name="hyphenminus.numerator" unicode="" d="M130 463h141l-7 -33h-140z"></glyph><glyph glyph-name="parenleft.numerator" unicode="" d="M292 692h36c-61 -67 -130 -176 -130 -323c0 -50 10 -103 37 -163h-32c-26 49 -41 100 -41 167c0 149 74 260 130 319z"></glyph><glyph glyph-name="parenright.numerator" unicode="" d="M61 206h-37c61 68 131 177 131 323c0 50 -11 104 -38 163h32c26 -49 42 -100 42 -166c0 -149 -75 -260 -130 -320z"></glyph><glyph glyph-name="zero.denominator" unicode="" d="M117 -7c-71 0 -97 57 -97 135c0 137 73 269 172 269c73 0 96 -61 96 -121c0 -137 -66 -283 -171 -283zM124 26c78 0 123 155 123 244c0 33 -6 94 -60 94c-71 0 -126 -128 -126 -239c0 -43 10 -99 63 -99z"></glyph><glyph glyph-name="one.denominator" unicode="" d="M135 0h-39l67 350h-2l-68 -33l-5 32l86 41h35z"></glyph><glyph glyph-name="two.denominator" unicode="" d="M174 0h-238l5 28l72 59c99 82 165 141 165 211c0 29 -14 62 -66 62c-34 0 -66 -19 -83 -32l-14 28c28 22 67 39 106 39c71 0 100 -49 100 -97c0 -79 -84 -151 -179 -227l-42 -34v-2h181z"></glyph><glyph glyph-name="three.denominator" unicode="" d="M36 333l-11 29c21 17 60 33 95 33c71 0 96 -42 96 -83c0 -46 -37 -82 -87 -99l-1 -2c43 -12 68 -51 67 -91c-1 -71 -57 -125 -150 -125c-41 0 -78 14 -93 26l15 31c15 -10 44 -24 82 -24c70 0 105 44 105 90c0 55 -50 76 -95 76h-21l6 31h23c48 0 107 34 107 82 c0 31 -16 54 -63 54c-27 0 -57 -14 -75 -28z"></glyph><glyph glyph-name="four.denominator" unicode="" d="M169 0h-39l22 112h-176l6 26l222 254h40l-47 -247h57l-7 -33h-57zM158 145l28 145c4 21 9 40 13 55l-2 1c-16 -21 -26 -39 -41 -57l-126 -142v-2h128z"></glyph><glyph glyph-name="five.denominator" unicode="" d="M243 390l-8 -35h-138l-34 -109c8 1 14 1 22 1c15 0 43 -4 65 -15c36 -18 51 -55 51 -88c0 -96 -77 -151 -158 -151c-37 0 -71 13 -83 22l13 32c15 -9 43 -20 76 -20c59 0 110 49 110 107c0 41 -19 80 -97 80c-16 0 -28 -2 -45 -3l54 179h172z"></glyph><glyph glyph-name="six.denominator" unicode="" d="M280 397l-6 -36c-10 0 -25 -1 -41 -5c-77 -17 -134 -74 -161 -155l1 -1c24 34 67 57 105 57c65 0 97 -48 97 -107c0 -77 -62 -157 -145 -157c-73 0 -110 53 -110 127c0 94 53 177 102 218c30 24 64 42 104 51c17 5 35 7 54 8zM135 26c54 0 98 60 98 122 c0 49 -25 76 -69 76c-34 0 -71 -23 -94 -60c-4 -6 -6 -13 -7 -20c-2 -7 -2 -19 -2 -31c0 -51 24 -87 74 -87z"></glyph><glyph glyph-name="seven.denominator" unicode="" d="M39 390h232l-5 -30c-55 -86 -168 -258 -235 -360h-45c71 106 173 262 233 353v2h-186z"></glyph><glyph glyph-name="eight.denominator" unicode="" d="M185 397c55 0 97 -33 97 -88c0 -46 -32 -81 -79 -103v-1c44 -23 60 -59 60 -94c0 -77 -69 -118 -135 -118c-73 0 -118 42 -118 97c0 60 44 100 95 119v2c-33 22 -44 49 -44 77c0 62 55 109 124 109zM130 24c51 0 91 33 91 83c0 41 -23 68 -78 85c-45 -11 -91 -41 -91 -97 c0 -35 25 -71 78 -71zM177 366c-43 0 -77 -36 -77 -75c0 -32 18 -56 64 -70c42 12 77 41 77 83c0 26 -13 62 -64 62z"></glyph><glyph glyph-name="nine.denominator" unicode="" d="M22 -7l5 36c11 -1 25 0 39 2c29 5 60 19 89 44c28 25 55 61 75 112l-2 1c-28 -34 -66 -50 -99 -50c-67 0 -95 54 -95 102c0 80 64 157 144 157c74 0 104 -57 104 -122c0 -102 -61 -192 -105 -228c-33 -27 -72 -44 -110 -51c-16 -3 -32 -4 -45 -3zM173 364 c-52 0 -98 -55 -98 -120c0 -38 20 -72 65 -72c36 0 68 21 89 52c4 5 6 10 8 16c2 10 4 26 4 40c0 48 -20 84 -68 84z"></glyph><glyph glyph-name="period.denominator" unicode="" d="M20 -7c-16 0 -28 14 -28 32c0 19 13 35 32 35s30 -14 30 -33s-13 -34 -34 -34z"></glyph><glyph glyph-name="comma.denominator" unicode="" d="M-60 -71l-32 -4c17 31 45 96 58 137l50 6c-20 -49 -58 -116 -76 -139z"></glyph><glyph glyph-name="dollar.denominator" unicode="" d="M80 -51h-31l12 61c-27 1 -61 13 -77 26l13 32c20 -14 45 -25 79 -25c46 0 85 29 85 74c0 26 -13 50 -53 69c-54 27 -77 57 -77 94c0 53 45 98 104 103l13 61h31l-12 -61c29 -1 54 -12 64 -20l-15 -31c-11 7 -30 19 -67 19c-47 0 -76 -30 -76 -66c0 -27 14 -43 60 -67 c49 -25 71 -55 71 -94c0 -64 -47 -106 -112 -114z"></glyph><glyph glyph-name="cent.denominator" unicode="" d="M148 -10h-32l13 62c-35 5 -57 19 -73 41c-15 21 -22 47 -22 73c0 94 71 169 153 178l11 62h31l-11 -61c21 0 49 -9 59 -16l-16 -32c-14 9 -33 16 -64 16c-57 0 -120 -59 -120 -144c0 -48 28 -85 82 -85c29 0 52 9 67 16l6 -32c-12 -7 -44 -16 -73 -16z"></glyph><glyph glyph-name="hyphenminus.denominator" unicode="" d="M24 197h141l-7 -33h-140z"></glyph><glyph glyph-name="parenleft.denominator" unicode="" d="M186 425h36c-61 -67 -130 -176 -130 -322c0 -50 10 -104 37 -164h-32c-26 50 -41 101 -41 167c0 149 74 260 130 319z"></glyph><glyph glyph-name="parenright.denominator" unicode="" d="M-43 -61h-37c61 69 131 177 131 323c0 50 -11 104 -38 163h32c26 -49 42 -100 42 -166c0 -149 -75 -259 -130 -320z"></glyph><glyph glyph-name="at.cap" unicode="" d="M513 351l25 124c-12 5 -32 10 -62 10c-102 0 -186 -94 -186 -205c0 -48 27 -84 78 -84c70 0 132 91 145 155zM556 66l15 -35c-51 -32 -111 -43 -170 -43c-174 0 -301 121 -301 312c0 207 139 386 359 386c173 0 283 -123 283 -289c0 -153 -85 -238 -170 -238 c-35 0 -74 27 -67 94h-4c-38 -64 -85 -94 -150 -94c-53 0 -104 46 -104 122c0 126 102 241 238 241c42 0 74 -8 100 -19l-36 -179c-18 -87 -4 -127 33 -127c56 -2 116 75 116 191c0 155 -90 261 -246 261c-169 0 -308 -135 -308 -346c0 -166 105 -276 263 -276 c52 0 109 14 149 39z"></glyph><glyph glyph-name="emdash.cap" unicode="" d="M102 349h940l-8 -39h-940z"></glyph><glyph glyph-name="endash.cap" unicode="" d="M102 349h440l-8 -39h-440z"></glyph><glyph glyph-name="exclamdown.cap" unicode="" d="M125 0h-57l104 493h39zM222 682c22 0 38 -20 38 -44c0 -26 -18 -46 -42 -46c-25 0 -39 20 -39 45c0 23 16 45 43 45z"></glyph><glyph glyph-name="guillemotleft.cap" unicode="" d="M311 507l-157 -182l106 -178h-46l-108 180l156 180h49zM457 507l-157 -182l106 -178h-46l-108 180l155 180h50z"></glyph><glyph glyph-name="guillemotright.cap" unicode="" d="M203 329l-106 178h46l108 -180l-156 -180h-49zM349 329l-106 178h46l108 -180l-156 -180h-49z"></glyph><glyph glyph-name="guilsinglleft.cap" unicode="" d="M311 507l-157 -182l106 -178h-46l-108 180l156 180h49z"></glyph><glyph glyph-name="guilsinglright.cap" unicode="" d="M203 329l-106 178h46l108 -180l-156 -180h-49z"></glyph><glyph glyph-name="hyphenminus.cap" unicode="" d="M120 371h227l-8 -42h-227z"></glyph><glyph glyph-name="questiondown.cap" unicode="" d="M281 496h43c0 -9 -1 -17 -2 -26c-2 -55 -34 -121 -103 -192c-49 -50 -89 -104 -89 -167c0 -43 21 -85 87 -85c32 0 65 9 94 27l14 -38c-37 -20 -79 -31 -114 -31c-103 0 -129 76 -129 127c0 66 45 131 108 195c56 57 82 105 87 159zM330 682c22 0 38 -20 38 -44 c0 -26 -18 -46 -42 -46c-25 0 -39 20 -39 45c0 23 16 45 43 45z"></glyph><glyph glyph-name="braceleft.cap" unicode="" d="M84 312l6 34c69 -2 88 39 95 78c11 58 4 114 15 173c17 91 76 129 152 129h15l-7 -36h-19c-57 0 -87 -34 -99 -95c-11 -56 -3 -108 -13 -162c-10 -60 -41 -93 -82 -104v-2c36 -11 46 -41 46 -69c0 -36 -13 -78 -29 -117c-14 -38 -28 -75 -28 -104c0 -39 17 -71 67 -72h18 l-7 -36h-11c-65 0 -109 38 -109 100c0 41 15 82 30 120c14 39 28 76 28 106c0 13 1 59 -68 57z"></glyph><glyph glyph-name="braceright.cap" unicode="" d="M223 343l-6 -34c-69 2 -88 -39 -95 -79c-11 -57 -4 -114 -15 -173c-17 -90 -76 -128 -152 -128h-15l7 36h19c57 0 87 35 99 95c11 56 3 108 13 162c10 58 41 93 82 104v2c-36 11 -46 42 -46 69c0 35 15 75 28 116c14 39 28 77 28 104c0 40 -17 72 -67 73h-18l7 36h11 c65 0 109 -38 109 -100c0 -43 -14 -84 -29 -122c-14 -39 -28 -73 -28 -105c0 -13 -1 -58 68 -56z"></glyph><glyph glyph-name="bracketleft.cap" unicode="" d="M239 -71h-159l152 797h159l-7 -36h-117l-138 -725h117z"></glyph><glyph glyph-name="bracketright.cap" unicode="" d="M62 726h159l-152 -797h-159l7 36h117l138 725h-117z"></glyph><glyph glyph-name="parenleft.cap" unicode="" d="M380 733h47c-106 -114 -221 -294 -221 -535c0 -87 18 -179 64 -277h-39c-45 85 -69 171 -69 283c0 243 127 429 218 529z"></glyph><glyph glyph-name="parenright.cap" unicode="" d="M-37 -79h-47c106 115 221 296 221 536c0 87 -18 180 -64 276h39c45 -83 69 -169 69 -282c0 -243 -127 -428 -218 -530z"></glyph><glyph glyph-name="periodcentered.cap" unicode="" d="M180 293c-22 0 -38 20 -38 44c0 26 18 46 42 46c25 0 39 -20 39 -44s-16 -46 -43 -46z"></glyph><glyph glyph-name="lessthanorequalto" unicode="≤" d="M485 165l-379 180l5 34l429 180l-8 -54l-343 -143l303 -143zM58 0l7 49h403l-7 -49h-403z"></glyph><glyph glyph-name="greaterthanorequalto" unicode="≥" d="M139 559l378 -180l-5 -34l-429 -180l8 54l343 143l-303 143zM60 0l7 49h403l-6 -49h-404z"></glyph><glyph glyph-name="almostequalto" unicode="≈" d="M477 388c-29 0 -65 10 -110 29s-79 28 -100 28c-42 0 -84 -19 -125 -57l4 22c14 21 33 39 58 55c25 15 53 23 85 23c28 0 65 -10 110 -29s79 -29 100 -29c41 0 83 19 124 58l-3 -22c-9 -13 -20 -25 -32 -36c-13 -11 -29 -21 -48 -29c-20 -9 -41 -13 -63 -13zM452 213 c-28 0 -65 10 -110 29s-79 29 -100 29c-41 0 -83 -19 -124 -58l3 22c14 21 33 40 58 55s53 23 85 23c29 0 66 -9 111 -28s78 -29 99 -29c42 0 83 19 124 57l-3 -22c-9 -13 -19 -25 -31 -36c-13 -11 -29 -20 -49 -29s-41 -13 -63 -13z"></glyph><glyph glyph-name="notequalto" unicode="≠" d="M596 155h-310l-85 -134h-44l86 134h-163v40h188l97 150h-285v40h310l85 134h44l-86 -134h163v-40h-188l-97 -150h285v-40z"></glyph><glyph glyph-name="infinity" unicode="∞" d="M572 128c-74 0 -127 62 -175 109c-51 -52 -105 -109 -184 -109c-77 0 -133 55 -133 135c0 75 62 137 141 137c75 0 128 -62 176 -110c51 52 105 110 184 110c77 0 133 -55 133 -137c0 -73 -62 -135 -142 -135zM576 168c55 0 96 44 96 95c0 56 -39 97 -94 97 c-64 0 -115 -55 -154 -97c43 -40 86 -95 152 -95zM217 168c63 0 114 54 153 95c-43 40 -86 97 -151 97c-56 0 -97 -45 -97 -97c0 -54 39 -95 95 -95z"></glyph><glyph glyph-name="lozenge" unicode="◊" d="M503 325l-239 -352h-42l-114 352l239 352h42zM456 324l-91 292c-2 6 -3 12 -4 19h-2c-3 -7 -8 -13 -12 -19l-192 -290l91 -292c2 -6 3 -12 4 -19h2c3 7 8 13 12 19z"></glyph><glyph glyph-name="integral" unicode="∫" d="M275 780l-15 -35c-7 2 -17 4 -27 4c-80 0 -100 -125 -110 -187c-22 -136 -46 -342 -70 -481c-15 -93 -48 -222 -154 -222c-19 0 -32 5 -41 9l11 34c7 -2 19 -5 33 -5c80 0 100 131 110 186c23 139 47 349 69 482c15 91 49 222 159 222c15 0 27 -3 35 -7z"></glyph><glyph glyph-name="partialdifferential" unicode="∂" d="M159 641l-16 32c38 26 91 50 160 50c112 0 216 -97 216 -290c0 -225 -116 -444 -292 -444c-107 0 -157 85 -157 177c0 142 104 267 245 267c72 0 134 -52 151 -97h1c6 32 9 66 9 98c0 173 -93 248 -177 248c-64 0 -110 -20 -140 -41zM235 30c112 0 192 118 221 252 c-18 59 -79 110 -149 110c-107 0 -189 -97 -189 -224c0 -83 43 -138 117 -138z"></glyph><glyph glyph-name="naryproduct" unicode="∏" d="M665 610h-77l-143 -700h-45l144 700h-288l-143 -700h-45l143 700h-79l8 40h534z"></glyph><glyph glyph-name="squareroot" unicode="√" d="M644 819l-376 -923h-38l-75 438l-74 -30l-9 32l117 48l61 -376c3 -16 5 -37 6 -52h1c5 14 13 36 19 52l327 811h41z"></glyph><glyph glyph-name="narysummation" unicode="∑" d="M402 -90h-470l5 31l318 341l-186 335l6 33h423l-7 -40h-368l-1 -3l182 -328l-301 -326v-3h406z"></glyph><glyph glyph-name="increment" unicode="∆" d="M511 0h-501l6 32l340 626h46l115 -626zM69 40h401l-73 403c-9 50 -21 120 -27 165h-2c-17 -37 -45 -92 -71 -143z"></glyph><glyph glyph-name="Ohmsign-grek" unicode="Ω" d="M143 39v4c-51 51 -95 141 -95 240c0 223 143 402 338 402c152 0 248 -117 248 -267c0 -174 -102 -309 -199 -375v-4h145l-7 -39h-218l6 34c102 57 226 202 226 378c0 112 -64 234 -206 234c-187 0 -286 -202 -286 -349c0 -130 53 -219 111 -263l-7 -34h-217l7 39h154z "></glyph><glyph glyph-name="pi-grek" unicode="π" d="M520 442h-72l-55 -301c-16 -90 -15 -119 -11 -141h-42c-5 14 -9 44 7 135l57 307h-182c-8 -33 -16 -70 -26 -108c-34 -127 -85 -272 -129 -334h-45c46 69 95 201 129 331c10 38 19 76 27 111c-50 0 -83 -4 -106 -11l-3 29c19 13 51 20 113 20h348z"></glyph><glyph glyph-name="aringacute" unicode="ǻ" d="M437 0h-43c-2 30 5 83 13 142l-1 1c-57 -113 -126 -154 -202 -154c-85 0 -134 68 -134 153c0 171 133 349 325 349c39 0 82 -6 111 -14l-48 -250c-19 -97 -24 -178 -21 -227zM423 277l32 167c-12 4 -32 8 -68 8c-145 0 -269 -140 -270 -302c-1 -57 18 -122 97 -122 c86 0 185 115 209 249zM483 835h78l-155 -111h-44zM387 700c50 0 87 -37 87 -90c0 -54 -45 -90 -90 -90c-52 0 -90 38 -90 87c0 53 40 93 93 93zM384 670c-30 0 -52 -27 -52 -62c0 -31 21 -58 51 -58s53 27 53 64c0 31 -20 56 -52 56z"></glyph><glyph glyph-name="Abreve" unicode="Ă" d="M378 785c-25 0 -47 5 -65 14c-19 9 -33 22 -42 37s-16 31 -19 48s-4 33 -2 50h38c-3 -25 3 -47 20 -68c16 -21 42 -31 77 -31c19 0 36 3 52 10c15 6 28 14 38 24s18 21 24 32s10 22 11 33h39c-3 -17 -8 -33 -16 -50c-9 -17 -20 -33 -33 -48s-31 -28 -52 -37 s-45 -14 -70 -14zM510 0l-63 254h-312l-135 -254h-42l382 714h57l182 -714h-69zM156 292h282l-90 360z"></glyph><glyph glyph-name="Amacron" unicode="Ā" d="M376 237h-256l-124 -237h-46l360 674h44l102 -674h-44zM143 276h227l-34 225c-4 34 -10 81 -14 119h-2c-18 -39 -34 -75 -56 -117zM236 772h217l-7 -39h-217z"></glyph><glyph glyph-name="Aogonek" unicode="Ą" d="M354 674l103 -674h-10c-36 -39 -64 -84 -64 -120c0 -25 16 -40 38 -40c13 0 27 3 41 11l10 -29c-19 -16 -44 -20 -66 -20c-44 0 -69 29 -69 70c0 54 57 114 73 134l-34 231h-256l-124 -237h-46l360 674h44zM143 276h228l-35 225c-4 34 -10 81 -13 119h-3 c-18 -39 -34 -75 -56 -117z"></glyph><glyph glyph-name="i.dot" d="M121 0h-45l92 480h45zM213 577c-21 0 -33 19 -33 41c1 21 16 40 38 40s35 -18 35 -40c-2 -22 -15 -41 -40 -41z"></glyph><glyph glyph-name="Cacute" unicode="Ć" d="M518 62l10 -38c-39 -18 -101 -34 -173 -34c-164 0 -259 107 -259 275c0 112 42 235 128 317c70 65 158 102 258 102c76 0 130 -20 145 -35l-19 -36c-28 19 -77 31 -138 31c-78 0 -159 -33 -217 -89c-68 -68 -110 -174 -110 -281c0 -128 52 -245 221 -245 c53 0 114 11 154 33zM520 827h77l-140 -113h-44z"></glyph><glyph glyph-name="Ccaron" unicode="Č" d="M518 62l10 -38c-39 -18 -101 -34 -173 -34c-164 0 -259 107 -259 275c0 112 42 235 128 317c70 65 158 102 258 102c76 0 130 -20 145 -35l-19 -36c-28 19 -77 31 -138 31c-78 0 -159 -33 -217 -89c-68 -68 -110 -174 -110 -281c0 -128 52 -245 221 -245 c53 0 114 11 154 33zM477 714h-37l-80 113h49l52 -78h4l79 78h51z"></glyph><glyph glyph-name="Ccircumflex" unicode="Ĉ" d="M518 62l10 -38c-39 -18 -101 -34 -173 -34c-164 0 -259 107 -259 275c0 112 42 235 128 317c70 65 158 102 258 102c76 0 130 -20 145 -35l-19 -36c-28 19 -77 31 -138 31c-78 0 -159 -33 -217 -89c-68 -68 -110 -174 -110 -281c0 -128 52 -245 221 -245 c53 0 114 11 154 33zM455 823h37l80 -113h-47l-55 79h-2l-80 -79h-51z"></glyph><glyph glyph-name="Cdotaccent" unicode="Ċ" d="M518 62l10 -38c-39 -18 -100 -34 -173 -34c-164 0 -259 107 -259 275c0 112 42 235 128 317c70 65 158 102 259 102c75 0 129 -20 144 -35l-19 -36c-28 19 -77 31 -138 31c-78 0 -158 -33 -217 -89c-68 -68 -110 -174 -110 -281c0 -128 52 -245 221 -245 c53 0 114 11 154 33zM473 726c-20 0 -35 19 -35 39c0 19 17 40 39 40s36 -21 36 -39c0 -19 -16 -40 -40 -40z"></glyph><glyph glyph-name="Dcaron" unicode="Ď" d="M80 1l126 665c48 8 100 13 156 13c116 0 204 -37 249 -100c25 -33 46 -89 47 -166c0 -117 -44 -243 -133 -322c-78 -67 -176 -96 -295 -96c-45 0 -100 1 -150 6zM244 632l-112 -593c38 -5 77 -5 102 -5c125 0 208 34 272 97c70 68 105 173 105 277 c0 127 -58 233 -256 233c-33 0 -81 -2 -111 -9zM426 710h-37l-80 113h49l52 -78h4l79 78h51z"></glyph><glyph glyph-name="Ebreve" unicode="Ĕ" d="M442 375l-7 -39h-248l-56 -297h280l-8 -39h-325l128 674h309l-7 -39h-264l-50 -260h248zM266 825h35c0 -30 15 -56 66 -57c48 0 73 24 81 57h38c-9 -49 -48 -95 -120 -96c-79 0 -107 46 -100 96z"></glyph><glyph glyph-name="Ecaron" unicode="Ě" d="M443 375l-8 -39h-248l-56 -297h280l-8 -39h-325l129 674h309l-8 -39h-264l-49 -260h248zM375 710h-37l-80 113h50l52 -78h3l80 78h51z"></glyph><glyph glyph-name="Edotaccent" unicode="Ė" d="M442 375l-8 -39h-247l-56 -297h279l-8 -39h-324l128 674h309l-8 -39h-263l-50 -260h248zM368 726c-20 0 -35 19 -35 39c0 19 17 40 39 40s36 -21 36 -39c0 -19 -16 -40 -40 -40z"></glyph><glyph glyph-name="Emacron" unicode="Ē" d="M443 375l-8 -39h-248l-56 -297h280l-8 -39h-325l129 674h309l-8 -39h-264l-49 -260h248zM264 772h217l-7 -39h-217z"></glyph><glyph glyph-name="Eogonek" unicode="Ę" d="M78 0l128 674h310l-8 -39h-264l-50 -260h249l-8 -39h-249l-56 -297h281l-8 -39h-15c-47 -30 -95 -83 -95 -128c0 -21 13 -34 34 -34c15 0 30 3 44 9l10 -29c-22 -13 -42 -18 -67 -18c-41 0 -67 27 -67 64c0 62 65 116 94 136h-263z"></glyph><glyph glyph-name="Gbreve" unicode="Ğ" d="M603 333l-57 -306c-31 -14 -97 -34 -172 -34c-97 0 -170 29 -218 90c-50 62 -58 135 -58 190c0 103 42 226 128 306c70 64 162 102 265 102c80 0 130 -20 147 -32l-17 -38c-37 20 -80 30 -141 30c-87 0 -169 -36 -232 -99c-66 -66 -103 -174 -103 -264 c0 -141 64 -246 241 -246c44 0 91 10 120 24l45 238h-156l7 39h201zM361 823h35c0 -29 15 -56 66 -56c48 0 73 24 82 56h37c-9 -49 -48 -95 -120 -95c-79 0 -107 46 -100 95z"></glyph><glyph glyph-name="Gcircumflex" unicode="Ĝ" d="M603 333l-57 -306c-31 -14 -97 -34 -172 -34c-97 0 -170 29 -218 90c-50 62 -58 135 -58 190c0 103 42 226 128 306c70 64 162 102 265 102c80 0 130 -20 147 -32l-17 -38c-37 20 -80 30 -141 30c-87 0 -169 -36 -232 -99c-66 -66 -103 -174 -103 -264 c0 -141 64 -246 241 -246c44 0 91 10 120 24l45 238h-156l7 39h201zM469 823h37l80 -113h-47l-55 79h-2l-81 -79h-51z"></glyph><glyph glyph-name="Gcedilla" unicode="Ģ" d="M603 333l-57 -306c-31 -14 -97 -34 -172 -34c-97 0 -170 29 -218 90c-50 62 -58 135 -58 190c0 103 42 226 128 306c70 64 162 102 265 102c80 0 130 -20 147 -32l-17 -38c-37 20 -80 30 -141 30c-87 0 -169 -36 -232 -99c-66 -66 -103 -174 -103 -264 c0 -141 64 -246 241 -246c44 0 91 10 120 24l45 238h-156l7 39h201zM219 -209l-8 26c45 7 94 30 94 80c0 21 -12 39 -26 50l41 11c14 -10 29 -32 29 -57c0 -69 -67 -103 -130 -110z"></glyph><glyph glyph-name="Gdotaccent" unicode="Ġ" d="M603 333l-57 -306c-31 -14 -96 -34 -172 -34c-97 0 -170 29 -218 90c-50 62 -58 135 -58 190c0 103 42 226 128 306c70 64 163 102 265 102c80 0 130 -20 147 -32l-17 -38c-37 20 -80 30 -141 30c-87 0 -169 -36 -232 -99c-66 -66 -103 -174 -103 -264 c0 -141 64 -246 241 -246c44 0 91 10 120 24l45 238h-156l7 39h201zM478 726c-20 0 -35 19 -35 39c0 19 17 40 39 40s36 -21 36 -39c0 -19 -16 -40 -40 -40z"></glyph><glyph glyph-name="G_tildecomb" unicode="" d="M604 333l-57 -306c-32 -14 -98 -34 -174 -34c-96 0 -169 29 -217 90c-50 62 -58 135 -58 190c0 103 42 226 128 306c70 64 162 102 265 102c80 0 131 -20 148 -32l-18 -38c-37 20 -79 30 -141 30c-88 0 -169 -36 -232 -99c-66 -66 -103 -174 -103 -264 c0 -141 64 -246 240 -246c44 0 92 10 121 24l46 238h-157l7 39h202zM359 716h-32c8 44 34 85 71 85c27 0 40 -8 59 -21c15 -10 30 -17 46 -17c17 0 28 13 35 38h32c-9 -47 -31 -80 -72 -80c-24 0 -36 7 -58 20c-18 10 -28 19 -45 18c-18 -1 -29 -18 -36 -43z"></glyph><glyph glyph-name="Hcircumflex" unicode="Ĥ" d="M206 674h46l-58 -297h351l57 297h45l-129 -674h-45l64 338h-350l-64 -338h-45zM434 823h37l80 -113h-47l-55 79h-2l-80 -79h-51z"></glyph><glyph glyph-name="Ibreve" unicode="Ĭ" d="M206 674h46l-129 -674h-45zM148 825h35c0 -29 15 -56 66 -56c48 0 73 24 81 56h38c-9 -49 -48 -95 -120 -95c-79 0 -107 46 -100 95z"></glyph><glyph glyph-name="Idotaccent" unicode="İ" d="M206 674h45l-128 -674h-45zM244 726c-20 0 -35 19 -35 39c0 19 17 40 39 40s36 -21 36 -39c0 -19 -16 -40 -40 -40z"></glyph><glyph glyph-name="Imacron" unicode="Ī" d="M206 674h46l-129 -674h-45zM140 772h217l-7 -39h-217z"></glyph><glyph glyph-name="Iogonek" unicode="Į" d="M179 674l-129 -674h-8c-36 -39 -64 -84 -64 -120c0 -25 16 -40 38 -40c13 0 27 3 41 11l10 -29c-19 -16 -44 -20 -66 -20c-44 0 -69 29 -69 70c0 54 57 114 74 134l127 668h46z"></glyph><glyph glyph-name="Itilde" unicode="Ĩ" d="M102 821l4 31c9 15 21 28 38 40c16 12 34 18 55 18c19 0 42 -8 71 -24c28 -16 49 -24 62 -24c27 0 55 16 82 48l-4 -31c-5 -9 -12 -17 -20 -25c-8 -9 -19 -16 -32 -23s-27 -10 -41 -10c-19 0 -42 8 -70 25c-29 16 -50 24 -64 24c-10 0 -21 -3 -32 -8 c-11 -6 -21 -12 -28 -19c-8 -7 -15 -14 -21 -22zM206 714h62l-100 -714h-62z"></glyph><glyph glyph-name="Jcircumflex" unicode="Ĵ" d="M192 203l89 471h45l-90 -475c-28 -150 -89 -210 -199 -210c-39 0 -79 10 -93 18l12 39c22 -11 50 -16 87 -16c76 0 124 41 149 173zM311 823h37l80 -113h-47l-55 79h-2l-80 -79h-51z"></glyph><glyph glyph-name="Kcedilla" unicode="Ķ" d="M78 0l128 674h45l-65 -344l5 1c25 28 49 52 70 74l268 269h57l-290 -289l183 -385h-49l-169 354l-85 -79l-53 -275h-45zM132 -209l-8 26c45 8 94 30 94 80c0 22 -12 39 -26 50l41 11c14 -10 29 -32 29 -56c0 -70 -67 -103 -130 -111z"></glyph><glyph glyph-name="Lacute" unicode="Ĺ" d="M78 0l129 674h45l-122 -635h280l-8 -39h-324zM327 823h77l-140 -113h-44z"></glyph><glyph glyph-name="Lcaron" unicode="Ľ" d="M78 0l129 674h45l-122 -635h280l-8 -39h-324zM300 510l-8 27c45 7 94 30 94 80c0 21 -12 39 -26 50l41 11c14 -10 29 -32 29 -57c0 -69 -67 -103 -130 -111z"></glyph><glyph glyph-name="Lcedilla" unicode="Ļ" d="M78 0l128 674h45l-121 -635h279l-8 -39h-323zM123 -209l-8 26c45 8 94 30 94 80c0 22 -12 39 -26 50l41 11c14 -10 29 -32 29 -56c0 -70 -67 -103 -130 -111z"></glyph><glyph glyph-name="Lmiddledot" unicode="Ŀ" d="M78 0l129 674h45l-122 -635h279l-7 -39h-324zM344 320c-20 0 -35 19 -35 39s17 41 39 41s36 -21 36 -39c0 -20 -16 -41 -40 -41z"></glyph><glyph glyph-name="M_circumflexcomb" unicode="" d="M669 0h-44l52 417c8 59 23 161 32 206h-4c-27 -56 -62 -128 -99 -194l-239 -429h-33l-66 419c-13 79 -20 148 -26 204h-2c-11 -45 -33 -147 -48 -206l-107 -417h-45l178 674h52l73 -467c9 -53 17 -106 19 -141h3c16 35 41 84 71 137l260 471h55zM491 823h37l80 -113h-47 l-55 79h-2l-81 -79h-51z"></glyph><glyph glyph-name="Nacute" unicode="Ń" d="M122 0h-44l128 674h43l195 -458c31 -71 44 -114 57 -162l2 1c4 56 10 101 27 192l81 427h44l-128 -674h-41l-190 450c-35 79 -48 117 -61 170l-3 -2c-7 -61 -15 -111 -30 -194zM499 823h77l-140 -113h-44z"></glyph><glyph glyph-name="Ncaron" unicode="Ň" d="M122 0h-44l128 674h43l195 -458c31 -71 44 -114 57 -162l2 1c4 56 10 101 27 192l81 427h44l-128 -674h-41l-190 450c-35 79 -48 117 -61 170l-3 -2c-7 -61 -15 -111 -30 -194zM455 710h-37l-80 113h49l52 -78h4l79 78h51z"></glyph><glyph glyph-name="N_circumflexcomb" unicode="" d="M122 0h-44l128 674h43l195 -458c31 -71 44 -114 57 -162l2 1c4 56 10 101 27 192l81 427h44l-128 -674h-41l-190 450c-35 79 -48 117 -61 170l-3 -2c-7 -61 -15 -111 -30 -194zM438 823h37l80 -113h-47l-55 79h-2l-81 -79h-51z"></glyph><glyph glyph-name="Ncedilla" unicode="Ņ" d="M122 0h-44l129 674h42l195 -458c31 -71 45 -114 58 -162l2 1c4 56 9 101 26 192l82 427h43l-128 -674h-41l-190 450c-35 79 -48 117 -60 170l-3 -2c-8 -61 -15 -111 -31 -194zM215 -209l-8 26c45 8 94 30 94 80c0 22 -12 39 -26 50l41 11c14 -10 29 -32 29 -56 c0 -70 -67 -103 -130 -111z"></glyph><glyph glyph-name="Obreve" unicode="Ŏ" d="M341 -11c-174 0 -245 135 -245 270c0 117 48 255 131 338c55 54 137 88 214 88c184 0 245 -139 245 -273c0 -114 -43 -248 -125 -331c-57 -58 -132 -92 -220 -92zM348 28c67 0 130 29 180 79c70 70 111 198 111 301s-32 238 -205 238c-69 0 -130 -30 -178 -78 c-71 -72 -113 -199 -113 -301c0 -119 52 -239 205 -239zM376 828h35c-1 -29 15 -56 66 -56c48 0 73 24 81 56h38c-9 -49 -48 -95 -120 -95c-79 0 -107 46 -100 95z"></glyph><glyph glyph-name="Odoubleacute" unicode="Ő" d="M341 -11c-174 0 -245 135 -245 270c0 117 48 255 131 338c55 54 137 88 214 88c184 0 245 -139 245 -273c0 -114 -43 -248 -125 -331c-57 -58 -132 -92 -220 -92zM348 28c67 0 130 29 180 79c70 70 111 198 111 301s-32 238 -205 238c-69 0 -130 -30 -178 -78 c-71 -72 -113 -199 -113 -301c0 -119 52 -239 205 -239zM465 822h68l-132 -109h-39zM591 822h68l-131 -109h-39z"></glyph><glyph glyph-name="Omacron" unicode="Ō" d="M341 -11c-174 0 -245 135 -245 270c0 117 48 255 131 338c55 54 137 88 214 88c184 0 245 -139 245 -273c0 -114 -43 -248 -125 -331c-57 -58 -132 -92 -220 -92zM348 28c67 0 130 29 180 79c70 70 111 198 111 301s-32 238 -205 238c-69 0 -130 -30 -178 -78 c-71 -72 -113 -199 -113 -301c0 -119 52 -239 205 -239zM368 772h217l-7 -39h-217z"></glyph><glyph glyph-name="Oslashacute" unicode="Ǿ" d="M57 -28l-25 24l81 89c-33 52 -48 102 -48 177c0 116 44 242 120 322c61 64 145 101 226 101c76 0 131 -22 171 -66l78 83l27 -23l-82 -89c36 -53 48 -113 48 -173c0 -116 -45 -249 -120 -330c-57 -62 -140 -98 -222 -98c-75 0 -133 23 -177 68zM146 123l408 462 c-32 37 -76 61 -151 61c-126 0 -233 -107 -273 -249c-24 -89 -26 -190 14 -274h2zM572 549l-407 -460c35 -39 80 -61 157 -61c110 0 217 96 261 236c26 84 36 194 -9 285h-2zM497 827h77l-140 -113h-44z"></glyph><glyph glyph-name="Racute" unicode="Ŕ" d="M78 0l127 666c38 9 86 13 126 13c70 0 122 -20 151 -55c24 -28 35 -64 35 -99c0 -97 -81 -177 -165 -198v-2c51 -14 76 -69 80 -143c7 -105 12 -155 19 -182h-48c-3 12 -10 90 -13 165c-5 100 -43 146 -116 146h-92l-59 -311h-45zM244 633l-54 -284h83 c122 0 196 82 196 172c0 83 -60 120 -147 120c-37 0 -61 -3 -78 -8zM420 823h78l-140 -113h-44z"></glyph><glyph glyph-name="Rcaron" unicode="Ř" d="M78 0l127 666c38 9 86 13 126 13c70 0 122 -20 151 -55c24 -28 35 -64 35 -99c0 -97 -81 -177 -165 -198v-2c51 -14 76 -69 80 -143c7 -105 12 -155 19 -182h-48c-3 12 -10 90 -13 165c-5 100 -43 146 -116 146h-92l-59 -311h-45zM244 633l-54 -284h83 c122 0 196 82 196 172c0 83 -60 120 -147 120c-37 0 -61 -3 -78 -8zM362 710h-37l-80 113h49l52 -78h4l79 78h51z"></glyph><glyph glyph-name="Rcedilla" unicode="Ŗ" d="M78 0l127 666c38 9 86 13 126 13c70 0 122 -20 151 -55c24 -28 35 -64 35 -99c0 -97 -81 -177 -165 -198v-2c51 -14 76 -69 80 -143c7 -105 12 -155 19 -182h-48c-3 12 -10 90 -13 165c-5 100 -43 146 -116 146h-92l-59 -311h-45zM244 633l-54 -284h83 c122 0 196 82 196 172c0 83 -60 120 -147 120c-37 0 -61 -3 -78 -8zM141 -209l-8 26c45 8 94 30 94 80c0 22 -12 39 -26 50l41 11c14 -10 29 -32 29 -56c0 -70 -67 -103 -130 -111z"></glyph><glyph glyph-name="Sacute" unicode="Ś" d="M38 35l19 37c34 -25 81 -43 133 -43c89 0 170 57 170 156c0 57 -27 102 -103 145c-95 51 -131 106 -131 169c0 111 94 185 204 185c56 0 105 -20 125 -36l-20 -36c-20 14 -59 33 -111 33c-93 0 -153 -68 -153 -134c0 -65 30 -100 109 -143c83 -46 125 -98 125 -182 c0 -96 -71 -197 -224 -197c-51 0 -117 21 -143 46zM392 824h77l-139 -113h-44z"></glyph><glyph glyph-name="Scedilla" unicode="Ş" d="M455 648l-20 -36c-20 14 -59 33 -111 33c-93 0 -153 -68 -153 -134c0 -65 30 -100 109 -143c83 -46 125 -98 125 -182c0 -82 -53 -168 -164 -191l-38 -50c30 -7 50 -30 50 -62c0 -46 -42 -81 -99 -81c-24 0 -47 7 -58 15l15 35c14 -9 32 -13 51 -13c26 0 48 15 48 40 c0 24 -26 36 -62 41l52 70c-6 0 -13 -1 -19 -1c-51 0 -117 21 -143 46l19 37c34 -25 81 -43 133 -43c89 0 170 57 170 156c0 57 -27 102 -103 145c-95 51 -131 106 -131 169c0 111 94 185 204 185c56 0 105 -20 125 -36z"></glyph><glyph glyph-name="Scircumflex" unicode="Ŝ" d="M38 35l19 37c34 -25 81 -43 133 -43c89 0 170 57 170 156c0 57 -27 102 -103 145c-95 51 -131 106 -131 169c0 111 94 185 204 185c56 0 105 -20 125 -36l-20 -36c-20 14 -59 33 -111 33c-93 0 -153 -68 -153 -134c0 -65 30 -100 109 -143c83 -46 125 -98 125 -182 c0 -96 -71 -197 -224 -197c-51 0 -117 21 -143 46zM332 823h37l80 -113h-48l-54 79h-2l-81 -79h-51z"></glyph><glyph glyph-name="Scommaaccent" unicode="Ș" d="M38 35l19 37c34 -25 81 -43 133 -43c89 0 170 57 170 156c0 57 -27 102 -103 145c-95 51 -131 106 -131 169c0 111 94 185 204 185c56 0 105 -20 125 -36l-20 -36c-20 14 -59 33 -111 33c-93 0 -153 -68 -153 -134c0 -65 30 -100 109 -143c83 -46 125 -98 125 -182 c0 -96 -71 -197 -224 -197c-51 0 -117 21 -143 46zM97 -210l-8 27c45 7 94 30 94 79c0 22 -12 40 -26 50l41 12c14 -10 29 -32 29 -57c0 -69 -67 -103 -130 -111z"></glyph><glyph glyph-name="Tcaron" unicode="Ť" d="M216 0l121 635h-209l8 39h462l-8 -39h-208l-121 -635h-45zM392 710h-37l-80 113h49l52 -78h3l80 78h51z"></glyph><glyph glyph-name="Tcedilla" unicode="Ţ" d="M218 0l120 635h-208l7 39h463l-8 -39h-209l-121 -635h-44zM143 -209l-8 26c45 8 94 30 94 80c0 22 -12 39 -26 50l41 11c14 -10 29 -32 29 -56c0 -70 -67 -103 -130 -111z"></glyph><glyph glyph-name="Ubreve" unicode="Ŭ" d="M249 674h45l-77 -407c-6 -30 -9 -61 -9 -87c0 -106 60 -151 142 -151c102 0 180 70 212 237l78 408h46l-80 -415c-39 -200 -145 -270 -264 -270c-94 0 -180 53 -180 189c0 29 3 61 9 92zM384 825h35c-1 -29 15 -56 66 -56c48 0 72 24 81 56h38c-9 -49 -49 -95 -120 -95 c-79 0 -107 46 -100 95z"></glyph><glyph glyph-name="Udoubleacute" unicode="Ű" d="M249 674h45l-77 -407c-6 -30 -9 -61 -9 -87c0 -106 60 -151 142 -151c102 0 180 70 212 237l78 408h46l-80 -415c-39 -200 -145 -270 -264 -270c-94 0 -180 53 -180 189c0 29 3 61 9 92zM479 822h67l-131 -109h-39zM605 822h68l-131 -109h-39z"></glyph><glyph glyph-name="Umacron" unicode="Ū" d="M249 674h45l-77 -407c-6 -30 -9 -61 -9 -87c0 -106 60 -151 142 -151c102 0 180 70 212 237l78 408h46l-80 -415c-39 -200 -145 -270 -264 -270c-94 0 -180 53 -180 189c0 29 3 61 9 92zM377 772h217l-7 -39h-217z"></glyph><glyph glyph-name="Uogonek" unicode="Ų" d="M436 -131l5 -32c-18 -10 -36 -14 -58 -14c-45 0 -72 25 -72 64c0 38 29 74 61 103c-10 -1 -20 -1 -30 -1c-94 0 -180 53 -180 189c0 29 3 61 9 92l78 404h45l-77 -407c-6 -30 -9 -61 -9 -87c0 -106 60 -151 142 -151c102 0 180 70 212 237l78 408h46l-80 -415 c-24 -128 -76 -202 -142 -240c-23 -13 -52 -32 -67 -46c-23 -22 -40 -48 -40 -76c0 -24 17 -36 37 -36c15 0 28 2 42 8z"></glyph><glyph glyph-name="Uring" unicode="Ů" d="M249 674h45l-77 -407c-6 -30 -9 -61 -9 -87c0 -106 60 -151 142 -151c102 0 180 70 212 237l78 408h46l-80 -415c-39 -200 -145 -270 -264 -270c-94 0 -180 53 -180 189c0 29 3 61 9 92zM480 863c52 0 86 -36 86 -84c0 -50 -42 -85 -90 -85c-51 0 -87 36 -87 81 c0 49 38 88 91 88zM477 835c-28 0 -48 -25 -48 -59c0 -29 19 -53 47 -53c29 0 50 24 50 57c0 31 -18 55 -49 55z"></glyph><glyph glyph-name="Utilde" unicode="Ũ" d="M363 821l5 31c9 15 21 28 37 40s34 18 55 18c19 0 43 -8 71 -24s49 -24 62 -24c27 0 55 16 83 48l-5 -31c-9 -15 -21 -28 -37 -40c-17 -12 -35 -18 -55 -18c-19 0 -43 8 -71 25c-29 16 -50 24 -63 24c-15 0 -30 -5 -45 -15s-27 -21 -37 -34zM725 714h38l-65 -465 c-10 -71 -46 -132 -107 -183s-130 -76 -207 -76s-138 25 -185 76s-66 112 -56 183l66 465h62l-65 -465c-9 -61 6 -113 45 -155c38 -43 88 -64 151 -64s119 21 169 64c50 42 79 94 88 155z"></glyph><glyph glyph-name="Wacute" unicode="Ẃ" d="M284 0h-45l-37 674h45l22 -468c5 -91 3 -118 3 -149h3c11 30 22 59 63 143l228 474h46l23 -441c6 -92 7 -145 7 -176h2c18 51 35 93 60 148l222 469h47l-322 -674h-45l-25 449c-5 78 -5 98 -1 176h-3c-21 -60 -36 -99 -60 -146zM661 823h77l-140 -113h-44z"></glyph><glyph glyph-name="Wcircumflex" unicode="Ŵ" d="M284 0h-45l-37 674h45l22 -468c5 -91 3 -118 3 -149h3c11 30 22 59 63 143l228 474h46l23 -441c6 -92 7 -145 7 -176h2c18 51 35 93 60 148l222 469h47l-322 -674h-45l-25 449c-5 78 -5 98 -1 176h-3c-21 -60 -36 -99 -60 -146zM597 823h37l80 -113h-48l-54 79h-2 l-81 -79h-51z"></glyph><glyph glyph-name="Wdieresis" unicode="Ẅ" d="M284 0h-45l-37 674h45l22 -468c5 -91 3 -118 3 -149h3c11 30 22 59 63 143l228 474h46l23 -441c6 -92 7 -145 7 -176h2c18 51 35 93 60 148l222 469h47l-322 -674h-45l-25 449c-5 78 -5 98 -1 176h-3c-21 -60 -36 -99 -60 -146zM518 726c-20 0 -35 19 -35 39 c0 19 17 40 39 40s36 -21 36 -39c0 -19 -16 -40 -40 -40zM688 726c-20 0 -35 19 -35 39c0 19 17 40 39 40s36 -21 36 -39c0 -19 -16 -40 -40 -40z"></glyph><glyph glyph-name="Wgrave" unicode="Ẁ" d="M284 0h-45l-37 674h45l22 -468c5 -91 3 -118 3 -149h3c11 30 22 59 63 143l228 474h46l23 -441c6 -92 7 -145 7 -176h2c18 51 35 93 60 148l222 469h47l-322 -674h-45l-25 449c-5 78 -5 98 -1 176h-3c-21 -60 -36 -99 -60 -146zM479 823h69l74 -113h-37z"></glyph><glyph glyph-name="Ycircumflex" unicode="Ŷ" d="M304 0h-45l54 283l-129 391h48l79 -247c20 -62 26 -86 30 -107h2c14 22 39 61 74 111l173 243h51l-284 -392zM413 823h37l80 -113h-47l-55 79h-2l-81 -79h-51z"></glyph><glyph glyph-name="Ygrave" unicode="Ỳ" d="M694 714h47l-322 -409l-42 -305h-63l43 305l-201 409h74l176 -369zM484 784h-48l-121 156h81z"></glyph><glyph glyph-name="Ymacron" unicode="Ȳ" d="M304 0h-45l54 283l-129 391h48l79 -247c20 -62 26 -86 30 -107h2c14 22 39 61 74 111l173 243h51l-284 -392zM330 772h217l-7 -39h-217z"></glyph><glyph glyph-name="Zacute" unicode="Ź" d="M-32 0l6 31l498 601l-1 3h-349l8 39h410l-7 -32l-497 -600l2 -3h386l-8 -39h-448zM409 823h77l-140 -113h-44z"></glyph><glyph glyph-name="Zdotaccent" unicode="Ż" d="M-30 0l5 31l498 601v3h-349l7 39h410l-6 -32l-497 -600l1 -3h386l-7 -39h-448zM338 726c-20 0 -35 19 -35 39c0 19 17 40 39 40s36 -21 36 -39c0 -19 -16 -40 -40 -40z"></glyph><glyph glyph-name="AEacute" unicode="Ǽ" d="M-58 0h-48l469 674h317l-8 -39h-248l-31 -261h236l-8 -39h-233l-34 -296h259l-8 -39h-298l30 271h-207zM157 309h186l25 214c4 33 10 81 15 116h-4c-19 -31 -44 -71 -71 -110zM548 823h77l-139 -113h-44z"></glyph><glyph glyph-name="abreve" unicode="ă" d="M373 606c-25 0 -47 5 -65 14c-19 9 -32 22 -41 37s-16 31 -19 48c-4 17 -5 33 -2 50h37c-3 -25 3 -47 20 -68c16 -21 42 -31 77 -31c36 0 65 10 87 31s35 43 38 68h39c-3 -17 -8 -33 -16 -50c-9 -17 -20 -33 -33 -48s-31 -28 -52 -37s-45 -14 -70 -14zM514 535h61 l-76 -535h-61l21 147c-22 -45 -53 -82 -92 -112s-81 -45 -125 -45c-60 0 -107 26 -142 79c-35 52 -46 118 -35 197c11 81 44 148 97 201c53 52 112 78 179 78c62 0 116 -31 161 -92zM260 29c39 0 77 16 112 49c35 32 67 74 95 127l29 203c-42 65 -92 98 -149 98 c-52 0 -99 -23 -142 -70s-69 -104 -78 -171c-5 -40 -4 -78 5 -113c8 -36 23 -65 46 -88s50 -35 82 -35z"></glyph><glyph glyph-name="amacron" unicode="ā" d="M437 0h-43c-2 30 5 83 13 143h-2c-57 -113 -126 -154 -201 -154c-85 0 -134 68 -134 153c0 171 133 349 325 349c39 0 82 -6 111 -14l-48 -250c-19 -97 -24 -178 -21 -227zM423 277l32 167c-12 4 -33 8 -69 8c-145 0 -268 -140 -269 -302c-1 -57 18 -122 97 -122 c86 0 184 115 209 249zM267 635h202l-7 -38h-202z"></glyph><glyph glyph-name="aogonek" unicode="ą" d="M506 477l-48 -250c-19 -97 -24 -178 -21 -227h-7c-36 -39 -64 -84 -64 -120c0 -25 16 -40 38 -40c13 0 27 3 41 11l10 -29c-19 -16 -44 -20 -66 -20c-44 0 -69 29 -69 70c0 54 57 114 74 134c0 30 5 81 13 137h-2c-57 -113 -126 -154 -201 -154c-85 0 -134 68 -134 154 c0 170 133 348 325 348c39 0 82 -6 111 -14zM423 277l32 167c-12 4 -32 8 -69 8c-145 0 -268 -140 -269 -302c-1 -57 18 -122 97 -122c86 0 184 115 209 249z"></glyph><glyph glyph-name="a.superior" d="M356 266h-37c0 19 1 46 6 72l-2 -1c-28 -48 -72 -76 -118 -76c-59 0 -91 49 -91 113c0 109 77 217 205 217c24 0 63 -6 82 -13l-37 -210c-6 -37 -8 -74 -8 -102zM337 431l23 119c-13 4 -30 7 -53 7c-78 0 -152 -71 -152 -178c-1 -40 12 -83 61 -83c52 0 109 61 121 135z "></glyph><glyph glyph-name="cacute" unicode="ć" d="M379 60l13 -38c-21 -11 -72 -32 -142 -32c-127 0 -174 90 -174 178c0 160 117 323 283 323c47 0 91 -17 101 -25l-16 -39c-21 11 -51 22 -92 22c-140 0 -229 -146 -229 -274c0 -85 40 -146 135 -146c54 0 97 18 121 31zM389 678h74l-135 -138h-40z"></glyph><glyph glyph-name="ccaron" unicode="č" d="M379 60l13 -38c-21 -11 -72 -32 -142 -32c-127 0 -174 90 -174 178c0 160 117 323 283 323c47 0 91 -17 101 -25l-16 -39c-21 11 -51 22 -92 22c-140 0 -229 -146 -229 -274c0 -85 40 -146 135 -146c54 0 97 18 121 31zM355 540h-36l-66 138h43l45 -100h3l79 100h46z"></glyph><glyph glyph-name="ccircumflex" unicode="ĉ" d="M379 60l13 -38c-21 -11 -72 -32 -142 -32c-127 0 -174 90 -174 178c0 160 117 323 283 323c47 0 91 -17 101 -25l-16 -39c-21 11 -51 22 -92 22c-140 0 -229 -146 -229 -274c0 -85 40 -146 135 -146c54 0 97 18 121 31zM334 678h35l65 -138h-43l-44 99h-2l-77 -99h-46z "></glyph><glyph glyph-name="cdotaccent" unicode="ċ" d="M379 60l12 -38c-20 -11 -71 -32 -141 -32c-127 0 -174 90 -174 178c0 160 117 323 283 323c47 0 91 -17 101 -25l-16 -39c-21 11 -51 22 -92 22c-140 0 -229 -146 -229 -274c0 -85 40 -146 135 -146c54 0 96 18 121 31zM357 580c-21 0 -34 18 -34 39c0 20 17 39 38 39 c22 0 35 -18 35 -38s-13 -40 -39 -40z"></glyph><glyph glyph-name="dcaron" unicode="ď" d="M506 710h46l-111 -579c-8 -43 -16 -91 -19 -131h-41l16 106h-2c-45 -71 -106 -117 -183 -117c-99 0 -140 84 -140 171c0 173 131 331 294 331c36 0 76 -8 97 -19zM417 237l37 192c-20 13 -52 23 -93 23c-134 0 -242 -138 -242 -288c0 -58 16 -136 106 -136 c77 0 170 91 192 209zM566 546l-8 26c28 10 59 32 59 76c0 22 -12 43 -26 54l41 11c14 -9 29 -34 29 -60c0 -66 -52 -100 -95 -107z"></glyph><glyph glyph-name="ebreve" unicode="ĕ" d="M373 64l14 -36c-24 -16 -75 -38 -146 -38c-122 0 -167 93 -167 187c0 143 108 314 251 314c87 0 124 -54 124 -110c0 -128 -156 -154 -324 -152c-7 -25 -6 -85 6 -118c20 -55 62 -82 116 -82c61 0 102 20 126 35zM403 379c0 48 -36 73 -86 73c-87 0 -159 -90 -186 -185 c142 -2 272 17 272 112zM225 678h36c-4 -41 19 -74 60 -74c52 0 79 39 88 74h38c-12 -69 -66 -114 -125 -114c-86 0 -105 62 -97 114z"></glyph><glyph glyph-name="ecaron" unicode="ě" d="M373 64l14 -36c-24 -16 -75 -38 -146 -38c-122 0 -167 93 -167 187c0 143 108 314 251 314c87 0 124 -54 124 -110c0 -128 -156 -154 -324 -152c-7 -25 -6 -85 6 -118c20 -55 62 -82 116 -82c61 0 102 20 126 35zM403 379c0 48 -36 73 -86 73c-87 0 -159 -90 -186 -185 c142 -2 272 17 272 112zM329 540h-35l-67 138h43l45 -100h3l79 100h45z"></glyph><glyph glyph-name="edotaccent" unicode="ė" d="M373 64l14 -36c-24 -16 -75 -38 -146 -38c-122 0 -167 93 -167 187c0 143 108 314 251 314c87 0 124 -54 124 -110c0 -128 -156 -154 -324 -152c-7 -25 -6 -85 6 -118c20 -55 62 -82 116 -82c61 0 102 20 126 35zM403 379c0 48 -36 73 -86 73c-87 0 -159 -90 -186 -185 c142 -2 272 17 272 112zM338 580h-2c-21 0 -34 18 -34 39c0 20 17 39 38 39c22 0 35 -18 35 -38s-13 -40 -37 -40z"></glyph><glyph glyph-name="emacron" unicode="ē" d="M373 64l14 -36c-24 -16 -75 -38 -146 -38c-122 0 -167 93 -167 187c0 143 108 314 251 314c87 0 124 -54 124 -110c0 -128 -156 -154 -324 -152c-7 -25 -6 -85 6 -118c20 -55 62 -82 116 -82c61 0 102 20 126 35zM403 379c0 48 -36 73 -86 73c-87 0 -159 -90 -186 -185 c142 -2 272 17 272 112zM229 635h202l-7 -38h-202z"></glyph><glyph glyph-name="eogonek" unicode="ę" d="M402 379c0 48 -36 73 -86 73c-87 0 -160 -90 -186 -185c142 -2 272 17 272 112zM328 -139l5 -31c-22 -10 -44 -14 -64 -14c-43 0 -66 28 -66 66c0 45 36 85 70 109v1c-11 -1 -21 -2 -34 -2c-121 0 -167 93 -167 187c0 143 108 314 252 314c87 0 124 -54 124 -110 c0 -128 -156 -154 -325 -152c-7 -25 -5 -85 6 -118c20 -55 62 -82 117 -82c60 0 102 20 126 35l14 -36c-6 -4 -15 -8 -23 -13c-43 -21 -114 -68 -114 -123c0 -25 13 -40 35 -40c15 0 27 2 44 9z"></glyph><glyph glyph-name="gbreve" unicode="ğ" d="M16 -173l17 38c30 -21 72 -35 128 -35c88 0 158 47 192 198l20 92h-3c-45 -82 -113 -122 -185 -122c-97 0 -142 84 -142 163c0 167 124 330 295 330c48 0 109 -18 139 -34l-74 -397c-21 -110 -49 -175 -95 -216c-45 -42 -107 -53 -156 -53c-55 0 -108 15 -136 36z M392 251l35 180c-18 9 -54 21 -98 21c-142 0 -238 -145 -239 -281c-1 -56 17 -134 109 -134c86 0 174 112 193 214zM236 678h36c-4 -41 19 -74 60 -74c52 0 79 39 88 74h39c-13 -69 -67 -114 -126 -114c-86 0 -105 62 -97 114z"></glyph><glyph glyph-name="gcircumflex" unicode="ĝ" d="M16 -173l17 38c30 -21 72 -35 128 -35c88 0 158 47 192 198l20 92h-3c-45 -82 -113 -122 -185 -122c-97 0 -142 84 -142 163c0 167 124 330 295 330c48 0 109 -18 139 -34l-74 -397c-21 -110 -49 -175 -95 -216c-45 -42 -107 -53 -156 -53c-55 0 -108 15 -136 36z M392 251l35 180c-18 9 -54 21 -98 21c-142 0 -238 -145 -239 -281c-1 -56 17 -134 109 -134c86 0 174 112 193 214zM327 678h35l65 -138h-43l-44 99h-2l-77 -99h-47z"></glyph><glyph glyph-name="gcedilla" unicode="ģ" d="M16 -173l17 38c30 -21 72 -35 128 -35c88 0 158 47 192 198l20 92h-3c-45 -82 -112 -122 -185 -122c-97 0 -142 84 -142 163c0 167 124 330 295 330c48 0 109 -18 139 -34l-74 -397c-21 -110 -49 -175 -94 -216c-46 -42 -108 -53 -157 -53c-55 0 -108 15 -136 36z M392 251l35 180c-18 9 -54 21 -98 21c-142 0 -238 -145 -239 -281c-1 -56 17 -134 109 -134c87 0 174 112 193 214zM413 698l8 -27c-45 -7 -94 -30 -94 -79c0 -22 12 -39 26 -50l-40 -11c-14 9 -29 32 -29 56c0 69 67 103 129 111z"></glyph><glyph glyph-name="gdotaccent" unicode="ġ" d="M16 -173l17 38c30 -21 72 -35 128 -35c88 0 158 47 192 198l21 92h-3c-45 -82 -113 -122 -186 -122c-97 0 -142 84 -142 163c0 167 124 330 295 330c48 0 110 -18 140 -34l-75 -397c-21 -110 -49 -175 -94 -216c-46 -42 -108 -53 -157 -53c-55 0 -108 15 -136 36z M393 251l34 180c-18 9 -54 21 -97 21c-143 0 -239 -145 -240 -281c-1 -56 17 -134 109 -134c87 0 174 112 194 214zM333 580c-21 0 -34 18 -34 39c0 20 17 39 38 39c22 0 35 -18 35 -38s-13 -40 -39 -40z"></glyph><glyph glyph-name="g_tildecomb" unicode="" d="M16 -173l17 38c30 -21 72 -35 128 -35c88 0 158 47 192 198l21 92h-3c-45 -82 -113 -122 -186 -122c-97 0 -142 84 -142 163c0 167 124 330 295 330c48 0 109 -18 139 -34l-74 -397c-21 -110 -49 -175 -94 -216c-46 -42 -108 -53 -157 -53c-55 0 -108 15 -136 36z M393 251l34 180c-18 9 -54 21 -97 21c-142 0 -239 -145 -240 -281c-1 -56 17 -134 109 -134c87 0 174 112 194 214zM253 574h-34c4 44 26 84 65 84c25 0 37 -10 60 -23c15 -9 28 -16 42 -16c16 0 24 9 28 41h33c-5 -46 -21 -80 -63 -80c-22 0 -41 10 -57 21 c-13 8 -27 18 -44 18c-20 0 -26 -18 -30 -45z"></glyph><glyph glyph-name="hcircumflex" unicode="ĥ" d="M121 0h-45l135 710h46l-65 -329h2c43 68 105 110 184 110c42 0 118 -24 118 -128c0 -27 -3 -55 -7 -78l-54 -285h-45l54 287c4 16 7 40 7 70c0 52 -26 94 -91 94c-73 0 -171 -83 -192 -197zM231 845h37l80 -113h-47l-55 79h-2l-80 -79h-51z"></glyph><glyph glyph-name="ibreve" unicode="ĭ" d="M121 0h-45l92 480h45zM118 678h36c-4 -41 19 -74 60 -74c53 0 79 39 89 74h38c-12 -69 -66 -114 -125 -114c-87 0 -106 62 -98 114z"></glyph><glyph glyph-name="imacron" unicode="ī" d="M121 0h-45l92 480h45zM122 635h202l-7 -38h-202z"></glyph><glyph glyph-name="iogonek" unicode="į" d="M140 582c-21 0 -35 19 -34 41s17 41 38 41c22 0 36 -19 36 -41c-2 -22 -16 -41 -40 -41zM140 480l-92 -480h-8c-36 -39 -64 -84 -64 -120c0 -25 16 -40 38 -40c13 0 27 3 41 11l10 -29c-19 -16 -44 -20 -66 -20c-44 0 -69 29 -69 70c0 54 57 114 74 134l91 474h45z"></glyph><glyph glyph-name="itilde" unicode="ĩ" d="M18 642l4 31c9 15 21 28 38 40c16 12 34 18 54 18c19 0 43 -8 71 -24s49 -24 62 -24c27 0 55 16 83 48l-4 -31c-9 -15 -22 -28 -38 -40c-17 -12 -35 -18 -55 -18c-19 0 -43 8 -71 25c-28 16 -49 24 -63 24c-15 0 -30 -5 -44 -15c-15 -10 -27 -21 -37 -34zM47 0l75 535h61 l-75 -535h-61z"></glyph><glyph glyph-name="jcircumflex" unicode="ĵ" d="M7 480h45l-93 -487c-15 -79 -31 -128 -57 -158c-26 -29 -62 -44 -98 -44c-20 0 -34 1 -46 6l6 37c8 -2 23 -4 42 -4c48 0 83 31 104 139zM44 678h35l65 -138h-43l-44 99h-2l-77 -99h-46z"></glyph><glyph glyph-name="kcedilla" unicode="ķ" d="M122 0h-44l135 710h45l-88 -458h2c15 16 34 34 46 45l198 183h57l-213 -197l149 -283h-48l-135 257l-66 -56zM103 -209l-8 26c45 8 94 30 94 80c0 22 -12 39 -26 50l41 11c14 -10 29 -32 29 -56c0 -70 -67 -103 -130 -111z"></glyph><glyph glyph-name="lacute" unicode="ĺ" d="M121 0h-45l135 710h46zM308 852h77l-140 -113h-44z"></glyph><glyph glyph-name="lcaron" unicode="ľ" d="M121 0h-45l135 710h46zM269 546l-8 26c28 10 59 32 59 76c0 22 -12 43 -26 54l41 11c14 -9 29 -34 29 -60c0 -66 -52 -100 -95 -107z"></glyph><glyph glyph-name="lcedilla" unicode="ļ" d="M37 0h-45l135 710h45zM-84 -209l-8 26c45 8 94 30 94 80c0 22 -12 39 -26 50l41 11c14 -10 29 -32 29 -56c0 -70 -67 -103 -130 -111z"></glyph><glyph glyph-name="lmiddledot" unicode="ŀ" d="M121 0h-45l136 710h45zM270 330c-21 0 -34 18 -34 38c0 21 17 40 38 40c22 0 35 -18 35 -38c0 -21 -13 -40 -39 -40z"></glyph><glyph glyph-name="m_circumflexcomb" unicode="" d="M121 0h-45l67 351c9 48 15 91 20 129h42l-15 -97h3c45 70 107 108 172 108c71 0 108 -45 111 -117c43 74 104 115 183 117c44 0 116 -28 116 -124c0 -23 -3 -52 -8 -81l-54 -286h-45l54 286c3 18 7 44 7 65c0 62 -22 100 -88 100c-68 0 -154 -73 -175 -187l-49 -264h-45 l57 293c4 23 6 41 6 61c0 45 -12 97 -89 97c-67 0 -158 -87 -177 -194zM502 678h35l65 -138h-43l-44 99h-2l-78 -99h-46z"></glyph><glyph glyph-name="nacute" unicode="ń" d="M121 0h-45l67 351c9 48 15 91 20 129h42l-14 -103h2c42 70 110 114 184 114c43 0 120 -23 120 -134c0 -22 -4 -49 -9 -76l-53 -281h-45l54 285c3 20 7 44 7 66c0 57 -23 100 -92 100c-67 0 -169 -78 -192 -205zM426 678h74l-135 -138h-40z"></glyph><glyph glyph-name="ncaron" unicode="ň" d="M121 0h-45l67 351c9 48 15 91 20 129h42l-14 -103h2c42 70 110 114 184 114c43 0 120 -23 120 -134c0 -22 -4 -49 -9 -76l-53 -281h-45l54 285c3 20 7 44 7 66c0 57 -23 100 -92 100c-67 0 -169 -78 -192 -205zM360 540h-36l-66 138h43l45 -100h3l79 100h45z"></glyph><glyph glyph-name="n_circumflexcomb" unicode="" d="M121 0h-45l67 351c9 48 15 91 20 129h42l-14 -103h2c42 70 110 114 184 114c43 0 120 -23 120 -134c0 -22 -4 -49 -9 -76l-53 -281h-45l54 285c3 20 7 44 7 66c0 57 -23 100 -92 100c-67 0 -169 -78 -192 -205zM363 678h35l65 -138h-43l-44 99h-2l-78 -99h-46z"></glyph><glyph glyph-name="ncedilla" unicode="ņ" d="M121 0h-45l67 351c9 48 15 91 20 129h42l-14 -103h2c42 70 110 114 184 114c43 0 120 -23 120 -134c0 -22 -4 -49 -9 -76l-53 -281h-45l54 285c3 20 7 44 7 66c0 57 -23 100 -92 100c-67 0 -169 -78 -192 -205zM156 -209l-9 26c45 8 94 30 94 80c0 22 -12 39 -26 50 l41 11c14 -10 29 -32 29 -56c0 -70 -67 -103 -129 -111z"></glyph><glyph glyph-name="obreve" unicode="ŏ" d="M254 -11c-119 0 -178 96 -178 196c0 154 107 306 254 306c129 0 178 -104 178 -201c0 -131 -96 -301 -254 -301zM260 28c109 0 201 133 201 263c0 63 -30 161 -135 161c-117 0 -203 -131 -203 -263c0 -92 53 -161 137 -161zM258 678h36c-4 -41 19 -74 60 -74 c53 0 79 39 89 74h38c-12 -69 -66 -114 -125 -114c-86 0 -106 62 -98 114z"></glyph><glyph glyph-name="odoubleacute" unicode="ő" d="M254 -11c-119 0 -178 96 -178 196c0 154 107 306 254 306c129 0 178 -104 178 -201c0 -131 -96 -301 -254 -301zM260 28c109 0 201 133 201 263c0 63 -30 161 -135 161c-117 0 -203 -131 -203 -263c0 -92 53 -161 137 -161zM341 678h66l-128 -138h-37zM467 678h67 l-129 -138h-37z"></glyph><glyph glyph-name="omacron" unicode="ō" d="M254 -11c-119 0 -178 96 -178 196c0 154 107 306 254 306c129 0 178 -104 178 -201c0 -131 -96 -301 -254 -301zM260 28c109 0 201 133 201 263c0 63 -30 161 -135 161c-117 0 -203 -131 -203 -263c0 -92 53 -161 137 -161zM269 635h201l-6 -38h-202z"></glyph><glyph glyph-name="oslashacute" unicode="ǿ" d="M73 -27l-25 23l54 62c-31 39 -40 87 -40 135c0 148 108 298 252 298c54 0 93 -17 118 -40l50 55l26 -21l-52 -61c30 -42 39 -92 39 -130c0 -158 -116 -305 -248 -305c-57 0 -95 17 -123 44zM136 95l267 322c-19 21 -51 35 -93 35c-120 0 -201 -137 -201 -257 c0 -43 6 -71 25 -101zM424 386l-271 -320c22 -24 55 -38 97 -38c97 0 198 124 198 260c0 37 -8 69 -22 98h-2zM394 678h73l-135 -138h-40z"></glyph><glyph glyph-name="racute" unicode="ŕ" d="M121 0h-45l62 324c11 56 19 109 24 156h41c-5 -34 -9 -68 -16 -108h3c30 67 80 119 143 119c7 0 17 -1 22 -2l-9 -46c-5 2 -12 2 -22 2c-60 0 -137 -90 -159 -212zM326 678h74l-135 -138h-40z"></glyph><glyph glyph-name="rcaron" unicode="ř" d="M121 0h-45l62 324c11 56 19 109 24 156h41c-5 -34 -9 -68 -16 -108h3c30 67 80 119 143 119c7 0 17 -1 22 -2l-9 -46c-5 2 -12 2 -22 2c-60 0 -137 -90 -159 -212zM274 540h-35l-66 138h42l45 -100h3l79 100h46z"></glyph><glyph glyph-name="rcedilla" unicode="ŗ" d="M77 0h-45l62 324c11 56 19 109 24 156h41c-5 -34 -9 -68 -16 -108h3c30 67 80 119 143 119c7 0 17 -1 22 -2l-9 -46c-5 2 -12 2 -22 2c-60 0 -137 -90 -159 -212zM-3 -209l-9 26c45 8 94 30 94 80c0 22 -12 39 -26 50l41 11c14 -10 29 -32 29 -56 c0 -70 -67 -103 -129 -111z"></glyph><glyph glyph-name="sacute" unicode="ś" d="M32 20l17 37c20 -14 54 -28 89 -28c66 0 111 46 111 100c0 46 -18 74 -70 106c-56 33 -78 76 -78 119c0 74 64 137 151 137c36 0 71 -12 85 -23l-16 -38c-15 9 -43 22 -75 22c-58 0 -100 -41 -100 -91c0 -45 25 -69 70 -97c54 -33 79 -77 79 -123 c0 -95 -75 -151 -160 -151c-46 0 -85 16 -103 30zM311 678h74l-135 -138h-41z"></glyph><glyph glyph-name="scedilla" unicode="ş" d="M337 468l-16 -38c-15 9 -43 22 -75 22c-58 0 -100 -41 -100 -91c0 -45 25 -69 70 -97c54 -33 79 -77 79 -123c0 -77 -50 -128 -114 -145l-38 -50c30 -7 50 -31 50 -63c0 -46 -42 -81 -99 -81c-24 0 -47 7 -58 15l15 35c14 -9 32 -13 51 -13c26 0 48 15 48 40 c0 24 -26 37 -62 41l52 70h-5c-46 0 -85 16 -103 30l17 37c20 -14 54 -28 89 -28c66 0 111 46 111 100c0 46 -18 74 -70 106c-56 33 -78 76 -78 119c0 74 64 137 151 137c36 0 71 -12 85 -23z"></glyph><glyph glyph-name="scircumflex" unicode="ŝ" d="M32 20l17 37c20 -14 54 -28 89 -28c66 0 111 46 111 100c0 46 -18 74 -70 106c-56 33 -78 76 -78 119c0 74 64 137 151 137c36 0 71 -12 85 -23l-16 -38c-15 9 -43 22 -75 22c-58 0 -100 -41 -100 -91c0 -45 25 -69 70 -97c54 -33 79 -77 79 -123 c0 -95 -75 -151 -160 -151c-46 0 -85 16 -103 30zM253 678h36l65 -138h-43l-45 99h-2l-77 -99h-46z"></glyph><glyph glyph-name="scommaaccent" unicode="ș" d="M32 20l17 37c20 -14 54 -28 89 -28c66 0 111 46 111 100c0 46 -18 74 -70 106c-56 33 -78 76 -78 119c0 74 64 137 151 137c36 0 71 -12 85 -23l-16 -38c-15 9 -43 22 -75 22c-58 0 -100 -41 -100 -91c0 -45 25 -69 70 -97c54 -33 79 -77 79 -123 c0 -95 -75 -151 -160 -151c-46 0 -85 16 -103 30zM47 -209l-8 27c45 7 94 30 94 79c0 22 -12 40 -26 50l41 12c14 -10 29 -32 29 -57c0 -69 -67 -103 -130 -111z"></glyph><glyph glyph-name="tcaron" unicode="ť" d="M231 568l49 18l-20 -106h122l-8 -37h-122l-52 -278c-6 -32 -10 -57 -10 -87c0 -32 16 -50 48 -50c16 0 29 1 39 5l3 -36c-12 -5 -31 -8 -51 -8c-65 0 -86 45 -86 87c0 29 4 57 11 91l53 276h-73l7 37h74zM349 546l-8 26c28 10 59 32 59 76c0 22 -12 43 -26 54l41 11 c14 -9 29 -34 29 -60c0 -66 -52 -100 -95 -107z"></glyph><glyph glyph-name="tcedilla" unicode="ţ" d="M170 568l49 18l-20 -106h122l-7 -37h-123l-52 -278c-6 -32 -10 -57 -10 -87c0 -32 16 -50 48 -50c16 0 29 1 39 5l4 -36c-13 -5 -32 -8 -52 -8c-65 0 -86 45 -86 87c0 29 4 57 11 91l53 276h-73l7 37h74zM20 -210l-8 27c45 7 94 30 94 79c0 22 -12 40 -26 50l41 12 c14 -10 29 -32 29 -57c0 -69 -67 -103 -130 -111z"></glyph><glyph glyph-name="ubreve" unicode="ŭ" d="M486 480h45l-67 -351c-9 -48 -16 -91 -19 -129h-43l15 99h-2c-39 -63 -105 -110 -172 -110c-53 0 -129 21 -129 142c0 21 3 45 9 76l52 273h45l-52 -274c-6 -30 -9 -52 -9 -75c0 -61 25 -101 95 -101c67 0 161 78 182 189zM265 678h36c-4 -41 19 -74 61 -74 c52 0 78 39 88 74h38c-12 -69 -66 -114 -125 -114c-87 0 -106 62 -98 114z"></glyph><glyph glyph-name="udoubleacute" unicode="ű" d="M486 480h45l-67 -351c-9 -48 -16 -91 -19 -129h-43l15 99h-2c-39 -63 -105 -110 -172 -110c-53 0 -129 21 -129 142c0 21 3 45 9 76l52 273h45l-52 -274c-6 -30 -9 -52 -9 -75c0 -61 25 -101 95 -101c67 0 161 78 182 189zM365 678h66l-129 -138h-36zM492 678h66 l-129 -138h-37z"></glyph><glyph glyph-name="umacron" unicode="ū" d="M486 480h45l-67 -351c-9 -48 -16 -91 -19 -129h-43l15 99h-2c-39 -63 -105 -110 -172 -110c-53 0 -129 21 -129 142c0 21 3 45 9 76l52 273h45l-52 -274c-6 -30 -9 -52 -9 -75c0 -61 25 -101 95 -101c67 0 161 78 182 189zM279 635h203l-7 -38h-202z"></glyph><glyph glyph-name="uogonek" unicode="ų" d="M531 480l-67 -351c-9 -48 -16 -91 -19 -129l-4 5c-36 -39 -64 -83 -64 -119c0 -25 16 -40 38 -40c13 0 27 3 41 11l10 -29c-19 -16 -44 -20 -66 -20c-44 0 -69 29 -69 70c0 53 57 113 74 133l12 88h-2c-39 -63 -105 -110 -172 -110c-53 0 -129 21 -129 142 c0 21 3 45 9 76l52 273h45l-52 -274c-6 -30 -9 -52 -9 -75c0 -61 25 -101 95 -101c67 0 161 78 182 189l50 261h45z"></glyph><glyph glyph-name="uring" unicode="ů" d="M486 480h45l-67 -351c-9 -48 -16 -91 -19 -129h-43l15 99h-2c-39 -63 -105 -110 -172 -110c-53 0 -129 21 -129 142c0 21 3 45 9 76l52 273h45l-52 -274c-6 -30 -9 -52 -9 -75c0 -61 25 -101 95 -101c67 0 161 78 182 189zM389 712c50 0 87 -37 87 -90 c0 -54 -45 -90 -91 -90c-51 0 -89 38 -89 87c0 53 40 93 93 93zM385 682c-29 0 -51 -27 -51 -62c0 -31 21 -58 51 -58s53 27 53 64c0 31 -21 56 -53 56z"></glyph><glyph glyph-name="utilde" unicode="ũ" d="M321 691c-15 0 -30 -5 -45 -15s-27 -21 -37 -34l5 31c9 15 21 28 37 40s34 18 55 18c19 0 43 -8 71 -24s49 -24 62 -24c27 0 55 16 83 48l-4 -31c-9 -15 -22 -28 -38 -40c-17 -12 -35 -18 -55 -18c-19 0 -43 8 -71 25c-29 16 -50 24 -63 24zM530 535h61l-75 -535h-61 l23 166c-27 -55 -60 -99 -101 -130s-86 -47 -135 -47c-46 0 -81 15 -106 44s-35 68 -28 117l54 385h61l-54 -384c-6 -41 0 -72 17 -92c17 -21 41 -31 73 -31c41 0 81 17 122 50c40 33 75 80 105 141z"></glyph><glyph glyph-name="wacute" unicode="ẃ" d="M134 480h43l27 -312c5 -62 6 -84 6 -114h2c9 19 24 56 50 104l173 322h44l42 -318c7 -51 11 -88 11 -108h3c11 30 22 60 41 100l159 326h47l-239 -480h-41l-43 320c-6 41 -10 78 -9 111h-2c-17 -32 -32 -70 -55 -111l-173 -320h-42zM535 678h73l-135 -138h-40z"></glyph><glyph glyph-name="wcircumflex" unicode="ŵ" d="M134 480h43l27 -312c5 -62 6 -84 6 -114h2c9 19 24 56 50 104l173 322h44l42 -318c7 -51 11 -88 11 -108h3c11 30 22 60 41 100l159 326h47l-239 -480h-41l-43 320c-6 41 -9 78 -9 111h-2c-17 -32 -32 -70 -55 -111l-173 -320h-42zM475 678h35l65 -138h-43l-44 99h-2 l-77 -99h-46z"></glyph><glyph glyph-name="wdieresis" unicode="ẅ" d="M134 480h43l27 -312c5 -62 6 -84 6 -114h2c9 19 24 56 50 104l173 322h44l42 -318c6 -51 11 -88 11 -108h3c11 30 21 60 40 100l160 326h47l-240 -480h-40l-43 320c-6 41 -10 78 -9 111h-2c-17 -32 -32 -70 -55 -111l-173 -320h-42zM397 580c-22 0 -35 19 -35 39 s17 39 38 39c22 0 36 -18 36 -38s-14 -40 -39 -40zM565 580c-21 0 -34 19 -34 39s16 39 38 39s35 -18 35 -38s-13 -40 -39 -40z"></glyph><glyph glyph-name="wgrave" unicode="ẁ" d="M134 480h43l27 -312c5 -62 6 -84 6 -114h2c9 19 24 56 50 104l173 322h44l42 -318c7 -51 11 -88 11 -108h3c11 30 22 60 41 100l159 326h47l-239 -480h-41l-43 320c-6 41 -10 78 -9 111h-2c-17 -32 -32 -70 -55 -111l-173 -320h-42zM370 678h65l61 -138h-32z"></glyph><glyph glyph-name="ycircumflex" unicode="ŷ" d="M2 480h46l59 -289c12 -59 19 -95 25 -134h3c14 31 30 67 56 121l146 302h48l-186 -378c-44 -89 -87 -172 -153 -239c-52 -54 -106 -77 -131 -83l-13 39c20 7 57 22 92 51c33 27 72 72 103 128c4 9 3 14 2 21zM210 678h36l64 -138h-43l-44 99h-2l-77 -99h-46z"></glyph><glyph glyph-name="ygrave" unicode="ỳ" d="M142 -241l119 221l-143 555h65l120 -476l254 476h42l-416 -776h-41zM348 605l-121 156h81l88 -156h-48z"></glyph><glyph glyph-name="ymacron" unicode="ȳ" d="M2 480h46l59 -289c12 -59 19 -95 25 -134h3c14 31 30 67 56 121l146 302h48l-186 -378c-44 -89 -87 -172 -153 -239c-52 -54 -106 -77 -131 -83l-13 39c20 7 57 22 92 51c33 27 72 72 103 128c4 9 3 14 2 21zM134 635h202l-7 -38h-202z"></glyph><glyph glyph-name="zacute" unicode="ź" d="M-38 0l5 29l282 317c41 46 65 68 89 93v3h-272l8 38h326l-7 -32l-279 -314c-43 -48 -65 -70 -88 -93v-3h292l-8 -38h-348zM307 678h74l-135 -138h-40z"></glyph><glyph glyph-name="zdotaccent" unicode="ż" d="M-38 0l5 29l282 317c41 46 65 68 89 93v3h-272l7 38h327l-7 -32l-279 -314c-43 -48 -66 -70 -89 -93v-3h293l-8 -38h-348zM250 580c-21 0 -34 18 -34 39c0 20 17 39 38 39c22 0 35 -18 35 -38s-13 -40 -39 -40z"></glyph><glyph glyph-name="aeacute" unicode="ǽ" d="M609 62l14 -34c-24 -15 -71 -39 -146 -39c-81 0 -139 43 -155 120h-2c-37 -77 -108 -120 -184 -120c-82 0 -121 55 -122 117c0 118 116 192 315 183l4 24c11 59 -8 139 -100 139c-44 0 -79 -12 -119 -37l-14 33c56 36 107 43 139 43c81 0 128 -42 134 -116h2 c44 80 121 116 190 116c81 0 121 -50 121 -104c0 -131 -154 -141 -322 -136c-10 -49 -14 -99 3 -144c19 -53 63 -79 116 -79c68 0 102 20 126 34zM311 191l11 60c-103 6 -261 -17 -261 -142c0 -50 32 -81 82 -81c71 0 148 54 168 163zM640 386c0 34 -29 67 -80 67 c-100 0 -167 -96 -187 -164c141 -3 267 1 267 97zM482 678h74l-135 -138h-40z"></glyph><glyph glyph-name="space_commaaccentcomb" unicode="" d="M84 -209l-8 27c45 7 94 29 94 79c0 22 -12 39 -26 50l41 11c14 -10 29 -32 29 -56c0 -70 -67 -103 -130 -111z"></glyph><glyph glyph-name="acute.cap" unicode="" d="M602 823h77l-139 -113h-44z"></glyph><glyph glyph-name="brevemod.cap" unicode="" d="M377 828h35c0 -29 15 -56 66 -56c48 0 73 24 81 56h38c-9 -49 -48 -95 -120 -95c-79 0 -107 46 -100 95z"></glyph><glyph glyph-name="caronmod.cap" unicode="" d="M483 710h-37l-80 113h50l51 -78h4l80 78h51z"></glyph><glyph glyph-name="cedilla.cap" unicode="" d="M166 1h38l-43 -55c33 -8 50 -33 50 -63c0 -49 -45 -81 -97 -81c-25 0 -48 7 -60 16l15 34c14 -8 30 -13 48 -13c26 0 49 13 49 39c0 24 -24 38 -61 42z"></glyph><glyph glyph-name="circumflexmod.cap" unicode="" d="M443 823h37l80 -113h-47l-55 79h-2l-81 -79h-51z"></glyph><glyph glyph-name="space_commaaccentcomb.cap" unicode="" d="M84 -209l-8 27c45 7 94 29 94 79c0 22 -12 39 -26 50l41 11c14 -10 29 -32 29 -56c0 -70 -67 -103 -130 -111z"></glyph><glyph glyph-name="dieresis.cap" unicode="" d="M371 726c-20 0 -35 19 -35 39c0 19 17 40 39 40s36 -21 36 -39c0 -19 -16 -40 -40 -40zM541 726c-20 0 -35 19 -35 39c0 19 17 40 39 40s36 -21 36 -39c0 -19 -16 -40 -40 -40z"></glyph><glyph glyph-name="dotaccentmod.cap" unicode="" d="M541 726c-20 0 -35 19 -35 39c0 19 17 40 39 40s36 -21 36 -39c0 -19 -16 -40 -40 -40z"></glyph><glyph glyph-name="grave.cap" unicode="" d="M332 823h70l73 -113h-37z"></glyph><glyph glyph-name="doubleacutemod.cap" unicode="" d="M482 822h68l-131 -109h-39zM608 822h68l-131 -109h-39z"></glyph><glyph glyph-name="macron.cap" unicode="" d="M361 772h217l-7 -39h-217z"></glyph><glyph glyph-name="ogonekmod.cap" unicode="" d="M201 2h48c-42 -29 -91 -83 -91 -127c0 -23 14 -35 35 -35c15 0 29 3 43 10l9 -30c-22 -13 -42 -18 -66 -18c-41 0 -67 27 -67 64c0 62 61 115 89 136z"></glyph><glyph glyph-name="ringmod.cap" unicode="" d="M499 863c52 0 86 -36 86 -84c0 -50 -42 -85 -90 -85c-51 0 -87 36 -87 81c0 49 38 88 91 88zM496 835c-28 0 -48 -25 -48 -59c0 -29 19 -53 47 -53c29 0 50 24 50 57c0 31 -18 55 -49 55z"></glyph><glyph glyph-name="tildemod.cap" unicode="" d="M372 716h-32c8 44 34 85 71 85c26 0 40 -8 59 -21c15 -10 29 -17 46 -17c16 0 27 13 34 38h32c-9 -47 -31 -80 -72 -80c-24 0 -36 7 -58 20c-17 10 -27 19 -45 18c-17 -1 -28 -18 -35 -43z"></glyph><glyph glyph-name="Alpha-grek" unicode="Α" d="M376 237h-256l-124 -237h-46l360 674h44l102 -674h-44zM143 276h227l-34 225c-4 34 -10 81 -14 119h-2c-18 -39 -34 -75 -56 -117z"></glyph><glyph glyph-name="Beta-grek" unicode="Β" d="M78 3l126 663c37 8 77 13 124 13c69 0 119 -17 149 -53c23 -27 30 -58 30 -94c0 -85 -73 -154 -151 -173v-3c58 -16 114 -65 113 -151c0 -67 -35 -123 -74 -154c-51 -41 -118 -56 -196 -56c-46 0 -90 3 -121 8zM243 634l-49 -257h70c108 0 195 60 195 157 c0 75 -55 107 -139 107c-34 0 -63 -2 -77 -7zM187 340l-57 -301c24 -4 52 -5 76 -5c111 -1 216 47 216 175c0 87 -73 131 -154 131h-81z"></glyph><glyph glyph-name="Gamma-grek" unicode="Γ" d="M207 674h314l-8 -39h-269l-121 -635h-45z"></glyph><glyph glyph-name="Delta-grek" unicode="Δ" d="M-40 0l6 32l359 642h46l124 -642l-6 -32h-529zM19 39h432l-82 418c-10 50 -22 119 -29 164h-2c-17 -36 -48 -89 -76 -141z"></glyph><glyph glyph-name="Epsilon-grek" unicode="Ε" d="M443 375l-8 -39h-248l-56 -297h280l-8 -39h-325l129 674h309l-8 -39h-264l-49 -260h248z"></glyph><glyph glyph-name="Zeta-grek" unicode="Ζ" d="M-32 0l6 31l498 601l-1 3h-349l8 39h410l-7 -32l-497 -600l2 -3h386l-8 -39h-448z"></glyph><glyph glyph-name="Eta-grek" unicode="Η" d="M206 674h46l-58 -297h351l57 297h45l-129 -674h-45l64 338h-350l-64 -338h-45z"></glyph><glyph glyph-name="Theta-grek" unicode="Θ" d="M341 -11c-174 0 -245 135 -245 270c0 114 45 243 122 327c56 60 141 99 223 99c184 0 245 -139 245 -273c0 -109 -41 -238 -115 -320c-59 -65 -138 -103 -230 -103zM348 28c161 0 291 196 291 381c0 102 -32 237 -205 237c-171 0 -291 -208 -291 -379 c0 -119 52 -239 205 -239zM240 370h309l-6 -39h-309z"></glyph><glyph glyph-name="Iota-grek" unicode="Ι" d="M207 674h45l-129 -674h-45z"></glyph><glyph glyph-name="Kappa-grek" unicode="Κ" d="M78 0l129 674h45l-66 -344l5 1c25 28 49 52 71 74l268 269h57l-290 -289l183 -385h-49l-169 354l-86 -79l-53 -275h-45z"></glyph><glyph glyph-name="Lamda-grek" unicode="Λ" d="M458 0h-44l-77 501c-7 47 -11 80 -14 119h-2c-17 -40 -34 -75 -57 -117l-267 -503h-47l360 674h45z"></glyph><glyph glyph-name="Mu-grek" unicode="Μ" d="M669 0h-44l52 417c8 59 23 161 32 206h-4c-27 -56 -62 -128 -99 -194l-239 -429h-33l-66 419c-13 79 -20 148 -26 204h-2c-11 -45 -33 -147 -48 -206l-107 -417h-45l178 674h52l73 -467c9 -53 17 -106 19 -141h3c16 35 41 84 71 137l260 471h55z"></glyph><glyph glyph-name="Nu-grek" unicode="Ν" d="M122 0h-44l128 674h43l195 -458c31 -71 44 -114 57 -162l2 1c4 56 10 101 27 192l81 427h44l-128 -674h-41l-190 450c-35 79 -48 117 -61 170l-3 -2c-7 -61 -15 -111 -30 -194z"></glyph><glyph glyph-name="Xi-grek" unicode="Ξ" d="M137 674h419l-7 -39h-418zM117 371h348l-7 -39h-348zM13 39h435l-7 -39h-435z"></glyph><glyph glyph-name="Omicron-grek" unicode="Ο" d="M341 -11c-174 0 -245 135 -245 270c0 113 45 243 122 327c56 60 141 99 223 99c184 0 245 -139 245 -273c0 -110 -41 -238 -115 -320c-59 -65 -138 -103 -230 -103zM348 28c161 0 291 195 291 380c0 103 -32 238 -205 238c-171 0 -291 -208 -291 -379 c0 -119 52 -239 205 -239z"></glyph><glyph glyph-name="Pi-grek" unicode="Π" d="M644 674l-127 -674h-46l120 635h-348l-120 -635h-45l128 674h438z"></glyph><glyph glyph-name="Rho-grek" unicode="Ρ" d="M78 0l127 666c35 8 80 13 128 13c68 0 126 -19 157 -56c23 -29 34 -63 34 -109c0 -70 -36 -133 -74 -167c-51 -45 -126 -66 -198 -66c-26 0 -49 1 -74 6l-55 -287h-45zM243 632l-58 -304c29 -6 50 -8 74 -8c131 0 219 80 219 192c0 91 -64 129 -154 129 c-36 0 -64 -4 -81 -9z"></glyph><glyph glyph-name="Sigma-grek" unicode="Σ" d="M43 42v-3h412l-7 -39h-476l5 32l311 308l-183 301l5 33h426l-7 -39h-368v-3l179 -296z"></glyph><glyph glyph-name="Tau-grek" unicode="Τ" d="M216 0l121 635h-209l8 39h462l-8 -39h-208l-121 -635h-45z"></glyph><glyph glyph-name="Upsilon-grek" unicode="Υ" d="M162 643l9 37c36 -5 91 -44 122 -92c41 -59 73 -150 68 -266h2c42 121 118 216 178 269c52 46 110 79 147 89l6 -37c-59 -28 -199 -114 -291 -316c-16 -35 -33 -74 -45 -138l-35 -189h-45l36 191c8 49 12 101 9 138c-11 209 -105 293 -161 314z"></glyph><glyph glyph-name="Phi-grek" unicode="Φ" d="M299 -24l11 51c-116 9 -214 98 -214 249c0 237 183 376 331 374l11 49h44l-10 -49c119 -8 213 -99 213 -253c0 -224 -168 -369 -331 -370l-10 -51h-45zM318 65l102 547c-121 1 -277 -125 -277 -332c0 -123 73 -205 175 -215zM464 612l-102 -547c169 7 276 168 276 332 c0 129 -76 207 -174 215z"></glyph><glyph glyph-name="Chi-grek" unicode="Χ" d="M410 0h-47l-76 187c-20 46 -37 88 -48 119h-2c-20 -28 -48 -66 -85 -114l-146 -192h-54l269 342l-131 332h48l78 -200c16 -40 28 -70 36 -97h2c19 26 46 63 72 96l160 201h54l-269 -330z"></glyph><glyph glyph-name="Psi-grek" unicode="Ψ" d="M742 674l-37 -204c-29 -155 -122 -246 -286 -250l-41 -220h-45l41 220c-85 4 -198 46 -198 193c0 32 4 55 10 88l32 173h45l-33 -182c-6 -32 -8 -60 -8 -75c0 -96 47 -150 159 -158l77 415h45l-77 -415c116 4 205 61 234 214l37 201h45z"></glyph><glyph glyph-name="Omega-grek" unicode="Ω" d="M143 39v4c-51 51 -95 141 -95 240c0 223 143 402 338 402c152 0 248 -117 248 -267c0 -174 -102 -309 -199 -375v-4h145l-7 -39h-218l6 34c102 57 226 202 226 378c0 112 -64 234 -206 234c-187 0 -286 -202 -286 -349c0 -130 53 -219 111 -263l-7 -34h-217l7 39h154z "></glyph><glyph glyph-name="Alphatonos-grek" unicode="Ά" d="M376 237h-256l-124 -237h-46l360 674h44l102 -674h-44zM143 276h227l-34 225c-4 34 -10 81 -14 119h-2c-18 -39 -34 -75 -56 -117zM93 674h54l-40 -143h-30z"></glyph><glyph glyph-name="Epsilontonos-grek" unicode="Έ" d="M427 375l-8 -39h-248l-56 -297h280l-8 -39h-325l129 674h309l-8 -39h-264l-49 -260h248zM62 674h54l-40 -143h-30z"></glyph><glyph glyph-name="Etatonos-grek" unicode="Ή" d="M189 674h46l-58 -297h351l57 297h45l-129 -674h-45l64 338h-350l-64 -338h-45zM59 674h54l-40 -143h-29z"></glyph><glyph glyph-name="Iotatonos-grek" unicode="Ί" d="M193 674h45l-129 -674h-45zM66 674h54l-40 -143h-30z"></glyph><glyph glyph-name="Iotadialytika-grek" unicode="Ϊ" d="M148 710c-22 0 -35 18 -35 39s17 40 39 40s36 -18 36 -39c0 -20 -14 -40 -40 -40zM317 710c-22 0 -35 18 -35 39s17 40 39 40s36 -18 36 -39c0 -20 -14 -40 -40 -40zM206 674h45l-128 -674h-45z"></glyph><glyph glyph-name="Omicrontonos-grek" unicode="Ό" d="M311 -11c-174 0 -245 135 -245 270c0 113 45 243 122 327c56 60 141 99 223 99c184 0 245 -139 245 -273c0 -110 -41 -238 -115 -320c-59 -65 -138 -103 -230 -103zM318 28c161 0 291 195 291 380c0 103 -32 238 -205 238c-171 0 -291 -208 -291 -379 c0 -119 52 -239 205 -239zM52 674h54l-41 -143h-29z"></glyph><glyph glyph-name="Upsilontonos-grek" unicode="Ύ" d="M99 643l9 37c36 -5 91 -44 122 -92c41 -59 73 -150 68 -266h2c42 121 118 216 178 269c52 46 110 79 147 89l6 -36c-59 -29 -199 -115 -291 -317c-16 -35 -33 -74 -45 -138l-35 -189h-45l36 191c8 49 12 101 9 138c-11 210 -105 294 -161 314zM12 674h54l-40 -143h-30z "></glyph><glyph glyph-name="Upsilondialytika-grek" unicode="Ϋ" d="M345 706c-22 0 -35 18 -35 39s17 40 39 40s36 -18 36 -39c0 -20 -14 -40 -40 -40zM514 706c-22 0 -35 18 -35 39s17 40 39 40s36 -18 36 -39c0 -20 -14 -40 -40 -40zM162 643l9 37c36 -5 91 -44 122 -92c41 -59 73 -150 68 -266h2c42 121 118 216 178 269 c51 46 110 79 146 89l7 -37c-60 -28 -199 -114 -291 -316c-16 -35 -33 -74 -45 -138l-35 -189h-45l36 191c8 49 12 101 9 138c-11 209 -105 293 -161 314z"></glyph><glyph glyph-name="Omegatonos-grek" unicode="Ώ" d="M147 39v4c-51 51 -95 141 -95 240c0 223 144 402 338 402c153 0 249 -117 249 -267c0 -175 -101 -309 -198 -375v-4h144l-7 -39h-218l5 34c103 57 227 202 227 378c0 112 -64 234 -207 234c-187 0 -286 -202 -286 -349c0 -130 53 -219 112 -263l-7 -34h-218l7 39h154z M33 674h54l-40 -143h-30z"></glyph><glyph glyph-name="alpha-grek" unicode="α" d="M623 44l9 -30c-23 -16 -49 -24 -80 -24c-19 0 -34 6 -47 17s-22 28 -29 49s-10 47 -10 78c-20 -35 -41 -62 -62 -83c-41 -41 -86 -61 -137 -61c-16 0 -33 2 -50 6c-17 3 -36 11 -57 24c-21 12 -38 28 -53 47s-25 45 -32 80s-8 74 -2 119c7 48 19 90 37 127s40 66 65 88 c25 21 52 37 81 48s58 16 89 16c62 0 105 -26 128 -77c15 -33 25 -80 30 -142c5 19 11 39 17 62c5 23 12 49 19 78s12 52 17 69h58c-42 -143 -77 -248 -106 -316c1 -50 3 -87 6 -111c2 -20 7 -36 15 -48c7 -13 20 -21 39 -24c20 -3 38 -1 55 8zM273 29c24 0 46 4 66 13 c20 8 38 21 54 38c15 17 29 36 41 58c12 21 24 47 35 77v67c0 21 -1 42 -3 61s-5 37 -8 54c-4 17 -9 32 -16 46c-7 13 -16 25 -25 34s-21 17 -34 22c-14 5 -30 7 -47 7c-49 0 -92 -20 -129 -61s-61 -102 -72 -181s-4 -137 21 -176s64 -59 117 -59z"></glyph><glyph glyph-name="beta-grek" unicode="β" d="M395 443c20 -5 39 -12 57 -23c17 -11 34 -25 49 -42s27 -40 34 -67c7 -28 7 -59 2 -92c-9 -68 -38 -123 -85 -165c-47 -43 -105 -64 -174 -64c-52 0 -109 13 -171 39l-38 -270h-61l117 835c4 25 11 48 21 69c9 21 23 39 40 56c17 16 38 29 64 38s56 13 89 13 c36 0 68 -5 95 -15c27 -11 48 -24 63 -41s25 -36 32 -56c6 -20 8 -40 5 -61c-3 -23 -12 -46 -27 -67s-32 -39 -51 -53c-19 -15 -40 -26 -61 -34zM476 225c8 57 -5 103 -39 137c-35 34 -82 55 -141 63l4 33c40 -3 77 9 112 37c34 27 54 62 59 103c5 37 -3 68 -26 95 c-23 26 -59 39 -110 39c-46 0 -81 -11 -104 -34s-38 -58 -45 -103l-74 -530c16 -8 41 -16 75 -24c33 -8 63 -12 89 -12c27 0 51 5 73 14s40 21 55 35c14 13 26 29 37 48c11 18 19 35 24 52c5 16 9 32 11 47z"></glyph><glyph glyph-name="gamma-grek" unicode="γ" d="M172 -198h-46c16 77 40 183 35 269c-7 139 -64 331 -99 409h50c34 -72 87 -246 90 -404h3c73 94 168 243 192 375c2 8 4 20 4 29h45c1 -8 -1 -21 -3 -33c-22 -123 -106 -271 -224 -412c-8 -11 -9 -15 -11 -26c-11 -69 -23 -138 -36 -207z"></glyph><glyph glyph-name="delta-grek" unicode="δ" d="M509 646l-24 -29c-29 34 -78 65 -134 65c-49 0 -74 -26 -74 -55c0 -32 26 -54 64 -88l73 -71c62 -59 94 -119 94 -204c0 -131 -95 -275 -243 -275c-105 0 -191 76 -191 204c0 157 115 264 235 312v4l-20 20c-25 26 -55 54 -55 97c0 45 42 95 118 95c82 0 132 -44 157 -75 zM384 436l-46 45c-99 -42 -217 -136 -217 -282c0 -112 72 -171 150 -171c104 0 191 114 191 236c0 62 -16 115 -78 172z"></glyph><glyph glyph-name="epsilon-grek" unicode="ε" d="M328 239h-74c-86 0 -164 -40 -164 -120c0 -57 52 -91 128 -91c59 0 122 22 145 37l9 -37c-23 -18 -93 -39 -159 -39c-91 0 -169 37 -169 127c0 75 65 135 142 145v4c-56 12 -85 48 -85 93c0 64 69 133 188 133c49 0 100 -14 118 -32l-14 -33c-13 8 -51 27 -112 27 c-82 0 -134 -42 -134 -95c0 -55 57 -81 130 -81h57z"></glyph><glyph glyph-name="zeta-grek" unicode="ζ" d="M480 709l2 -38c-165 -95 -347 -292 -347 -467c0 -87 39 -131 126 -159c29 -10 67 -17 112 -22c5 0 7 -2 7 -6c0 -32 -45 -121 -77 -155l-35 10c19 22 52 87 59 118c-28 4 -63 9 -101 23c-82 31 -138 84 -138 188c0 169 165 368 327 468v2h-85c-44 0 -83 0 -115 9l10 34 c30 -5 70 -5 108 -5h147z"></glyph><glyph glyph-name="eta-grek" unicode="η" d="M190 376l2 1c42 70 110 114 185 114c43 0 120 -23 120 -134c0 -22 -4 -49 -9 -76l-56 -294c-10 -54 -26 -143 -22 -185h-42c-7 22 7 117 18 179l58 304c3 20 7 44 7 66c0 57 -23 100 -93 100c-67 0 -168 -78 -191 -205l-45 -246h-46l66 351c9 48 17 96 12 129h41 c5 -23 4 -46 -5 -104z"></glyph><glyph glyph-name="theta-grek" unicode="θ" d="M260 -11c-94 0 -162 80 -162 235c0 40 5 102 20 175c35 172 120 322 258 322c99 0 159 -90 158 -223c0 -47 -5 -100 -14 -147c-41 -212 -118 -362 -260 -362zM163 388h317c7 43 8 76 8 112c0 102 -38 182 -119 182c-108 0 -177 -141 -206 -294zM473 350h-317 c-8 -50 -12 -90 -12 -128c0 -124 50 -194 121 -194c106 0 172 133 208 322z"></glyph><glyph glyph-name="iota-grek" unicode="ι" d="M224 480l-73 -384c-9 -50 -5 -69 33 -67l-11 -37c-4 -2 -11 -3 -20 -3c-27 0 -50 14 -51 65c1 27 10 67 21 129l57 297h44z"></glyph><glyph glyph-name="kappa-grek" unicode="κ" d="M225 258v-3c63 -16 97 -74 136 -141l66 -114h-50l-61 106c-43 71 -79 119 -140 119h-14l-41 -225h-45l72 388c6 33 11 74 8 92h41c3 -11 5 -42 -3 -81l-26 -140h5c114 96 198 167 265 221h55v-3c-74 -61 -154 -125 -268 -219z"></glyph><glyph glyph-name="lamda-grek" unicode="λ" d="M301 0l-59 311c-6 30 -13 69 -16 99l-5 1c-12 -24 -31 -65 -48 -96l-170 -315h-49l245 448c7 13 10 23 10 28s0 12 -2 22c-19 104 -41 184 -108 184c-5 0 -8 -1 -12 -1l8 38c8 1 13 2 22 2c78 -2 103 -76 133 -220l98 -501h-47z"></glyph><glyph glyph-name="mu-grek" unicode="μ" d="M485 535h61l-75 -535h-61l23 166c-27 -55 -60 -99 -101 -130s-86 -47 -135 -47c-37 0 -68 10 -92 30l-37 -260h-60l55 390v1l54 381v2v1v1h61l-54 -384c-6 -41 0 -72 17 -92c17 -21 41 -31 73 -31c41 0 81 17 122 50c40 33 75 80 105 141z"></glyph><glyph glyph-name="nu-grek" unicode="ν" d="M84 480h46c17 -97 35 -194 52 -291c9 -53 14 -91 22 -139h4c63 89 175 254 203 375c5 22 8 41 8 55h44c0 -9 0 -26 -3 -41c-23 -129 -129 -292 -246 -439h-43z"></glyph><glyph glyph-name="xi-grek" unicode="ξ" d="M399 396h-24c-157 -1 -252 -88 -252 -198c0 -80 51 -125 146 -152c46 -12 93 -21 128 -23c5 0 7 -4 7 -8c0 -33 -50 -124 -78 -153l-34 11c18 22 53 89 60 118c-33 4 -87 13 -128 27c-80 28 -148 79 -148 175c0 122 102 202 191 224v4c-54 17 -97 65 -97 127 c0 85 79 173 206 173c52 0 95 -14 114 -30l-16 -33c-15 11 -53 25 -102 25c-98 0 -156 -61 -156 -135s65 -113 146 -114h42z"></glyph><glyph glyph-name="omicron-grek" unicode="ο" d="M254 -11c-119 0 -178 96 -178 196c0 154 107 306 254 306c129 0 178 -104 178 -201c0 -131 -96 -301 -254 -301zM260 28c109 0 201 133 201 263c0 63 -30 161 -135 161c-117 0 -203 -131 -203 -263c0 -92 53 -161 137 -161z"></glyph><glyph glyph-name="rho-grek" unicode="ρ" d="M60 -198h-41c-3 30 6 99 20 179l41 221c21 115 51 173 88 215c40 46 92 74 164 74c105 0 166 -85 166 -188c0 -171 -111 -314 -249 -314c-60 0 -121 31 -145 89h-3l-16 -91c-10 -54 -26 -144 -25 -185zM129 220l-5 -27c-3 -10 -4 -24 -4 -37c0 -56 46 -128 132 -128 c105 0 199 116 199 272c0 79 -42 152 -129 152c-81 0 -163 -63 -193 -232z"></glyph><glyph glyph-name="sigma-grek" unicode="σ" d="M427 458v-4c64 -36 81 -117 81 -163c0 -132 -96 -302 -253 -302c-120 0 -179 96 -179 196c0 154 107 306 254 306h103h40h91l-6 -39c-20 0 -74 1 -131 6zM259 28c110 0 202 134 202 263c0 63 -30 161 -135 161c-117 0 -203 -131 -203 -263c0 -91 54 -161 136 -161z"></glyph><glyph glyph-name="tau-grek" unicode="τ" d="M264 30l-6 -36c-8 -3 -20 -5 -30 -5c-39 0 -75 23 -75 87c0 15 3 33 7 55l58 311h-53c-55 0 -83 -5 -105 -9v27c15 9 49 20 108 20h260l-10 -38h-155l-58 -316c-4 -20 -5 -34 -5 -45c0 -42 20 -52 44 -52c8 0 13 1 20 1z"></glyph><glyph glyph-name="upsilon-grek" unicode="υ" d="M445 480h45c6 -15 11 -47 11 -85c0 -177 -69 -406 -250 -406c-73 0 -139 51 -139 147c0 13 2 28 5 45l25 136c18 92 24 139 21 163h41c6 -9 7 -42 -2 -87l-39 -212c-3 -15 -4 -29 -4 -41c0 -80 56 -112 101 -112c117 0 195 163 195 368c0 41 -5 71 -10 84z"></glyph><glyph glyph-name="phi-grek" unicode="φ" d="M264 26l62 338c15 85 50 127 112 127c69 0 140 -70 140 -186c0 -190 -129 -312 -276 -316l-35 -187h-45l35 187c-95 13 -179 79 -179 206c0 179 134 276 193 297l17 -29c-55 -25 -163 -110 -163 -260c0 -84 40 -159 139 -177zM371 369l-62 -342c120 6 222 117 222 272 c0 79 -39 153 -98 153c-32 0 -52 -27 -62 -83z"></glyph><glyph glyph-name="chi-grek" unicode="χ" d="M-16 480h49l55 -169c12 -37 24 -78 35 -117h4c24 39 46 73 77 120c36 55 72 110 109 166h51c-75 -110 -149 -220 -224 -330l119 -340l-44 -15l-57 171c-17 49 -33 97 -48 149h-4c-19 -29 -41 -64 -65 -102c-46 -72 -93 -145 -139 -218l-40 18c77 117 153 232 230 347z "></glyph><glyph glyph-name="psi-grek" unicode="ψ" d="M555 480h45c7 -16 13 -46 13 -86c0 -232 -110 -400 -278 -405l-34 -187h-45l34 187c-94 6 -163 59 -164 174c0 22 2 46 8 73l27 144c6 37 12 80 9 100h42c4 -10 4 -40 -4 -83l-29 -161c-5 -27 -7 -50 -7 -71c2 -95 59 -134 126 -138l107 580h45l-108 -580 c99 0 225 118 225 363c0 47 -7 79 -12 90z"></glyph><glyph glyph-name="omega-grek" unicode="ω" d="M554 489h44c28 -29 54 -97 54 -168c0 -191 -99 -332 -205 -332c-65 0 -100 35 -111 93h-3c-26 -56 -64 -93 -130 -93s-131 57 -131 176c0 155 85 283 138 324h48v-2c-56 -45 -139 -167 -139 -319c0 -99 49 -140 93 -140c55 0 101 60 115 140l33 188h45l-32 -174 c-5 -23 -6 -38 -6 -53c0 -43 21 -101 84 -101c69 0 155 122 155 283c0 78 -22 145 -52 176v2z"></glyph><glyph glyph-name="finalsigma-grek" unicode="ς" d="M306 -138l-34 11c18 24 50 89 57 117c-25 4 -71 13 -103 24c-72 26 -146 83 -146 192c0 147 115 285 268 285c42 0 77 -9 97 -24l-15 -34c-24 12 -47 19 -85 19c-118 0 -218 -101 -218 -244c0 -89 52 -136 133 -161c41 -14 71 -19 113 -25c5 -1 7 -4 7 -9 c0 -39 -52 -126 -74 -151z"></glyph><glyph glyph-name="alphatonos-grek" unicode="ά" d="M391 678h74l-135 -138h-40zM409 98h-2c-35 -59 -97 -109 -180 -109c-96 0 -155 71 -155 172c0 179 117 330 255 330c85 0 125 -54 134 -110l4 1c11 46 19 72 27 98h37c-5 -18 -17 -68 -28 -117c-16 -73 -34 -159 -46 -225c-15 -74 -12 -110 28 -110l-11 -38 c-6 -1 -11 -1 -15 -1c-32 0 -60 29 -48 109zM119 170c0 -80 40 -142 122 -142c75 0 142 76 173 151c10 24 14 44 20 77c4 21 6 41 6 63c0 65 -40 133 -120 133c-98 0 -201 -125 -201 -282z"></glyph><glyph glyph-name="epsilontonos-grek" unicode="έ" d="M323 678h73l-134 -138h-41zM328 239h-74c-86 0 -164 -40 -164 -120c0 -57 52 -91 128 -91c59 0 122 22 145 37l9 -35c-23 -18 -96 -41 -159 -41c-91 0 -169 37 -169 127c0 75 65 135 142 145v4c-56 12 -85 48 -85 93c0 64 69 133 188 133c49 0 101 -14 119 -32l-15 -33 c-13 8 -51 27 -112 27c-82 0 -134 -42 -134 -95c0 -55 57 -81 130 -81h57z"></glyph><glyph glyph-name="etatonos-grek" unicode="ή" d="M415 678h74l-135 -138h-40zM190 376l2 1c42 70 110 114 185 114c43 0 120 -23 120 -134c0 -22 -4 -49 -9 -76l-55 -294c-10 -54 -26 -143 -23 -185h-42c-7 22 7 117 18 179l58 304c3 20 7 44 7 66c0 57 -23 100 -92 100c-67 0 -169 -78 -192 -205l-45 -246h-46l66 351 c9 48 17 96 12 129h42c5 -23 4 -46 -6 -104z"></glyph><glyph glyph-name="iotatonos-grek" unicode="ί" d="M284 678h74l-135 -138h-40zM224 480l-73 -384c-9 -50 -5 -69 33 -67l-11 -37c-4 -2 -11 -3 -20 -3c-27 0 -51 16 -51 65c0 24 10 68 20 121l58 305h44z"></glyph><glyph glyph-name="iotadialytika-grek" unicode="ϊ" d="M122 564c-22 0 -36 18 -36 39s17 40 39 40c23 0 36 -18 36 -39c0 -20 -14 -40 -39 -40zM290 564c-22 0 -35 18 -35 39s17 40 39 40s36 -18 36 -39c0 -20 -14 -40 -40 -40zM217 480l-74 -384c-9 -50 -5 -69 33 -67l-10 -37c-5 -2 -12 -3 -21 -3c-27 0 -51 16 -51 65 c0 23 10 68 21 121l58 305h44z"></glyph><glyph glyph-name="omicrontonos-grek" unicode="ό" d="M393 678h73l-135 -138h-40zM254 -11c-119 0 -178 96 -178 196c0 154 107 306 254 306c129 0 178 -104 178 -201c0 -131 -96 -301 -254 -301zM260 28c109 0 201 133 201 263c0 63 -30 161 -135 161c-117 0 -203 -131 -203 -263c0 -92 53 -161 137 -161z"></glyph><glyph glyph-name="upsilontonos-grek" unicode="ύ" d="M387 678h74l-135 -138h-40zM445 480h45c6 -15 11 -47 11 -85c0 -177 -71 -406 -253 -406c-72 0 -136 51 -136 147c0 13 2 28 5 45l25 136c18 92 24 139 21 163h41c6 -9 7 -42 -2 -87l-39 -212c-3 -15 -4 -29 -4 -41c0 -80 55 -112 100 -112c117 0 196 163 196 368 c0 41 -5 71 -10 84z"></glyph><glyph glyph-name="upsilondialytika-grek" unicode="ϋ" d="M255 564c-22 0 -35 18 -35 39s17 40 39 40s36 -18 36 -39c0 -20 -14 -40 -40 -40zM424 564c-22 0 -35 18 -35 39s17 40 39 40s36 -18 36 -39c0 -20 -14 -40 -40 -40zM445 480h45c6 -15 11 -47 11 -85c0 -177 -71 -406 -253 -406c-72 0 -136 51 -136 147c0 13 2 28 5 45 l25 136c18 92 24 139 21 163h41c6 -9 7 -42 -2 -87l-39 -212c-3 -15 -4 -29 -4 -41c0 -80 55 -112 100 -112c117 0 196 163 196 368c0 41 -5 71 -10 84z"></glyph><glyph glyph-name="omegatonos-grek" unicode="ώ" d="M477 678h74l-135 -138h-40zM554 489h44c28 -29 54 -97 54 -168c0 -191 -99 -332 -205 -332c-65 0 -100 35 -111 93h-3c-26 -56 -64 -93 -130 -93s-131 57 -131 176c0 155 85 283 138 324h48v-2c-56 -45 -139 -167 -139 -319c0 -99 49 -140 93 -140c55 0 101 60 115 140 l33 188h45l-32 -174c-5 -23 -6 -38 -6 -53c0 -43 20 -101 83 -101c69 0 156 122 156 283c0 78 -22 145 -52 176v2z"></glyph><glyph glyph-name="iotadialytikatonos-grek" unicode="ΐ" d="M216 480l-74 -384c-9 -50 -5 -69 33 -67l-10 -37c-5 -2 -12 -3 -21 -3c-27 0 -51 16 -51 66c0 24 10 68 20 121l58 304h45zM231 682h60l-96 -146h-30zM117 564c-21 0 -33 17 -33 37c0 19 16 38 36 38c22 0 34 -18 34 -37s-13 -38 -37 -38zM323 564c-20 0 -33 17 -33 37 c0 19 16 38 37 38s34 -18 34 -37s-13 -38 -38 -38z"></glyph><glyph glyph-name="upsilondialytikatonos-grek" unicode="ΰ" d="M445 480h45c6 -15 11 -47 11 -85c0 -177 -71 -406 -253 -406c-72 0 -136 51 -136 147c0 13 2 28 5 45l25 136c18 92 24 139 21 163h41c6 -9 7 -42 -2 -87l-39 -212c-3 -15 -4 -29 -4 -41c0 -80 55 -112 100 -112c117 0 196 163 196 368c0 41 -5 71 -10 84zM354 682h59 l-95 -146h-30zM239 564c-20 0 -33 17 -33 37c0 19 16 38 37 38s34 -18 34 -37s-13 -38 -38 -38zM445 564c-20 0 -33 17 -33 37c0 19 16 38 37 38s34 -18 34 -37s-13 -38 -38 -38z"></glyph><glyph glyph-name="greekquestionmark" unicode=";" d="M-13 -121l-39 -5c21 42 64 150 81 212l63 2c-28 -67 -87 -181 -105 -209zM105 346c-23 0 -40 21 -40 46c0 28 19 49 44 49c26 0 41 -21 41 -47c0 -25 -17 -48 -45 -48z"></glyph><glyph glyph-name="greekanoteleia" unicode="·" d="M177 277c-23 0 -39 21 -39 44c0 27 18 47 42 47c26 0 40 -20 40 -45c0 -23 -17 -46 -43 -46z"></glyph><glyph glyph-name="tonosmod-grek" unicode="΄" d="M533 678h74l-135 -138h-40z"></glyph><glyph glyph-name="greekdialytikatonosmod" unicode="΅" d="M294 694h59l-95 -146h-30zM179 575c-20 0 -33 17 -33 37s16 38 37 38s34 -17 34 -36c0 -20 -13 -39 -38 -39zM385 575c-20 0 -33 17 -33 37s16 38 37 38s34 -17 34 -36c0 -20 -13 -39 -38 -39z"></glyph><glyph glyph-name="dieresis_acutecomb" unicode="" d="M302 584c-16 0 -32 9 -32 33c0 20 17 38 38 38c25 0 32 -17 32 -32c0 -24 -20 -39 -38 -39zM414 678h57l-108 -132h-32zM500 584c-16 0 -32 9 -32 33c0 20 17 38 38 38c25 0 32 -17 32 -32c0 -24 -20 -39 -38 -39z"></glyph></font>
</defs>
</svg>
