<?xml version="1.0" encoding="UTF-8" standalone="no"?> <svg xmlns="http://www.w3.org/2000/svg" xmlns:xlink="http://www.w3.org/1999/xlink" version="1.1"><metadata> Created by FontForge 20170924 at Fri Feb 28 08:32:42 2020 By www-data </metadata><defs><font id="HeritageSans-ExtraLightItalic"><glyph glyph-name="ff" unicode="ff" d="M742 713l-15 -38c-14 8 -35 12 -55 12c-83 0 -117 -79 -136 -185l-4 -22h123l-8 -38h-123l-84 -442h-47l84 442h-236l-84 -442h-47l84 442h-68l8 38h68l4 23c11 61 33 127 76 170c27 26 61 43 105 43c24 0 44 -6 61 -15l-17 -38c-12 7 -31 12 -48 12 c-81 0 -114 -85 -130 -173l-4 -22h236l4 23c14 79 40 144 82 184c26 24 64 41 103 41c38 0 58 -8 68 -15z"></glyph><glyph glyph-name="ffi" unicode="ffi" d="M807 703l-19 -39c-21 12 -57 23 -95 23c-92 0 -139 -84 -156 -179l-5 -28h263l-92 -480h-47l84 442h-216l-84 -442h-47l85 442h-237l-84 -442h-47l84 442h-68l8 38h68l4 23c10 59 34 122 76 165c29 29 67 48 116 48c34 0 59 -12 76 -24l-20 -37c-17 11 -41 20 -63 20 c-33 0 -59 -11 -79 -31c-30 -30 -48 -80 -59 -142l-4 -22h237l5 29c21 130 97 219 216 219c40 0 86 -12 100 -25z"></glyph><glyph glyph-name="f_f_j" unicode="ffj" d="M807 703l-19 -39c-21 12 -57 23 -95 23c-92 0 -139 -84 -156 -179l-5 -28h263l-93 -484c-15 -78 -32 -132 -62 -164c-29 -31 -67 -44 -102 -44c-22 0 -35 1 -50 6l7 38c8 -3 24 -5 45 -5c53 0 90 37 111 146l90 469h-217l-84 -442h-47l84 442h-236l-84 -442h-47l84 442 h-68l8 38h68l4 23c10 59 34 122 76 165c29 29 67 48 116 48c34 0 59 -12 75 -24l-19 -37c-17 11 -41 20 -63 20c-33 0 -59 -11 -79 -31c-30 -30 -48 -80 -59 -142l-4 -22h237l5 29c21 130 97 219 216 219c40 0 86 -12 100 -25z"></glyph><glyph glyph-name="ffl" unicode="ffl" d="M479 694l-21 -37c-18 11 -42 18 -64 18c-34 0 -60 -13 -80 -33c-35 -35 -52 -90 -61 -140l-4 -22h237l3 18c13 80 43 142 96 184c36 29 89 46 138 46c48 0 93 -11 114 -26l-134 -702h-47l129 672c-17 9 -34 15 -78 15c-100 0 -151 -80 -170 -181l-5 -26h121l-8 -38h-121 l-84 -442h-47l85 442h-237l-84 -442h-47l84 442h-68l8 38h68l4 23c10 60 35 122 77 164c30 30 69 49 118 49c34 0 62 -12 78 -22z"></glyph><glyph glyph-name="f_i" unicode="fi" d="M158 0h-46l84 442h-68l8 38h68l5 29c24 130 97 219 216 219c40 0 86 -12 100 -25l-19 -39c-21 12 -57 23 -95 23c-92 0 -139 -84 -156 -179l-5 -28h263l-92 -480h-47l84 442h-216z"></glyph><glyph glyph-name="f_j" unicode="fj" d="M525 703l-19 -39c-21 12 -57 23 -95 23c-92 0 -139 -84 -156 -179l-5 -28h263l-93 -484c-15 -78 -32 -132 -62 -164c-29 -31 -67 -44 -102 -44c-22 0 -35 1 -49 6l7 38c8 -3 23 -5 44 -5c53 0 90 37 111 146l90 469h-217l-83 -442h-47l84 442h-68l8 38h68l5 29 c21 130 97 219 216 219c40 0 86 -12 100 -25z"></glyph><glyph glyph-name="f_l" unicode="fl" d="M158 0h-46l84 442h-68l8 38h68l3 18c15 80 43 142 96 184c36 29 89 46 138 46c48 0 93 -11 114 -26l-134 -702h-47l129 672c-17 9 -34 15 -78 15c-100 0 -151 -80 -170 -181l-5 -26h121l-8 -38h-121z"></glyph><glyph glyph-name=".notdef" d="M0 0v700h500v-700h-500zM250 395l170 255h-340zM280 350l170 -255v510zM80 50h340l-170 255zM50 605v-510l170 255z"></glyph><glyph glyph-name=".notdef" d="M0 0v700h500v-700h-500zM250 395l170 255h-340zM280 350l170 -255v510zM80 50h340l-170 255zM50 605v-510l170 255z"></glyph><glyph glyph-name="space" unicode=" "></glyph><glyph glyph-name="exclam" unicode="!" d="M143 154l70 560h43l-87 -560h-26zM135 -4c-9 0 -17 3 -22 10c-6 6 -8 14 -7 23s6 16 13 23s16 10 25 10s16 -3 21 -10s8 -14 7 -23s-6 -17 -13 -23c-7 -7 -15 -10 -24 -10z"></glyph><glyph glyph-name="quotedbl" unicode="&quot;" d="M236 550l22 215h41l-38 -215h-25zM371 550l22 215h42l-39 -215h-25z"></glyph><glyph glyph-name="numbersign" unicode="#" d="M125 0l73 218h-136l4 33h143l70 210h-137l5 32h142l74 221h34l-74 -221h193l74 221h33l-74 -221h137l-5 -32h-142l-70 -210h136l-5 -33h-142l-73 -218h-33l72 218h-193l-72 -218h-34zM242 251h194l69 210h-193z"></glyph><glyph glyph-name="dollar" unicode="$" d="M559 565c-31 79 -86 122 -164 131l-43 -305c28 -6 51 -12 70 -17c18 -5 37 -13 57 -23c20 -11 35 -22 46 -35s19 -30 24 -50c5 -21 6 -44 2 -71c-9 -62 -36 -111 -81 -147s-104 -55 -175 -58l-11 -80h-25l11 80c-22 1 -43 3 -62 7c-20 3 -39 9 -58 18 c-19 8 -36 18 -50 31c-15 12 -27 28 -37 47c-11 19 -18 41 -21 65l21 10c25 -100 96 -151 211 -152l47 338l-42 10c-67 15 -111 39 -133 71c-21 29 -28 67 -21 113c8 59 33 104 74 133s94 43 159 43h15l9 65h26l-10 -67c50 -5 89 -21 118 -46c28 -25 49 -59 63 -101z M327 397l43 301h-12c-41 0 -75 -6 -102 -19c-28 -13 -49 -30 -62 -51s-22 -46 -26 -75c-3 -21 -2 -40 2 -56c4 -17 10 -30 19 -40c8 -11 20 -20 36 -28s31 -14 46 -18c15 -5 33 -9 56 -14zM507 184c1 12 2 23 3 32s0 18 -3 27s-6 16 -8 23c-3 7 -7 13 -13 19l-16 16 c-5 4 -11 8 -19 13c-9 4 -16 8 -23 11s-16 6 -25 9c-10 3 -19 5 -28 8c-9 2 -18 4 -29 6l-47 -332c61 3 110 19 145 49c35 29 56 69 63 119z"></glyph><glyph glyph-name="percent" unicode="%" d="M330 720c49 0 85 -21 107 -62c21 -42 28 -95 19 -158c-9 -64 -30 -117 -63 -158s-75 -62 -125 -62s-86 21 -107 62c-22 41 -28 94 -19 158c9 63 30 116 63 158c33 41 75 62 125 62zM762 714h30l-501 -714h-30zM271 304c39 0 71 18 96 55c25 36 41 83 49 141s5 105 -9 142 c-15 36 -42 54 -81 54s-71 -18 -95 -54c-25 -36 -41 -83 -50 -142c-4 -37 -5 -70 -2 -99s12 -53 28 -70c16 -18 37 -27 64 -27zM787 434c49 0 85 -21 107 -62c21 -42 27 -95 18 -158c-9 -64 -30 -117 -63 -158s-75 -62 -124 -62c-50 0 -86 21 -107 62c-22 41 -29 94 -20 158 c9 63 31 116 64 158c33 41 75 62 125 62zM728 18c39 0 71 18 96 55c24 36 40 83 49 141c8 58 5 105 -9 142c-15 36 -42 54 -81 54c-40 0 -72 -18 -96 -54c-25 -36 -41 -83 -49 -142s-5 -106 9 -142s41 -54 81 -54z"></glyph><glyph glyph-name="ampersand" unicode="&amp;" d="M663 0h-57l-98 102c-35 -35 -73 -62 -114 -82c-42 -20 -84 -30 -127 -30c-63 0 -113 21 -151 62c-39 41 -54 93 -45 156c4 28 13 55 26 81c13 25 32 50 56 73s53 44 86 61c-26 47 -36 90 -31 131c7 45 26 84 59 119c32 34 74 51 127 51c22 0 42 -3 60 -10s33 -17 44 -28 s18 -24 22 -38l-19 -10c-6 17 -18 31 -37 43c-19 11 -42 17 -69 17c-13 0 -26 -1 -37 -4c-12 -3 -23 -7 -32 -12s-18 -11 -25 -18c-8 -7 -15 -15 -21 -23s-11 -16 -15 -25c-5 -9 -8 -17 -10 -25c-3 -9 -5 -17 -6 -25c-2 -15 -1 -31 2 -48s7 -33 14 -48c6 -16 16 -34 29 -54 s25 -38 38 -55s30 -38 52 -62c21 -25 41 -47 59 -66s41 -44 70 -74c44 59 71 123 81 192h39c-11 -79 -44 -152 -97 -217zM271 16c25 0 50 5 76 14c25 9 50 21 73 38c23 16 45 35 66 58c-119 125 -196 216 -233 273c-40 -21 -72 -48 -95 -82s-38 -70 -43 -109 c-8 -57 3 -103 34 -138c30 -36 71 -54 122 -54z"></glyph><glyph glyph-name="quoteright" unicode="’" d="M224 567c43 37 67 73 72 109c1 11 1 21 -2 30c-5 -1 -9 -1 -11 0c-5 1 -10 3 -13 6s-6 6 -7 11c-2 5 -3 9 -2 14c1 9 6 17 13 24c7 6 16 9 25 9c13 0 23 -7 29 -22s8 -32 5 -51c-4 -25 -15 -50 -32 -76c-18 -27 -41 -49 -68 -68c-3 4 -6 9 -9 14z"></glyph><glyph glyph-name="parenleft" unicode="(" d="M156 -165c-89 115 -122 260 -97 437c13 90 38 173 76 248s86 140 145 194l17 -16c-51 -53 -94 -116 -127 -190c-34 -74 -57 -152 -69 -234c-11 -83 -10 -161 3 -234c13 -74 37 -137 74 -189z"></glyph><glyph glyph-name="parenright" unicode=")" d="M-33 -165l-17 16c51 52 94 115 128 189c33 73 56 151 68 234c11 82 11 160 -2 234s-38 137 -75 190l22 16c43 -54 73 -119 90 -194s19 -158 6 -248c-25 -177 -98 -322 -220 -437z"></glyph><glyph glyph-name="asterisk" unicode="*" d="M291 445l-31 25l109 116l-137 39l19 39l131 -51l14 147h41l-27 -147l146 51l7 -39l-148 -39l76 -116l-37 -25l-64 123z"></glyph><glyph glyph-name="plus" unicode="+" d="M597 369l-5 -32h-214l-31 -223h-35l31 223h-215l5 32h214l32 223h35l-31 -223h214z"></glyph><glyph glyph-name="comma" unicode="," d="M-12 -142c21 18 37 36 50 55c12 19 19 37 22 54c1 11 1 21 -2 30h-11c-7 1 -13 5 -17 11c-5 6 -6 13 -5 21c1 6 3 12 7 17c3 5 8 9 14 12c5 3 11 4 17 4c13 0 23 -7 29 -22s8 -33 5 -52c-3 -25 -14 -50 -32 -76s-41 -49 -68 -68c-3 5 -6 9 -9 14z"></glyph><glyph glyph-name="hyphenminus" unicode="-" d="M114 256l3 25h240l-3 -25h-240z"></glyph><glyph glyph-name="period" unicode="." d="M62 -4c-9 0 -16 3 -21 10c-6 6 -8 14 -7 23c1 6 3 12 7 17c3 5 8 9 14 12c5 3 11 4 17 4c9 0 16 -3 21 -10s7 -14 6 -23s-5 -17 -12 -23c-7 -7 -16 -10 -25 -10z"></glyph><glyph glyph-name="slash" unicode="/" d="M-22 0l367 714h34l-366 -714h-35z"></glyph><glyph glyph-name="zero" unicode="0" d="M393 724c55 0 100 -17 135 -50s59 -77 70 -132s11 -116 2 -185c-10 -69 -28 -131 -54 -185c-27 -55 -62 -99 -107 -132s-94 -50 -149 -50s-100 17 -135 50s-59 77 -70 132c-11 54 -12 116 -3 185c10 69 28 130 55 185s62 99 107 132c44 33 94 50 149 50zM293 16 c37 0 72 9 103 26s57 42 78 74c21 31 38 67 52 108c14 40 24 84 31 133c7 47 10 92 7 133s-11 78 -23 109s-31 55 -57 73c-26 17 -58 26 -95 26s-71 -9 -102 -26c-31 -18 -57 -43 -78 -74c-21 -32 -39 -68 -52 -108c-14 -40 -24 -84 -31 -133c-8 -47 -10 -92 -7 -133 s11 -77 23 -108c11 -31 30 -56 56 -73c26 -18 58 -27 95 -27z"></glyph><glyph glyph-name="one" unicode="1" d="M431 714h42l-97 -688h163l-3 -26h-372l4 26h167l92 654l-196 -161l-14 18z"></glyph><glyph glyph-name="two" unicode="2" d="M56 0l3 26l311 307l16 16c10 9 18 17 24 23c5 5 13 14 24 26c11 11 20 22 27 33s14 23 22 36s15 27 20 42c5 14 8 28 10 43c6 44 -3 79 -28 106s-63 40 -116 40c-39 0 -75 -7 -106 -21c-32 -15 -57 -33 -76 -55l-18 10c19 25 47 47 85 65s81 27 128 27 c63 0 110 -16 140 -49c29 -33 40 -75 33 -126c-5 -34 -16 -66 -35 -95c-19 -30 -46 -62 -79 -95l-334 -326h407l-4 -33h-454z"></glyph><glyph glyph-name="three" unicode="3" d="M112 103c14 -25 36 -45 67 -62c30 -17 66 -25 109 -25c63 0 113 17 149 51c35 34 57 76 64 126c3 23 3 44 -2 63c-5 18 -11 33 -20 45s-21 22 -36 31s-29 15 -43 20c-14 4 -30 7 -48 10c-19 3 -34 4 -45 5h-39l3 24c152 0 236 58 252 173c6 40 -2 72 -23 97 s-58 37 -111 37c-29 0 -55 -4 -80 -12s-46 -17 -61 -28s-29 -23 -40 -36l-18 10c19 25 47 46 84 65c37 18 79 27 127 27c25 0 47 -3 68 -8c20 -5 38 -14 55 -25c17 -12 29 -29 37 -50c7 -21 9 -46 5 -75c-2 -17 -6 -33 -12 -48s-13 -29 -21 -40c-8 -12 -17 -23 -27 -32 c-11 -10 -21 -19 -32 -26s-23 -14 -35 -19s-24 -9 -35 -12s-22 -6 -33 -7c23 -2 46 -7 67 -14s40 -18 59 -32c18 -14 31 -33 40 -57c9 -25 11 -53 6 -85c-8 -57 -33 -105 -76 -144c-43 -40 -100 -60 -173 -60c-53 0 -97 11 -132 32s-59 44 -70 71z"></glyph><glyph glyph-name="four" unicode="4" d="M444 231h122l-4 -25h-122l-29 -206h-41l29 206h-357l4 25l424 483h42zM402 231l62 441l-387 -441h325z"></glyph><glyph glyph-name="five" unicode="5" d="M294 -10c-51 0 -93 10 -126 31c-34 20 -57 45 -68 75l19 10c16 -29 39 -52 69 -67c29 -15 61 -23 96 -23c17 0 35 2 52 5s35 10 54 19s36 21 51 35s29 33 41 56c11 23 19 50 24 80c4 31 3 58 -3 82s-15 43 -27 57c-13 14 -28 25 -47 34s-37 15 -55 18s-37 4 -56 4 c-58 0 -101 -11 -129 -32l-16 13l46 327h351l-5 -33h-325l-39 -275c39 17 82 26 129 26c37 0 69 -4 97 -13s50 -20 66 -35s29 -31 40 -50c10 -19 16 -39 17 -60s0 -42 -1 -63c-3 -22 -9 -43 -16 -63c-8 -21 -19 -41 -33 -60c-15 -19 -31 -36 -50 -50 c-19 -15 -41 -26 -68 -35s-57 -13 -88 -13z"></glyph><glyph glyph-name="six" unicode="6" d="M468 700c-73 0 -137 -37 -192 -110c-56 -74 -92 -168 -109 -281c19 22 42 42 69 60c26 18 55 33 86 44s61 16 90 16c17 0 33 -2 49 -5c16 -4 31 -10 45 -17c13 -8 26 -18 37 -29s20 -24 27 -39s12 -32 15 -51c2 -19 2 -39 -1 -62c-7 -45 -23 -86 -49 -122 c-27 -37 -59 -65 -98 -84c-39 -20 -81 -30 -125 -30c-23 0 -45 3 -65 9c-21 6 -40 16 -59 31c-19 14 -34 33 -45 57s-18 54 -23 90c-5 35 -4 77 3 126c7 50 19 97 36 142c16 45 35 84 58 117c22 33 47 62 74 87s55 43 85 56s60 19 90 19c28 0 55 -5 81 -16 c25 -11 45 -27 58 -47l-17 -13c-29 35 -69 52 -120 52zM401 404c-31 0 -63 -7 -96 -20c-33 -14 -61 -30 -83 -47c-23 -17 -42 -36 -58 -56c-10 -89 -2 -155 25 -199s69 -66 126 -66c55 0 104 19 147 56s69 88 78 153c8 55 0 99 -25 131s-63 48 -114 48z"></glyph><glyph glyph-name="seven" unicode="7" d="M250 0c33 93 88 200 164 321s168 241 275 360h-429l4 33h467l-3 -25c-88 -97 -175 -212 -260 -343c-86 -132 -145 -247 -176 -346h-42z"></glyph><glyph glyph-name="eight" unicode="8" d="M584 571c-3 -22 -10 -42 -21 -61s-24 -35 -37 -47s-30 -23 -49 -34s-35 -18 -48 -23s-27 -11 -44 -16c34 -16 61 -30 81 -42s39 -26 56 -42s29 -34 35 -53s7 -42 4 -67c-9 -59 -38 -106 -87 -142c-50 -36 -108 -54 -175 -54c-19 0 -37 2 -56 5s-38 9 -59 18 s-38 20 -53 33s-26 32 -33 55c-8 23 -10 48 -6 77c13 95 82 163 206 203c-48 25 -82 52 -101 79s-26 59 -21 98c4 27 13 52 26 73s30 39 51 52s44 24 70 31s54 10 84 10c61 0 107 -13 139 -40s45 -65 38 -113zM364 400c19 9 31 15 37 18c5 3 16 9 33 18c16 9 27 16 34 21 c6 5 15 12 27 22c11 9 20 18 25 27c5 8 10 18 15 30c5 11 9 23 11 36c5 39 -4 71 -29 94s-64 35 -115 35s-94 -12 -127 -35c-34 -23 -54 -56 -59 -98c-7 -51 13 -92 61 -123c17 -11 46 -26 87 -45zM521 181c5 30 0 55 -14 76s-41 41 -81 62c-8 4 -25 12 -51 24 s-45 21 -56 27c-22 -9 -42 -19 -59 -28s-36 -22 -56 -37s-36 -34 -49 -55c-13 -22 -21 -46 -25 -72c-5 -33 -1 -61 11 -86c11 -25 31 -44 58 -58s61 -21 102 -21s78 8 110 23s57 35 76 60s30 53 34 85z"></glyph><glyph glyph-name="nine" unicode="9" d="M424 724c24 0 46 -3 66 -9s40 -16 59 -30c19 -15 34 -34 45 -58s19 -54 24 -89c5 -36 3 -78 -5 -127c-9 -62 -24 -120 -47 -173s-50 -98 -81 -134s-65 -64 -102 -84s-75 -30 -112 -30c-29 0 -56 6 -81 17c-26 11 -45 26 -58 46l17 13c29 -35 69 -52 120 -52 c73 0 137 37 192 111c55 73 91 167 108 280c-30 -35 -67 -63 -112 -86s-89 -34 -132 -34c-55 0 -99 18 -134 54c-35 35 -47 85 -38 149c9 69 40 125 93 170c52 44 111 66 178 66zM335 310c47 0 92 13 135 38s77 53 103 85c10 89 2 155 -25 199s-69 66 -126 66 c-55 0 -104 -18 -147 -55s-70 -89 -79 -154c-8 -55 1 -99 26 -131s62 -48 113 -48z"></glyph><glyph glyph-name="colon" unicode=":" d="M131 479c-9 0 -17 3 -22 10c-6 7 -8 14 -7 23c1 6 3 12 7 17c3 5 8 9 14 12c5 3 11 4 17 4s11 -1 16 -4c4 -3 7 -7 10 -12c2 -5 3 -11 2 -17c-1 -9 -6 -16 -13 -23s-15 -10 -24 -10zM62 -4c-9 0 -16 3 -21 10c-6 6 -8 14 -7 23c1 6 3 12 7 17c3 5 8 9 14 12 c5 3 11 4 17 4c9 0 16 -3 21 -10s7 -14 6 -23s-5 -17 -12 -23c-7 -7 -16 -10 -25 -10z"></glyph><glyph glyph-name="semicolon" unicode=";" d="M114 479c-9 0 -17 3 -22 10s-7 15 -6 24s5 16 13 23c7 6 15 9 24 9c6 0 11 -1 16 -4s8 -7 10 -12s3 -11 2 -17c-1 -9 -6 -16 -13 -23s-15 -10 -24 -10zM-12 -142c21 18 37 36 50 55c12 19 19 37 22 54c1 11 1 21 -2 30h-11c-7 1 -13 5 -17 11c-5 6 -6 13 -5 21 c1 6 3 12 7 17c3 5 8 9 14 12c5 3 11 4 17 4c13 0 23 -7 29 -22s8 -33 5 -52c-3 -25 -14 -50 -32 -76s-41 -49 -68 -68c-3 5 -6 9 -9 14z"></glyph><glyph glyph-name="less" unicode="&lt;" d="M530 541l-5 -36l-366 -153l323 -154l-5 -36l-373 178l3 23z"></glyph><glyph glyph-name="equal" unicode="=" d="M163 442h449l-5 -33h-449zM138 265l4 32h450l-5 -32h-449z"></glyph><glyph glyph-name="greater" unicode="&gt;" d="M76 162l5 36l366 153l-323 154l5 36l373 -178l-3 -23z"></glyph><glyph glyph-name="question" unicode="?" d="M234 155c4 47 16 88 36 121c19 33 48 66 87 97c7 5 16 13 28 22s21 17 27 22s14 11 23 20c9 8 17 16 22 23s11 16 17 26c5 9 10 20 14 32c3 11 6 24 8 37c13 97 -30 145 -130 145c-88 0 -150 -38 -186 -113l-20 7c40 87 112 130 216 130c29 0 55 -3 77 -10s39 -17 50 -28 c11 -12 20 -26 27 -41s10 -31 10 -47c0 -17 -1 -33 -2 -50c-3 -19 -7 -37 -14 -53c-7 -17 -14 -30 -21 -41s-19 -24 -35 -39s-29 -26 -39 -34c-11 -8 -28 -21 -53 -39c-36 -26 -63 -56 -82 -89c-19 -34 -30 -67 -34 -98h-26zM225 -4c-9 0 -17 3 -22 10c-6 6 -8 14 -7 23 s6 16 13 23s16 10 25 10c6 0 11 -1 16 -4c4 -3 7 -7 10 -12c2 -5 3 -11 2 -17c-1 -9 -6 -17 -13 -23c-7 -7 -15 -10 -24 -10z"></glyph><glyph glyph-name="at" unicode="@" d="M390 -10c-46 0 -87 7 -124 20s-66 31 -89 54s-42 50 -57 81s-23 64 -25 100s0 74 5 113c18 110 65 199 142 266s168 100 273 100c39 0 76 -5 109 -15s61 -24 84 -41s44 -38 61 -61c17 -24 30 -50 39 -77c8 -27 14 -56 17 -86s1 -60 -5 -90c-10 -59 -30 -106 -61 -143 s-67 -55 -106 -55c-37 0 -64 15 -80 46c-7 11 -11 24 -12 38c-57 -57 -112 -85 -165 -85c-47 0 -85 19 -112 57c-27 37 -37 87 -28 150c9 62 32 112 70 150c37 38 80 57 127 57c49 0 93 -24 133 -72l8 67h41c-25 -179 -36 -284 -35 -315c1 -11 2 -20 4 -26 c4 -11 11 -21 21 -30c9 -9 21 -13 35 -13c26 0 50 15 73 45c22 30 37 74 46 133c10 67 6 127 -11 178c-18 51 -49 91 -93 120s-98 43 -163 43c-97 0 -179 -31 -246 -93c-67 -63 -109 -145 -124 -248c-10 -66 -7 -125 9 -176s45 -92 88 -122s95 -45 158 -45c45 0 87 7 128 21 c41 13 71 28 92 43l8 -22c-29 -21 -64 -38 -107 -49c-43 -12 -85 -18 -128 -18zM405 177c55 0 106 29 153 86c0 25 3 58 8 99l16 107c-34 52 -75 78 -124 78c-31 0 -59 -10 -84 -31s-45 -47 -58 -78s-21 -65 -22 -101c-3 -49 6 -87 26 -116c19 -29 48 -44 85 -44z"></glyph><glyph glyph-name="A" unicode="A" d="M524 0l-69 266h-323l-144 -266h-28l386 714h38l185 -714h-45zM146 292h303l-98 381z"></glyph><glyph glyph-name="B" unicode="B" d="M519 375c48 -11 81 -33 99 -66s24 -71 18 -114c-8 -58 -34 -105 -77 -141c-44 -36 -98 -54 -163 -54h-280l100 714h254c67 0 117 -16 152 -49s48 -77 40 -132c-3 -23 -9 -45 -19 -64c-11 -19 -23 -35 -37 -47c-14 -13 -28 -23 -42 -30c-15 -7 -30 -13 -45 -17zM254 688 l-42 -302h224c20 0 40 3 59 8s37 13 55 24s33 26 46 46c12 20 20 44 24 71s3 50 -4 71c-7 20 -17 36 -31 48c-15 11 -31 20 -49 26c-18 5 -37 8 -57 8h-225zM395 26c30 0 59 6 86 17s51 29 73 56c21 27 35 59 40 97c4 28 3 53 -4 75s-19 39 -34 52s-33 22 -52 29 c-19 6 -40 9 -62 9h-116c-57 -1 -97 -1 -118 -1l-47 -334h234z"></glyph><glyph glyph-name="C" unicode="C" d="M396 -9c-66 0 -123 17 -171 52c-49 34 -83 79 -104 136c-21 56 -26 117 -17 182c10 69 35 131 76 187c40 56 88 99 145 130s115 46 175 46c56 0 107 -14 152 -41s78 -64 97 -109l-20 -10c-25 44 -58 77 -97 100s-84 34 -133 34c-88 0 -165 -32 -232 -97 s-107 -146 -120 -242c-9 -62 -4 -119 14 -170c17 -52 47 -94 90 -125c42 -32 93 -48 152 -48c50 0 99 12 147 35s92 56 132 99l18 -10c-37 -47 -82 -83 -136 -109c-54 -27 -110 -40 -168 -40z"></glyph><glyph glyph-name="D" unicode="D" d="M116 0l100 714h241c61 0 115 -16 162 -49c46 -33 80 -76 101 -131s27 -113 18 -176c-9 -64 -32 -123 -69 -178s-82 -99 -137 -131c-55 -33 -112 -49 -171 -49h-245zM161 26h203c57 0 109 16 158 47c48 31 87 71 117 121c29 50 48 104 56 163c9 60 5 115 -11 166 c-17 50 -44 90 -83 120s-86 45 -141 45h-206z"></glyph><glyph glyph-name="E" unicode="E" d="M161 26h405l-3 -26h-447l100 714h446l-4 -26h-404l-43 -309h348l-4 -26h-348z"></glyph><glyph glyph-name="F" unicode="F" d="M658 688h-404l-43 -309h348l-4 -26h-348l-50 -353h-41l100 714h446z"></glyph><glyph glyph-name="G" unicode="G" d="M423 -9c-37 0 -72 4 -103 13c-32 8 -59 19 -80 34c-22 15 -42 32 -59 52s-30 41 -39 64s-17 46 -23 70s-9 48 -8 72c1 23 2 46 4 67c7 49 22 96 47 141s55 83 91 115c35 32 76 58 121 77s90 28 135 28c54 0 104 -13 150 -38c46 -26 80 -63 101 -112l-19 -10 c-27 45 -60 79 -98 101c-39 22 -86 33 -141 33c-57 0 -111 -16 -162 -48s-92 -73 -123 -124s-51 -106 -59 -164c-2 -20 -3 -41 -4 -62c-1 -22 1 -44 6 -67s11 -44 19 -65c7 -21 19 -41 34 -59c15 -19 32 -35 51 -48c19 -14 42 -25 71 -33c28 -8 59 -12 94 -12 c43 0 86 6 130 18c44 11 79 28 104 49l29 204h-148l3 26h189l-32 -229c-31 -31 -72 -55 -125 -70s-105 -23 -156 -23z"></glyph><glyph glyph-name="H" unicode="H" d="M693 714h42l-100 -714h-42l49 353h-435l-50 -353h-41l100 714h42l-47 -335h435z"></glyph><glyph glyph-name="I" unicode="I" d="M216 714h42l-101 -714h-41z"></glyph><glyph glyph-name="J" unicode="J" d="M152 -10c-27 0 -52 3 -75 10c-23 6 -43 16 -60 29s-30 28 -37 46l19 11c30 -47 78 -70 143 -70c21 0 42 2 61 7s37 12 55 22c18 9 33 23 46 42c12 19 20 41 23 66l79 561h42l-78 -555c-7 -54 -31 -96 -70 -125s-89 -44 -148 -44z"></glyph><glyph glyph-name="K" unicode="K" d="M333 420l276 -420h-52l-259 391l-96 -76l-45 -315h-41l100 714h42l-51 -365l460 365h37z"></glyph><glyph glyph-name="L" unicode="L" d="M161 26h400l-3 -26h-442l100 714h42z"></glyph><glyph glyph-name="M" unicode="M" d="M116 0l100 714h51l211 -393l322 393h42l-100 -714h-42l94 670l-334 -409l-224 416l-95 -677h-25z"></glyph><glyph glyph-name="N" unicode="N" d="M216 714h32l398 -654l92 654h26l-100 -714h-33l-398 654l-92 -654h-25z"></glyph><glyph glyph-name="O" unicode="O" d="M500 724c62 0 117 -16 166 -49c48 -33 83 -77 106 -133c23 -57 29 -118 20 -185s-33 -128 -72 -184c-39 -57 -87 -101 -144 -134s-117 -49 -179 -49c-63 0 -118 16 -166 49c-49 33 -84 77 -107 134c-23 56 -29 117 -20 184s33 128 72 185c39 56 87 100 144 133 s117 49 180 49zM400 16c84 0 160 33 228 100c67 66 108 146 121 241c7 47 5 91 -4 133c-10 42 -26 78 -49 109s-51 55 -86 73c-35 17 -73 26 -114 26c-84 0 -160 -33 -227 -99c-68 -66 -109 -147 -122 -242c-9 -62 -3 -119 16 -171c19 -53 49 -94 91 -124 c42 -31 91 -46 146 -46z"></glyph><glyph glyph-name="P" unicode="P" d="M116 0l100 714h251c63 0 111 -18 144 -55s46 -86 38 -146c-9 -61 -35 -108 -79 -141c-45 -33 -100 -49 -165 -49h-202l-46 -323h-41zM206 348h210c50 0 93 14 128 43s56 69 63 122s-2 95 -29 127s-67 48 -119 48h-205z"></glyph><glyph glyph-name="Q" unicode="Q" d="M500 724c62 0 117 -16 166 -49c48 -33 83 -77 106 -133c23 -57 29 -118 20 -185c-13 -95 -55 -177 -124 -247l73 -94l-31 -26l-72 92c-74 -61 -154 -92 -241 -92c-63 0 -118 16 -166 49c-49 33 -84 77 -107 134c-23 56 -29 117 -20 184s33 128 72 185 c39 56 87 100 144 133s117 49 180 49zM749 357c7 47 5 91 -4 133c-10 42 -26 78 -49 109s-51 55 -86 73c-35 17 -73 26 -114 26c-84 0 -160 -33 -227 -99c-68 -66 -109 -147 -122 -242c-9 -62 -3 -119 16 -171c19 -53 49 -94 91 -124c42 -31 91 -46 146 -46 c80 0 153 30 219 91l-94 118l31 27l91 -116c56 63 90 137 102 221z"></glyph><glyph glyph-name="R" unicode="R" d="M116 0l100 714h251c63 0 111 -18 144 -55s46 -86 38 -146c-7 -48 -25 -88 -56 -120s-72 -53 -122 -63l132 -330h-48l-129 324c-11 -1 -21 -1 -29 -1h-194l-46 -323h-41zM206 348h210c50 0 93 14 128 43s56 69 63 122s-2 95 -29 127s-67 48 -119 48h-205z"></glyph><glyph glyph-name="S" unicode="S" d="M281 -10c-29 0 -56 3 -81 9c-25 5 -49 14 -72 27c-23 12 -42 29 -57 52s-25 49 -29 80l21 10c26 -101 98 -152 217 -152c67 0 120 15 159 45c38 29 61 70 68 123c9 63 -12 107 -63 133c-22 11 -70 25 -143 42c-9 1 -16 3 -22 5c-67 15 -111 39 -133 71 c-21 29 -28 67 -21 113c8 59 33 104 74 133s94 43 159 43c63 0 111 -13 146 -39c34 -26 59 -63 75 -110l-20 -10c-13 33 -30 59 -50 79c-21 20 -43 34 -67 42c-25 8 -53 12 -84 12c-41 0 -75 -6 -102 -19c-28 -13 -49 -30 -62 -51s-22 -46 -26 -75c-9 -60 12 -102 62 -127 c23 -11 62 -22 119 -34c28 -6 51 -12 70 -17c19 -6 38 -14 59 -24c20 -10 35 -21 46 -34s19 -30 25 -51c5 -21 6 -44 2 -71c-9 -64 -37 -114 -85 -150c-49 -37 -110 -55 -185 -55z"></glyph><glyph glyph-name="T" unicode="T" d="M720 714l-3 -26h-261l-97 -688h-41l96 688h-260l3 26h563z"></glyph><glyph glyph-name="U" unicode="U" d="M740 714h25l-65 -464c-10 -72 -45 -133 -106 -184s-130 -76 -206 -76s-137 25 -184 76s-65 112 -55 184l65 464h42l-65 -464c-9 -65 7 -120 48 -165c41 -46 94 -69 161 -69s127 23 180 69c53 45 85 100 94 165z"></glyph><glyph glyph-name="V" unicode="V" d="M339 0l-177 714h45l166 -673l355 673h27l-377 -714h-39z"></glyph><glyph glyph-name="W" unicode="W" d="M1001 714h27l-302 -714h-41l-98 656l-283 -656h-41l-101 714h43l94 -662l286 662h37l99 -662z"></glyph><glyph glyph-name="X" unicode="X" d="M77 714h51l166 -317l275 317h32l-294 -336l199 -378h-51l-179 345l-299 -345h-31l316 364z"></glyph><glyph glyph-name="Y" unicode="Y" d="M697 714h31l-323 -408l-43 -306h-42l43 306l-199 408h49l183 -381z"></glyph><glyph glyph-name="Z" unicode="Z" d="M115 714h483l-3 -25l-556 -663h472l-4 -26h-523l4 25l556 663h-432z"></glyph><glyph glyph-name="bracketleft" unicode="[" d="M68 -158l122 872h196l-4 -25h-153l-116 -822h154l-4 -25h-195z"></glyph><glyph glyph-name="backslash" unicode="\" d="M346 0l-166 714h35l165 -714h-34z"></glyph><glyph glyph-name="bracketright" unicode="]" d="M313 714l-122 -872h-195l3 25h153l116 822h-153l3 25h195z"></glyph><glyph glyph-name="asciicircum" unicode="^" d="M90 269l274 445h36l148 -445h-36l-135 408l-250 -408h-37z"></glyph><glyph glyph-name="underscore" unicode="_" d="M334 -133l3 21h-446l-3 -21h446z"></glyph><glyph glyph-name="quoteleft" unicode="‘" d="M346 756c-43 -37 -67 -73 -72 -109c-1 -11 -1 -21 2 -30c5 1 9 1 11 0c7 -1 13 -4 17 -10c4 -7 6 -14 5 -21c-1 -9 -6 -17 -13 -23c-7 -7 -16 -10 -25 -10s-16 4 -22 11s-10 17 -12 28s-2 22 0 34c3 25 14 50 32 77c17 26 40 48 68 67c3 -4 6 -9 9 -14z"></glyph><glyph glyph-name="a" unicode="a" d="M517 535h41l-76 -535h-41l22 151c-22 -43 -52 -80 -90 -112c-39 -33 -81 -49 -126 -49c-58 0 -105 27 -140 80s-48 118 -37 197c11 80 43 146 96 199c52 53 110 79 173 79s118 -34 165 -103zM468 189l31 224c-44 71 -97 107 -158 107c-54 0 -103 -24 -147 -73 c-45 -49 -72 -109 -82 -180c-9 -69 0 -128 28 -177c28 -50 67 -75 118 -75c41 0 80 17 116 50c35 33 67 75 94 124z"></glyph><glyph glyph-name="b" unicode="b" d="M391 545c58 0 105 -26 140 -79s48 -119 37 -198c-11 -80 -43 -146 -95 -199c-53 -53 -110 -79 -173 -79c-64 0 -119 34 -165 103l-14 -93h-41l107 760h41l-53 -376c22 43 52 80 91 113c39 32 80 48 125 48zM526 268c9 69 0 128 -28 178c-28 49 -67 74 -117 74 c-42 0 -81 -17 -116 -50c-36 -33 -68 -75 -95 -124l-31 -224c44 -71 97 -107 158 -107c54 0 103 25 148 74c44 49 71 108 81 179z"></glyph><glyph glyph-name="c" unicode="c" d="M533 421c-37 66 -92 99 -165 99c-66 0 -123 -25 -170 -75c-48 -51 -77 -110 -86 -178c-5 -32 -4 -63 2 -93s17 -57 32 -80c15 -24 35 -43 62 -57c26 -15 56 -22 89 -22c39 0 75 9 110 27c34 18 63 42 88 72l16 -11c-23 -31 -54 -58 -93 -80s-82 -33 -127 -33 c-73 0 -130 27 -173 80s-58 120 -47 199s45 145 104 198c58 52 123 78 194 78c44 0 82 -11 114 -32c31 -21 54 -48 69 -81z"></glyph><glyph glyph-name="d" unicode="d" d="M548 760h41l-107 -760h-41l22 151c-22 -43 -52 -80 -90 -112c-39 -33 -81 -49 -126 -49c-58 0 -105 27 -140 80s-48 118 -37 197c11 80 43 146 96 199c52 53 110 79 173 79s118 -34 165 -103zM468 189l31 224c-44 71 -97 107 -158 107c-54 0 -103 -24 -147 -73 c-45 -49 -72 -109 -82 -180c-9 -69 0 -128 28 -177c28 -50 67 -75 118 -75c41 0 80 17 116 50c35 33 67 75 94 124z"></glyph><glyph glyph-name="e" unicode="e" d="M347 259c-32 -9 -75 -15 -129 -18c-55 -3 -88 -3 -99 1c-2 -41 3 -78 16 -111s34 -61 65 -83c30 -22 67 -33 110 -33c65 0 123 29 174 88l16 -12c-28 -38 -58 -64 -91 -79s-72 -22 -116 -22c-38 0 -72 9 -103 26s-55 38 -72 65c-18 27 -30 57 -37 90s-8 67 -2 100 c4 25 12 51 23 77c11 25 25 50 43 74c18 23 39 44 62 63c23 18 49 33 79 44s61 16 94 16c47 0 84 -13 112 -39s39 -57 33 -93c-5 -27 -15 -51 -30 -71s-35 -36 -59 -49s-54 -24 -89 -34zM372 519c-60 0 -115 -25 -164 -74c-49 -50 -78 -110 -87 -181c19 -2 43 -3 70 -2 c31 1 60 4 89 9c28 5 57 12 88 23c31 10 56 25 77 46c21 20 33 44 38 72c5 31 -4 57 -27 77s-51 30 -84 30z"></glyph><glyph glyph-name="f" unicode="f" d="M344 770c51 0 86 -21 105 -62l-17 -14c-19 33 -47 50 -83 50c-31 0 -55 -10 -74 -31s-31 -51 -36 -91l-13 -87h143l-3 -25h-143l-72 -510c-5 -41 -14 -86 -27 -133c-6 -27 -11 -49 -15 -67c-5 -18 -8 -29 -9 -34l-3 -7h-21l106 751h-81l3 25h81l14 96c6 41 22 75 47 101 c25 25 58 38 98 38z"></glyph><glyph glyph-name="g" unicode="g" d="M505 535h41l-84 -592c-8 -58 -31 -105 -68 -140c-37 -36 -91 -54 -160 -54c-93 0 -161 32 -204 97l18 12c19 -26 45 -46 76 -61s66 -23 105 -23c36 0 67 6 94 19s49 32 66 57s27 55 32 92l30 209c-22 -43 -52 -80 -90 -112c-39 -33 -81 -49 -126 -49 c-58 0 -105 27 -140 80s-48 118 -37 197c11 80 43 146 96 199c52 53 110 79 173 79s118 -34 165 -103zM246 15c41 0 80 17 116 50c35 33 67 75 94 124l31 224c-44 71 -97 107 -158 107c-54 0 -103 -24 -147 -73c-45 -49 -72 -109 -82 -180c-9 -69 0 -128 28 -177 c28 -50 67 -75 118 -75z"></glyph><glyph glyph-name="h" unicode="h" d="M421 545c19 0 36 -3 53 -8s32 -14 46 -25c13 -11 23 -27 30 -47c6 -20 7 -43 3 -69l-56 -396h-41l56 395c6 41 0 73 -19 94s-47 32 -83 32c-88 0 -168 -62 -241 -185l-48 -336h-41l107 760h41l-56 -397c33 59 70 104 113 135c42 31 87 47 136 47z"></glyph><glyph glyph-name="i" unicode="i" d="M192 640c-7 0 -13 3 -18 8s-6 12 -5 20c1 7 4 14 11 19c6 5 13 8 20 8c8 0 14 -3 19 -8c4 -5 6 -12 5 -19c-1 -8 -5 -15 -11 -20s-13 -8 -21 -8zM82 0l75 535h41l-75 -535h-41z"></glyph><glyph glyph-name="j" unicode="j" d="M-33 640c-8 0 -14 3 -19 8s-6 12 -5 20c1 7 5 14 11 19s13 8 21 8c7 0 13 -3 18 -8s7 -12 6 -19c-1 -8 -5 -15 -11 -20c-7 -5 -14 -8 -21 -8zM-263 -250c-51 0 -86 20 -105 61l17 14c19 -33 47 -50 83 -50c62 0 99 41 110 123l90 637h41l-91 -647 c-6 -41 -22 -75 -47 -100s-58 -38 -98 -38z"></glyph><glyph glyph-name="k" unicode="k" d="M557 535l-276 -225l211 -310h-52l-193 282l-97 -79l-29 -203h-41l107 760h41l-73 -524l366 299h36z"></glyph><glyph glyph-name="l" unicode="l" d="M215 -10c-13 0 -25 2 -36 7c-11 4 -22 11 -31 20c-10 9 -17 23 -21 41c-5 18 -5 39 -2 63l90 639h41l-89 -634c-5 -39 -1 -66 13 -82c13 -17 31 -25 53 -25c17 0 30 3 39 10l7 -19c-15 -13 -37 -20 -64 -20z"></glyph><glyph glyph-name="m" unicode="m" d="M755 545c39 0 70 -12 95 -36c24 -25 32 -62 25 -113l-55 -396h-41l55 395c6 41 1 73 -16 94s-41 32 -73 32c-40 0 -79 -16 -118 -47c-39 -32 -75 -78 -109 -137l-47 -337h-41l55 395c6 41 1 73 -16 94s-42 32 -73 32c-40 0 -79 -16 -118 -47c-39 -32 -75 -78 -109 -137 l-48 -337h-41l76 535h41l-24 -170c66 120 144 180 233 180c17 0 34 -3 49 -8s29 -14 42 -25c12 -11 21 -27 27 -47c5 -20 6 -43 2 -69l-4 -31c66 120 144 180 233 180zM471 0l-2 -15zM820 0l-2 -15zM469 -15v-1v1zM818 -15v-1v1z"></glyph><glyph glyph-name="n" unicode="n" d="M421 545c19 0 36 -3 53 -8s32 -14 46 -25c13 -11 23 -27 30 -47c6 -20 7 -43 3 -69l-56 -396h-41l56 395c6 41 0 73 -19 94s-47 32 -83 32c-88 0 -168 -62 -241 -185l-48 -336h-41l76 535h41l-25 -172c33 59 70 104 113 135c42 31 87 47 136 47z"></glyph><glyph glyph-name="o" unicode="o" d="M290 -10c-73 0 -130 27 -172 81c-43 53 -58 119 -47 197s45 144 102 197s122 80 195 80c72 0 129 -27 171 -80s58 -119 47 -197s-45 -144 -102 -197c-57 -54 -122 -81 -194 -81zM293 15c59 0 114 25 163 75c49 49 78 109 88 178s-3 129 -38 178s-83 74 -142 74 s-114 -25 -163 -74s-79 -109 -89 -178c-9 -69 4 -129 39 -178c35 -50 83 -75 142 -75z"></glyph><glyph glyph-name="p" unicode="p" d="M358 545c58 0 105 -26 140 -79s48 -119 37 -198c-11 -80 -43 -146 -95 -199c-53 -53 -110 -79 -173 -79c-64 0 -119 34 -165 103l-47 -334h-41l109 776h41l-22 -151c22 43 52 80 91 113c39 32 80 48 125 48zM493 268c9 69 0 128 -28 178c-28 49 -67 74 -117 74 c-42 0 -81 -17 -116 -50c-36 -33 -68 -75 -95 -124l-31 -224c44 -71 97 -107 158 -107c54 0 103 25 148 74c44 49 71 108 81 179z"></glyph><glyph glyph-name="q" unicode="q" d="M517 535h41l-109 -776h-41l55 392c-22 -43 -52 -80 -90 -112c-39 -33 -81 -49 -126 -49c-58 0 -105 27 -140 80s-48 118 -37 197c11 80 43 146 96 199c52 53 110 79 173 79s118 -34 165 -103zM258 15c41 0 80 17 116 50c35 33 67 75 94 124l31 224 c-44 71 -97 107 -158 107c-54 0 -103 -24 -147 -73c-45 -49 -72 -109 -82 -180c-9 -69 0 -128 28 -177c28 -50 67 -75 118 -75z"></glyph><glyph glyph-name="r" unicode="r" d="M80 0l76 535h41l-21 -149c37 53 72 92 106 119s69 40 105 40c39 0 71 -13 94 -40l-22 -26c-24 25 -52 38 -83 38c-64 0 -133 -58 -206 -173l-49 -344h-41z"></glyph><glyph glyph-name="s" unicode="s" d="M215 -10c-53 0 -98 11 -135 34c-38 22 -59 53 -62 94l20 10c5 -35 25 -63 60 -83s75 -30 120 -30c49 0 88 11 117 33c28 21 45 51 50 89c7 50 -14 85 -61 104c-11 5 -46 13 -105 26c-5 1 -10 3 -15 4c-93 23 -135 70 -125 141c6 43 26 76 61 99c34 23 77 34 129 34 c28 0 53 -3 74 -10s39 -16 52 -28s23 -24 31 -36c7 -12 14 -26 19 -42l-20 -10c-16 37 -36 64 -59 79s-54 22 -91 22c-31 0 -57 -4 -79 -12c-22 -9 -39 -20 -51 -35c-13 -15 -20 -33 -23 -54c-2 -12 -2 -23 1 -33c2 -11 5 -20 10 -27c4 -7 11 -14 20 -20s17 -11 24 -14 c7 -4 17 -8 30 -11c13 -4 23 -7 30 -8s16 -3 29 -6c12 -3 21 -4 26 -5c50 -11 87 -28 110 -51s32 -55 26 -98c-7 -49 -30 -88 -67 -115c-38 -27 -87 -41 -146 -41z"></glyph><glyph glyph-name="t" unicode="t" d="M120 510l3 25h82l20 143h41l-20 -143h143l-4 -25h-143l-53 -379c-3 -23 -3 -41 -2 -56s6 -26 13 -35s14 -15 23 -18c9 -4 19 -6 32 -6c25 0 54 12 87 36l8 -18c-31 -29 -67 -44 -108 -44c-38 0 -65 13 -80 38s-20 60 -14 103l53 379h-81z"></glyph><glyph glyph-name="u" unicode="u" d="M547 535h41l-76 -535h-41l25 172c-33 -59 -70 -104 -112 -135c-43 -31 -88 -47 -137 -47c-19 0 -36 3 -53 8s-32 14 -45 25c-14 11 -24 27 -30 47s-7 43 -4 69l56 396h41l-56 -395c-6 -41 1 -73 20 -94s46 -32 82 -32c88 0 168 62 241 185z"></glyph><glyph glyph-name="v" unicode="v" d="M260 0l-140 535h45l128 -494l266 494h28l-289 -535h-38z"></glyph><glyph glyph-name="w" unicode="w" d="M120 535h44l87 -487l224 487h35l87 -486l222 486h28l-246 -535h-39l-85 480l-221 -480h-40z"></glyph><glyph glyph-name="x" unicode="x" d="M-38 0l245 268l-162 267h51l143 -235l218 235h32l-237 -255l168 -280h-50l-149 248l-227 -248h-32z"></glyph><glyph glyph-name="y" unicode="y" d="M146 -241l122 226l-148 550h45l131 -498l267 498h28l-417 -776h-28z"></glyph><glyph glyph-name="z" unicode="z" d="M-4 0l3 24l416 486h-324l4 25h376l-4 -24l-418 -486h355l-4 -25h-404z"></glyph><glyph glyph-name="braceleft" unicode="{" d="M310 -159c-24 0 -47 9 -69 27c-22 17 -38 45 -48 83c-7 27 -10 57 -9 90s4 62 9 85s9 47 10 70s-1 39 -7 46c-5 7 -13 13 -26 20c-13 6 -27 10 -42 13l1 7c37 6 62 17 77 33c9 9 16 25 21 47c4 22 7 45 9 70c1 24 6 52 15 85c8 33 19 62 34 89c21 38 45 66 72 84 c27 17 52 26 76 26c5 0 10 0 15 -1l-2 -13c-39 -2 -72 -19 -99 -52c-33 -41 -57 -111 -74 -210c-7 -42 -12 -72 -17 -89s-12 -32 -22 -44c-11 -13 -28 -23 -49 -29c18 -3 32 -12 41 -29c5 -8 8 -18 9 -30c1 -13 1 -26 0 -39s-4 -34 -7 -63c-11 -99 -6 -169 15 -211 c17 -33 45 -51 84 -52l-2 -12c-3 -1 -8 -1 -15 -1z"></glyph><glyph glyph-name="bar" unicode="|" d="M181 760h31l-140 -1001h-32z"></glyph><glyph glyph-name="braceright" unicode="}" d="M126 716c24 0 47 -9 69 -26c22 -18 38 -46 48 -85c7 -26 11 -56 10 -89s-4 -62 -9 -85s-9 -47 -10 -70c-2 -24 0 -39 6 -46c2 -3 5 -5 8 -8s7 -6 12 -8c5 -3 10 -5 15 -7c5 -3 10 -5 16 -6c6 -2 12 -3 17 -4v-7c-37 -6 -63 -17 -78 -34c-9 -9 -16 -25 -20 -47 c-5 -22 -8 -45 -9 -69c-2 -24 -7 -52 -15 -85s-20 -63 -35 -89c-21 -38 -44 -66 -71 -83c-27 -18 -53 -27 -77 -27c-5 0 -10 0 -15 1l2 13c39 1 72 18 99 51c33 42 57 112 74 210c7 43 12 73 17 90s12 32 22 43c11 13 28 23 49 30c-18 3 -32 12 -41 29c-5 8 -7 18 -8 31 c-1 12 -1 25 0 38s3 34 6 63c12 99 7 169 -15 211c-17 33 -45 50 -84 51l2 13c3 1 8 1 15 1z"></glyph><glyph glyph-name="asciitilde" unicode="~" d="M485 310c-27 0 -64 10 -109 29c-46 19 -80 28 -103 28c-24 0 -47 -6 -69 -17s-41 -25 -56 -40l3 14c13 19 32 36 56 50c23 14 50 21 80 21c28 0 65 -9 111 -28c45 -19 79 -29 101 -29c13 0 26 2 39 6c13 3 24 8 35 14c11 5 20 11 29 18c8 6 15 12 22 19l-2 -14 c-14 -19 -33 -36 -56 -50c-24 -14 -51 -21 -81 -21z"></glyph><glyph glyph-name="exclamdown" unicode="¡" d="M195 539c9 0 17 -3 23 -9c5 -7 7 -14 6 -23s-6 -17 -13 -24s-16 -10 -25 -10s-17 3 -22 10s-7 15 -6 24s6 16 13 23c7 6 15 9 24 9zM187 381l-71 -560h-42l87 560h26z"></glyph><glyph glyph-name="cent" unicode="¢" d="M534 421c-36 65 -90 98 -162 99l-71 -505c38 1 74 10 108 28c33 18 62 42 87 71l16 -11c-22 -31 -52 -57 -90 -78c-39 -22 -80 -34 -124 -35l-16 -113h-26l16 114c-67 5 -120 34 -158 87c-39 52 -53 116 -42 191c11 76 43 140 96 191s114 79 182 84l17 116h25l-16 -115 c42 -1 79 -12 110 -33s53 -48 67 -80zM113 267c-4 -30 -3 -59 2 -88s14 -54 27 -77s32 -43 55 -58s49 -25 79 -28l71 503c-61 -7 -112 -34 -155 -83s-70 -105 -79 -169z"></glyph><glyph glyph-name="sterling" unicode="£" d="M396 724c35 0 69 -7 102 -22c32 -15 56 -38 72 -68l-21 -10c-13 22 -32 40 -59 54c-27 13 -56 20 -89 20c-43 0 -76 -12 -99 -37c-24 -25 -40 -64 -47 -117c-7 -55 -13 -112 -18 -173h215l-4 -26h-214c-6 -55 -16 -105 -30 -149s-29 -78 -45 -101 c-17 -23 -32 -41 -47 -52s-27 -17 -38 -17h440l-4 -26h-486l3 26c32 3 60 17 84 44c23 27 42 63 56 109s24 101 30 166h-121l3 26h120c5 90 10 150 15 179c5 37 15 69 32 96c16 26 37 46 63 59c25 13 54 19 87 19z"></glyph><glyph glyph-name="fraction" unicode="⁄" d="M-311 -12h-47l501 674h47z"></glyph><glyph glyph-name="yen" unicode="¥" d="M740 714l-304 -384h160l-4 -26h-175l-15 -106h176l-4 -25h-175l-25 -173h-41l24 173h-165l3 25h165l15 106h-165l4 26h150l-188 384h50l183 -381l300 381h31z"></glyph><glyph glyph-name="fhook" unicode="ƒ" d="M154 770c51 0 86 -21 105 -62l-17 -14c-19 33 -47 50 -83 50c-31 0 -55 -10 -74 -31s-31 -51 -36 -91l-13 -87h143l-3 -25h-143l-87 -622c-6 -41 -22 -75 -47 -100c-26 -25 -59 -38 -98 -38c-52 0 -87 20 -105 61l17 14c19 -33 47 -50 83 -50c62 0 99 41 110 123l86 612 h-81l3 25h81l14 96c6 41 22 75 47 101c25 25 58 38 98 38z"></glyph><glyph glyph-name="section" unicode="§" d="M327 474c45 -11 77 -28 98 -51s28 -55 22 -97c-9 -62 -39 -105 -92 -130c43 -25 60 -66 53 -123c-7 -49 -28 -88 -63 -115s-80 -41 -133 -41c-47 0 -88 11 -121 33c-34 21 -52 53 -55 94l19 9c7 -39 25 -67 55 -84c30 -18 65 -27 104 -27c45 0 80 11 105 32s40 51 45 89 c3 18 2 34 -2 48s-9 25 -15 33c-6 7 -16 14 -30 21c-15 7 -27 11 -36 14s-23 6 -41 10c-5 1 -9 2 -12 3s-6 2 -10 3c-5 1 -9 1 -12 2c-83 23 -120 70 -110 142c9 65 45 107 110 124c-56 26 -80 69 -72 128c6 43 25 76 56 99s71 34 119 34c25 0 46 -3 65 -9s34 -15 46 -26 c12 -12 22 -24 29 -36c7 -13 12 -27 17 -44l-19 -10c-14 37 -31 62 -52 77s-48 22 -81 22c-41 0 -73 -9 -96 -26c-23 -18 -37 -43 -41 -74c-3 -17 -1 -32 4 -45s11 -24 18 -31c7 -8 17 -15 32 -21c15 -7 26 -11 35 -13c9 -3 21 -6 38 -9c11 -3 18 -4 23 -5zM404 316 c3 18 2 34 -2 48c-4 13 -9 24 -15 32c-7 8 -17 15 -31 22c-15 6 -27 10 -36 13s-23 6 -42 10c-7 2 -13 3 -17 4c-25 -1 -46 -6 -63 -15s-31 -20 -41 -34s-16 -31 -19 -50c-3 -17 -1 -33 4 -46s11 -24 18 -31s18 -14 33 -20c14 -7 26 -11 35 -13c9 -3 21 -6 38 -10 c10 -2 17 -4 22 -5c14 -3 27 -7 38 -12c45 19 71 55 78 107z"></glyph><glyph glyph-name="currency" unicode="¤" d="M118 139l-26 30l94 73c-23 32 -31 69 -26 111c6 43 25 80 58 112l-73 73l33 30l62 -84c35 28 74 42 117 42s78 -14 106 -42l85 83l25 -29l-93 -73c23 -32 32 -69 26 -112s-25 -80 -58 -112l73 -73l-34 -30l-61 84c-36 -27 -75 -41 -117 -41c-43 0 -79 14 -107 42z M313 208c40 0 76 14 109 43c32 28 51 62 57 102c5 41 -4 75 -28 104c-25 28 -57 42 -97 42c-41 0 -77 -14 -110 -42c-33 -29 -52 -63 -57 -104c-6 -40 3 -74 28 -102c25 -29 57 -43 98 -43z"></glyph><glyph glyph-name="quotesingle" unicode="'" d="M236 550l22 215h41l-38 -215h-25z"></glyph><glyph glyph-name="quotedblleft" unicode="“" d="M346 756c-43 -37 -67 -73 -72 -109c-1 -11 -1 -21 2 -30c5 1 9 1 11 0c7 -1 13 -4 17 -10c4 -7 6 -14 5 -21c-1 -9 -6 -17 -13 -23c-7 -7 -16 -10 -25 -10s-16 4 -22 11s-10 17 -12 28s-2 22 0 34c3 25 14 50 32 77c17 26 40 48 68 67c3 -4 6 -9 9 -14zM487 756 c-43 -37 -68 -73 -73 -109c-1 -11 -1 -21 2 -30c5 1 9 1 12 0c7 -1 13 -4 17 -10c4 -7 5 -14 4 -21c-1 -9 -6 -17 -13 -23c-7 -7 -15 -10 -24 -10c-13 0 -23 8 -29 23s-8 31 -5 50c3 25 14 50 32 77c17 26 40 48 67 67c3 -4 7 -9 10 -14z"></glyph><glyph glyph-name="guillemotleft" unicode="«" d="M247 67l-167 196l222 195l14 -16l-177 -179l127 -180zM416 67l-167 196l222 195l15 -16l-178 -179l128 -180z"></glyph><glyph glyph-name="guilsinglleft" unicode="‹" d="M247 67l-167 196l222 195l14 -16l-177 -179l127 -180z"></glyph><glyph glyph-name="guilsinglright" unicode="›" d="M153 458l167 -196l-222 -195l-14 16l177 179l-127 180z"></glyph><glyph glyph-name="fi" unicode="ﬁ" d="M506 535l-75 -535h-41l72 510h-239l-72 -510c-5 -41 -14 -86 -27 -133c-6 -27 -11 -49 -15 -67c-5 -18 -8 -29 -9 -34l-3 -7h-21l106 751h-81l3 25h81l14 96c6 41 22 75 47 101c25 25 58 38 98 38c51 0 86 -21 105 -62l-17 -14c-19 33 -47 50 -83 50 c-31 0 -55 -10 -74 -31s-31 -51 -36 -91l-13 -87h280z"></glyph><glyph glyph-name="fl" unicode="ﬂ" d="M102 510l3 25h82l9 66c3 15 5 28 7 37c1 9 5 20 10 33s12 24 21 34c35 43 91 65 170 65c12 0 24 -1 36 -2c11 -1 21 -2 29 -3s18 -4 30 -7c11 -4 20 -7 25 -8c5 -2 14 -5 28 -10c13 -5 22 -8 27 -10l-86 -612c-5 -38 -1 -65 12 -81c13 -17 31 -25 53 -25c19 0 33 3 41 10 l7 -11c-5 -5 -14 -10 -26 -14c-12 -5 -25 -7 -38 -7s-25 2 -36 7c-11 4 -22 11 -31 20c-10 9 -17 23 -21 41c-5 18 -5 39 -2 63l84 599c-35 17 -79 26 -130 26c-32 0 -59 -4 -81 -11c-23 -8 -41 -21 -56 -39c-15 -19 -24 -43 -28 -72l-13 -89h143l-4 -25h-142l-72 -510 c-6 -41 -15 -85 -28 -133l-26 -108h-21l106 751h-82z"></glyph><glyph glyph-name="endash" unicode="–" d="M154 256l3 25h416l-3 -25h-416z"></glyph><glyph glyph-name="dagger" unicode="†" d="M539 592l-7 -45l-171 10l-68 -557h-46l90 557l-175 -10l7 45l171 -10l14 178h46l-35 -178z"></glyph><glyph glyph-name="daggerdbl" unicode="‡" d="M308 760h45l-35 -178l174 10l-6 -45l-171 10l-15 -177l-35 -177l174 10l-7 -45l-171 9l-14 -177h-46l35 177l-174 -9l7 45l171 -10l14 177l35 177l-173 -10l6 45l171 -10z"></glyph><glyph glyph-name="periodcentered" unicode="·" d="M236 353c-2 -11 -7 -20 -16 -28s-18 -12 -29 -12s-20 4 -27 12s-9 17 -7 28c1 11 6 20 15 28s19 12 30 12s19 -4 26 -12s9 -17 8 -28z"></glyph><glyph glyph-name="paragraph" unicode="¶" d="M227 -127l73 517c-51 0 -92 18 -123 54s-43 80 -36 131s32 95 73 131s87 54 138 54h186l-125 -887h-30l121 862h-126l-121 -862h-30z"></glyph><glyph glyph-name="bullet" unicode="•" d="M354 365c-3 -21 -13 -38 -30 -53s-36 -23 -57 -23s-38 7 -51 22s-18 33 -15 54s13 39 30 54s36 22 57 22s39 -7 52 -22s17 -33 14 -54z"></glyph><glyph glyph-name="quotesinglbase" unicode="‚" d="M-12 -142c21 18 37 36 50 55c12 19 19 37 22 54c1 11 1 21 -2 30h-11c-7 1 -13 5 -17 11c-5 6 -6 13 -5 21c1 6 3 12 7 17c3 5 8 9 14 12c5 3 11 4 17 4c13 0 23 -7 29 -22s8 -33 5 -52c-3 -25 -14 -50 -32 -76s-41 -49 -68 -68c-3 5 -6 9 -9 14z"></glyph><glyph glyph-name="quotedblbase" unicode="„" d="M-12 -142c21 18 37 36 50 55c12 19 19 37 22 54c1 11 1 21 -2 30h-11c-7 1 -13 5 -17 11c-5 6 -6 13 -5 21c1 6 3 12 7 17c3 5 8 9 14 12c5 3 11 4 17 4c13 0 23 -7 29 -22s8 -33 5 -52c-3 -25 -14 -50 -32 -76s-41 -49 -68 -68c-3 5 -6 9 -9 14zM128 -142 c43 37 68 73 73 109c1 11 1 21 -2 30h-11c-8 1 -14 5 -18 11s-5 13 -4 21c1 9 6 16 13 23s16 10 25 10c13 0 23 -7 29 -22c5 -15 7 -33 4 -52c-3 -25 -14 -50 -31 -76c-18 -26 -41 -49 -68 -68c-3 5 -7 9 -10 14z"></glyph><glyph glyph-name="quotedblright" unicode="”" d="M224 567c43 37 67 73 72 109c1 11 1 21 -2 30c-5 -1 -9 -1 -11 0c-5 1 -10 3 -13 6s-6 6 -7 11c-2 5 -3 9 -2 14c1 9 6 17 13 24c7 6 16 9 25 9c13 0 23 -7 29 -22s8 -32 5 -51c-4 -25 -15 -50 -32 -76c-18 -27 -41 -49 -68 -68c-3 4 -6 9 -9 14zM364 567 c43 37 67 73 72 109c2 11 2 21 -1 30c-5 -1 -9 -1 -12 0c-7 1 -13 4 -17 11c-4 6 -5 13 -4 20c1 9 5 17 13 24c7 6 15 9 24 9c13 0 23 -7 29 -22s8 -32 5 -51c-3 -25 -14 -50 -31 -76c-18 -27 -41 -49 -68 -68c-3 4 -7 9 -10 14z"></glyph><glyph glyph-name="guillemotright" unicode="»" d="M153 458l167 -196l-222 -195l-14 16l177 179l-127 180zM323 458l167 -196l-222 -195l-15 16l178 179l-128 180z"></glyph><glyph glyph-name="ellipsis" unicode="…" d="M62 -4c-9 0 -16 3 -21 10c-6 6 -8 14 -7 23c1 6 3 12 7 17c3 5 8 9 14 12c5 3 11 4 17 4c9 0 16 -3 21 -10s7 -14 6 -23s-5 -17 -12 -23c-7 -7 -16 -10 -25 -10zM285 -4c-9 0 -16 3 -21 10c-6 6 -8 14 -7 23s6 16 13 23s15 10 24 10c6 0 11 -1 16 -4s8 -7 11 -12 c2 -5 2 -11 1 -17c-1 -9 -5 -17 -12 -23c-7 -7 -16 -10 -25 -10zM508 -4c-9 0 -17 3 -22 10c-5 6 -7 14 -6 23c1 6 3 12 7 17c3 5 8 9 13 12s11 4 17 4c9 0 17 -3 22 -10s7 -14 6 -23s-5 -17 -12 -23c-7 -7 -16 -10 -25 -10z"></glyph><glyph glyph-name="perthousand" unicode="‰" d="M330 720c49 0 85 -21 107 -62c21 -42 28 -95 19 -158c-9 -64 -30 -117 -63 -158s-75 -62 -125 -62s-86 21 -107 62c-22 41 -28 94 -19 158c9 63 30 116 63 158c33 41 75 62 125 62zM762 714h30l-501 -714h-30zM271 304c39 0 71 18 96 55c25 36 41 83 49 141s5 105 -9 142 c-15 36 -42 54 -81 54s-71 -18 -95 -54c-25 -36 -41 -83 -50 -142c-4 -37 -5 -70 -2 -99s12 -53 28 -70c16 -18 37 -27 64 -27zM787 434c49 0 85 -21 107 -62c21 -42 27 -95 18 -158c-9 -64 -30 -117 -63 -158s-75 -62 -124 -62c-50 0 -86 21 -107 62c-22 41 -29 94 -20 158 c9 63 31 116 64 158c33 41 75 62 125 62zM1191 434c49 0 85 -21 107 -62c21 -42 27 -95 18 -158c-6 -41 -17 -78 -33 -111s-37 -59 -64 -79s-58 -30 -91 -30c-49 0 -85 21 -106 62c-22 41 -29 94 -20 158c9 63 31 116 64 158c33 41 75 62 125 62zM728 18c39 0 71 18 96 55 c24 36 40 83 49 141c8 58 5 105 -9 142c-15 36 -42 54 -81 54c-40 0 -72 -18 -96 -54c-25 -36 -41 -83 -49 -142s-5 -106 9 -142s41 -54 81 -54zM1132 18c39 0 71 18 96 55c24 36 40 83 49 141c8 58 5 105 -9 142c-15 36 -42 54 -81 54c-40 0 -72 -18 -96 -54 c-25 -36 -41 -83 -49 -142s-5 -106 9 -142s41 -54 81 -54z"></glyph><glyph glyph-name="questiondown" unicode="¿" d="M300 539c9 0 17 -3 22 -9c5 -7 7 -14 6 -23s-6 -17 -13 -24s-15 -10 -24 -10s-17 3 -22 10s-7 15 -6 24s6 16 13 23c7 6 15 9 24 9zM291 380c-4 -47 -16 -88 -36 -121s-49 -66 -88 -97c-7 -5 -17 -14 -32 -25s-25 -20 -31 -25c-7 -5 -15 -13 -25 -24 c-11 -11 -19 -21 -24 -30s-10 -20 -15 -33c-5 -14 -9 -29 -11 -45c-14 -97 29 -145 129 -145c88 0 150 38 187 113l19 -7c-40 -87 -112 -130 -216 -130c-29 0 -55 4 -76 11c-22 7 -39 16 -50 28c-12 11 -21 25 -28 40s-10 31 -10 48c0 16 1 32 3 49c3 19 7 37 14 54 c7 16 14 30 21 41s18 23 34 38s29 26 40 34s28 21 52 39c15 11 30 24 43 37s23 26 31 39s15 26 22 40c6 14 11 27 14 38s5 22 7 33h26z"></glyph><glyph glyph-name="grave" unicode="`" d="M347 605l-115 156h54l93 -156h-32z"></glyph><glyph glyph-name="acute" unicode="´" d="M188 605l137 156h54l-159 -156h-32z"></glyph><glyph glyph-name="circumflexmod" unicode="ˆ" d="M188 606l137 154h60l94 -154h-33l-95 127l-131 -127h-32z"></glyph><glyph glyph-name="tildemod" unicode="˜" d="M198 643l3 19c5 9 12 17 19 25s17 15 30 22c12 7 25 10 38 10c18 0 41 -8 69 -25s49 -25 63 -25c29 0 56 16 82 49l-3 -19c-4 -7 -9 -13 -14 -18c-5 -6 -12 -12 -19 -18s-16 -11 -25 -14c-10 -4 -20 -6 -30 -6c-18 0 -41 8 -69 25c-29 16 -50 24 -64 24 c-15 0 -30 -5 -44 -15c-15 -11 -27 -22 -36 -34z"></glyph><glyph glyph-name="macron" unicode="¯" d="M198 644l3 23h279l-3 -23h-279z"></glyph><glyph glyph-name="brevemod" unicode="˘" d="M491 754h26c-3 -17 -8 -33 -15 -49c-8 -16 -18 -31 -31 -46s-30 -27 -51 -36s-44 -14 -69 -14c-19 0 -37 3 -52 9c-16 6 -29 14 -38 24s-17 21 -23 34s-9 26 -10 39s-1 26 0 39h25c-4 -28 3 -53 21 -76s45 -35 82 -35s68 12 93 35c24 23 38 48 42 76z"></glyph><glyph glyph-name="dotaccentmod" unicode="˙" d="M213 640c-7 0 -13 3 -18 8s-6 12 -5 20c1 7 4 14 11 19c6 5 13 8 20 8c8 0 14 -3 19 -8c4 -5 6 -12 5 -19c-1 -8 -5 -15 -11 -20s-13 -8 -21 -8z"></glyph><glyph glyph-name="dieresis" unicode="¨" d="M226 660c-8 0 -14 3 -19 8s-6 12 -5 20c1 7 4 14 11 19c6 5 13 8 20 8c8 0 14 -3 19 -8c4 -5 6 -12 5 -19c-1 -8 -5 -15 -11 -20s-13 -8 -20 -8zM359 660c-8 0 -14 3 -19 8s-6 12 -5 20c1 7 4 14 11 19c6 5 13 8 21 8c7 0 13 -3 18 -8s7 -12 6 -19c-1 -8 -5 -15 -11 -20 c-7 -5 -14 -8 -21 -8z"></glyph><glyph glyph-name="ringmod" unicode="˚" d="M317 797c26 0 47 -10 63 -29s22 -43 19 -70c-4 -27 -17 -51 -38 -70c-22 -20 -46 -30 -72 -30c-27 0 -48 10 -63 30c-16 19 -22 43 -18 70s17 51 38 70s44 29 71 29zM292 619c19 0 37 8 53 23c15 15 25 33 28 56s-1 42 -12 57c-12 15 -28 22 -47 22s-37 -7 -52 -22 c-16 -15 -25 -34 -28 -57c-2 -15 -1 -29 4 -41c4 -12 11 -21 21 -28c9 -7 20 -10 33 -10z"></glyph><glyph glyph-name="cedilla" unicode="¸" d="M33 -236c-12 0 -24 2 -35 5c-12 3 -21 5 -27 8c-7 3 -12 5 -15 7l10 14c15 -11 36 -16 64 -16c23 0 43 5 60 16c17 10 27 25 30 44s-3 34 -18 47c-15 12 -39 21 -72 26l56 93h26l-42 -69c23 -4 42 -14 58 -30s22 -37 19 -64c-4 -28 -17 -48 -40 -61s-47 -20 -74 -20z"></glyph><glyph glyph-name="doubleacutemod" unicode="˝" d="M188 605l136 156h55l-159 -156h-32zM314 605l136 156h55l-159 -156h-32z"></glyph><glyph glyph-name="ogonekmod" unicode="˛" d="M59 -198c-23 0 -43 9 -59 26s-22 38 -19 63c3 22 14 44 32 65s37 39 56 52h26v-3c-16 -9 -34 -24 -55 -45s-32 -44 -33 -68c-1 -17 3 -31 14 -42c10 -11 23 -16 39 -16c19 0 36 6 53 17l16 -29c-7 -5 -18 -10 -32 -14s-27 -6 -38 -6z"></glyph><glyph glyph-name="caronmod" unicode="ˇ" d="M326 606l-94 154h32l95 -128l131 128h33l-138 -154h-59z"></glyph><glyph glyph-name="emdash" unicode="—" d="M154 256l3 25h739l-3 -25h-739z"></glyph><glyph glyph-name="AE" unicode="Æ" d="M872 688h-404l-44 -309h348l-3 -26h-348l-46 -327h405l-4 -26h-447l38 266h-231l-183 -266h-29l490 714h461zM370 292l56 397l-272 -397h216z"></glyph><glyph glyph-name="ordfeminine" unicode="ª" d="M215 394c-30 0 -55 8 -75 25s-28 41 -23 73c4 31 18 55 42 73c24 17 51 26 82 26c17 0 34 -3 51 -8c17 -6 29 -12 37 -18l12 -8l11 73c7 50 -14 75 -63 75c-14 0 -27 -2 -40 -6s-23 -9 -32 -14c-9 -6 -16 -12 -22 -18c-7 -6 -12 -11 -15 -15l-4 -6l-17 9 c15 22 35 40 60 53c24 13 51 19 82 19c37 0 62 -9 76 -27c13 -19 18 -42 14 -71l-33 -229h-39l4 30c-40 -24 -76 -36 -108 -36zM231 417c14 0 29 3 45 8c15 5 28 10 37 15l13 8l13 92s-1 1 -4 3c-3 1 -8 4 -13 7s-11 5 -18 8s-14 5 -23 7s-18 3 -27 3c-23 0 -45 -6 -64 -19 s-31 -32 -34 -57s3 -44 19 -56c15 -13 34 -19 56 -19z"></glyph><glyph glyph-name="Lslash" unicode="Ł" d="M399 0h-353l57 298l-107 -65l9 44l106 64l64 333h47l-58 -302l148 90l-9 -45l-147 -89l-55 -288h306z"></glyph><glyph glyph-name="Oslash" unicode="Ø" d="M700 648c37 -34 65 -76 82 -127s21 -105 12 -164c-9 -67 -33 -128 -72 -184c-39 -57 -87 -101 -144 -134s-117 -49 -179 -49c-68 0 -128 20 -179 59l-39 -49h-35l53 66c-37 35 -63 77 -80 128s-21 105 -13 163c9 67 33 128 72 185c39 56 87 100 144 133s117 49 180 49 c67 0 126 -19 177 -58l39 48h35zM149 357c-7 -53 -5 -102 8 -147c13 -46 34 -85 64 -117l438 547c-45 39 -99 58 -161 58c-84 0 -160 -33 -227 -99c-68 -66 -109 -147 -122 -242zM751 357c7 53 5 102 -8 148s-35 85 -64 116l-439 -547c45 -39 99 -58 162 -58 c55 0 108 15 159 46c50 30 92 71 126 124c34 52 55 109 64 171z"></glyph><glyph glyph-name="OE" unicode="Œ" d="M1191 688h-404l-44 -309h349l-4 -26h-348l-46 -327h405l-4 -26h-446l13 99c-36 -34 -77 -60 -123 -79c-47 -19 -94 -29 -143 -29c-66 0 -123 17 -171 52c-49 34 -83 79 -104 136c-21 56 -26 117 -17 182c10 69 35 131 76 187c40 56 88 99 145 130s115 46 175 46 c49 0 95 -11 137 -32c41 -21 73 -51 96 -88l16 110h445zM403 16c97 0 185 40 264 119l61 430c-51 89 -128 133 -229 133c-88 0 -165 -32 -232 -97s-107 -146 -120 -242c-9 -62 -4 -119 14 -170c17 -52 47 -94 90 -125c42 -32 93 -48 152 -48z"></glyph><glyph glyph-name="ordmasculine" unicode="º" d="M269 395c-44 0 -79 16 -105 49c-27 32 -37 71 -30 118c6 46 27 85 63 118c35 32 75 48 119 48s79 -16 105 -48c26 -33 36 -72 29 -118c-4 -31 -15 -59 -32 -84c-18 -26 -40 -46 -66 -61c-27 -15 -54 -22 -83 -22zM272 417c33 0 63 14 90 43c27 28 43 62 49 102 c5 40 -1 74 -20 102s-46 42 -79 42c-22 0 -43 -6 -63 -19s-37 -31 -50 -53s-22 -46 -26 -72c-3 -26 -1 -50 6 -72c7 -23 19 -40 36 -53c16 -13 35 -20 57 -20z"></glyph><glyph glyph-name="ae" unicode="æ" d="M699 259c-32 -9 -75 -15 -129 -18c-55 -3 -88 -3 -100 1c-1 -30 2 -58 9 -85s18 -51 33 -72s36 -38 62 -51c25 -13 55 -19 88 -19c65 0 123 29 173 88l17 -12c-28 -38 -59 -64 -92 -79s-72 -22 -115 -22c-29 0 -55 5 -80 15c-25 9 -46 22 -63 38s-32 35 -44 57 c-34 -34 -73 -61 -118 -80s-86 -29 -124 -29c-16 0 -32 2 -48 5s-32 8 -48 16s-30 18 -41 30c-11 11 -20 27 -26 46s-7 41 -4 65c5 37 20 68 43 94c23 25 49 44 78 55s59 16 90 16c35 0 68 -6 100 -19s55 -26 69 -39c0 3 0 6 1 9l14 101c14 100 -21 150 -106 150 c-43 0 -82 -10 -117 -29c-35 -20 -63 -45 -85 -75l-17 12c29 41 65 71 107 90c41 19 84 28 128 28c46 0 80 -11 101 -34s30 -60 28 -110c18 28 39 52 63 73c23 21 51 38 84 51c32 13 66 19 101 19c47 0 85 -13 113 -39s39 -57 32 -93c-6 -40 -24 -72 -53 -96 s-71 -43 -124 -58zM723 519c-59 0 -114 -25 -163 -74c-50 -50 -79 -110 -88 -181c20 -2 44 -3 71 -2c30 1 59 4 88 9c28 5 57 12 88 23c31 10 57 25 78 46c21 20 33 44 38 72c5 31 -4 57 -27 77s-52 30 -85 30zM225 15c34 0 73 10 118 29c44 19 80 42 108 69 c-19 40 -27 83 -24 129c-15 12 -38 24 -67 35c-30 11 -60 16 -90 16c-18 0 -36 -2 -54 -7s-36 -12 -54 -22s-33 -24 -46 -43s-22 -42 -25 -67c-4 -25 -2 -48 6 -67s20 -34 35 -43c15 -10 30 -17 46 -22s32 -7 47 -7z"></glyph><glyph glyph-name="idotless" unicode="ı" d="M143 0h-47l92 480h47z"></glyph><glyph glyph-name="lslash" unicode="ł" d="M128 0h-47l61 321l-76 -49l8 42l76 49l68 353h47l-61 -319l76 50l-8 -42l-76 -50z"></glyph><glyph glyph-name="oslash" unicode="ø" d="M527 486c27 -26 46 -58 58 -95c11 -38 14 -79 8 -123c-11 -78 -45 -144 -102 -197c-57 -54 -122 -81 -194 -81c-51 0 -95 14 -133 42l-25 -32h-35l39 49c-26 26 -45 58 -57 96s-15 79 -8 123c11 78 45 144 102 197s122 80 195 80c50 0 94 -14 131 -42l26 33h35zM119 268 c-10 -76 6 -139 48 -190l318 399c-32 29 -70 43 -114 43c-59 0 -114 -25 -163 -74s-79 -109 -89 -178zM551 268c11 76 -5 139 -47 189l-318 -398c32 -29 70 -44 114 -44c59 0 114 25 163 75c49 49 78 109 88 178z"></glyph><glyph glyph-name="oe" unicode="œ" d="M813 259c-32 -9 -75 -15 -129 -18c-55 -3 -88 -3 -100 1c-2 -41 3 -78 16 -111s34 -61 65 -83c30 -22 67 -33 111 -33c65 0 123 29 173 88l17 -12c-28 -38 -59 -64 -92 -79s-72 -22 -116 -22c-53 0 -98 16 -134 47c-37 31 -62 71 -75 119c-27 -50 -63 -90 -110 -120 c-47 -31 -96 -46 -149 -46c-73 0 -130 27 -172 81c-43 53 -58 119 -47 197s45 144 102 197s122 80 195 80c27 0 52 -4 76 -12c23 -9 44 -20 63 -35c18 -15 33 -32 46 -53s22 -44 28 -69c27 49 63 90 109 122c45 31 97 47 155 47c47 0 85 -13 113 -39c27 -26 38 -57 32 -93 c-4 -27 -14 -51 -29 -71c-16 -20 -36 -36 -59 -49c-24 -13 -54 -24 -89 -34zM293 15c58 0 111 24 160 71c48 47 78 105 90 173c0 4 0 8 1 11c9 69 -3 128 -38 177s-83 73 -142 73s-114 -25 -163 -74s-79 -109 -89 -178c-9 -69 4 -129 39 -178c35 -50 83 -75 142 -75z M837 519c-59 0 -114 -25 -163 -74c-50 -50 -79 -110 -88 -181c20 -2 44 -3 71 -2c30 1 59 4 88 9c28 5 57 12 88 23c31 10 57 25 78 46c21 20 33 44 37 72c5 31 -3 57 -26 77s-52 30 -85 30z"></glyph><glyph glyph-name="germandbls" unicode="ß" d="M244 -10l4 25c35 5 68 12 98 22c29 10 57 23 82 40c25 16 46 37 63 62c16 25 26 53 30 84c9 59 -5 107 -42 144c-37 36 -87 57 -150 63l3 22c29 -1 58 5 85 18s49 31 67 54s29 48 32 75c3 18 2 35 -2 52s-11 32 -22 47c-11 14 -28 25 -49 34s-47 13 -76 13 c-49 0 -87 -13 -113 -39s-43 -66 -51 -121l-82 -585h-41l84 594c8 55 30 99 65 130s82 46 143 46c34 0 64 -5 90 -15s46 -23 61 -40c14 -17 24 -35 30 -54c6 -20 8 -41 5 -62c-5 -37 -23 -70 -53 -99c-31 -29 -64 -49 -100 -58c21 -3 41 -10 60 -21s37 -25 54 -42 s29 -39 38 -66c8 -27 10 -57 5 -89c-3 -25 -10 -48 -20 -69c-11 -22 -23 -41 -38 -58s-33 -32 -52 -45s-40 -24 -63 -33s-46 -15 -70 -20c-25 -5 -50 -8 -75 -9z"></glyph><glyph glyph-name="onesuperior" unicode="¹" d="M373 764h38l-57 -405h94l-3 -23h-229l4 23h96l52 374l-110 -91l-13 17z"></glyph><glyph glyph-name="logicalnot" unicode="¬" d="M189 369h461l-33 -239h-30l30 215h-431z"></glyph><glyph glyph-name="mu" unicode="µ" d="M499 535h41l-76 -535h-41l25 172c-33 -59 -70 -104 -112 -135c-43 -31 -88 -47 -137 -47c-47 0 -82 14 -107 42l-38 -273h-40l93 668l1 6l1 4v4l1 1v3v1l1 4v2l1 3v1v1v2v3l1 2v1v1v2v1l1 1v2v3v1l1 1v1v4l1 3v1v2v1v1l1 1v1v1v1v2l1 2v1v1v1v1v1l1 2v1v2v3l1 1v2v1v1v1 v1l1 4v1v2v1l1 1v1v1v1v1v1v1l1 1v1h41l-56 -395c-6 -41 1 -73 20 -94s46 -32 82 -32c88 0 168 62 241 185z"></glyph><glyph glyph-name="trademark" unicode="™" d="M317 362l47 334h-124l3 18h278l-3 -18h-123l-47 -334h-31zM526 362l50 352h36l103 -185l155 185h30l-49 -352h-31l45 318l-162 -196l-113 203l-46 -325h-18z"></glyph><glyph glyph-name="Eth" unicode="Ð" d="M461 714c62 0 116 -16 163 -49c46 -33 79 -76 100 -131s27 -113 18 -176c-9 -64 -31 -123 -68 -178s-83 -99 -138 -131c-55 -33 -111 -49 -170 -49h-246l48 342h-78l4 25h78l48 347h241zM700 357c8 60 4 115 -12 166c-16 50 -44 90 -83 120s-86 45 -140 45h-206l-46 -321 h210l-4 -25h-209l-45 -316h203c57 0 109 16 158 47c48 31 87 71 117 121c29 50 48 104 57 163z"></glyph><glyph glyph-name="onehalf" unicode="½" d="M354 714h39l-57 -405h93l-3 -23h-228l3 23h96l53 374l-110 -91l-13 17zM797 714h30l-501 -714h-30zM605 0l3 23l183 182c0 1 3 3 8 8l11 11c2 2 6 6 11 12s10 11 13 16c3 4 7 9 12 16c4 7 8 13 11 19s5 13 8 20c2 7 4 14 5 21c3 25 -2 45 -16 60s-36 22 -66 22 c-43 0 -78 -14 -103 -43l-13 11c12 16 30 29 53 40s48 16 77 16c39 0 68 -10 86 -30s25 -45 21 -76c-5 -35 -29 -73 -70 -114l-190 -185h236l-4 -29h-276z"></glyph><glyph glyph-name="plusminus" unicode="±" d="M597 374l-5 -33h-214l-31 -223h-35l31 223h-215l5 33h215l31 223h35l-31 -223h214zM85 33h464l-5 -33h-464z"></glyph><glyph glyph-name="Thorn" unicode="Þ" d="M156 -1454v0h2c0 -1 1 -1 3 -1c1 0 2 0 4 1h1h1v0v0v1v0c-1 0 -1 1 -1 1c-1 0 -1 1 -2 1h-1v0v0v-1c-1 0 -1 0 -2 -1h-1h-1v0v0v0v0v0v0c2 0 3 1 4 2c0 0 1 1 1 2h1v1c0 1 1 1 1 1v0v1v0h-2c0 0 -1 0 -2 -1c-1 0 -1 0 -1 -1v0v0v0v0c0 -2 -1 -3 -1 -3c0 -1 -1 -1 -1 -1 c0 -1 0 -1 -1 -1v0v0v0v1c1 0 2 1 2 1v3v3s0 1 -1 1v0v1v1v0v0s-1 0 -1 -1v0l-1 -1v-3v-1v-1v-1v0v0c1 0 1 -1 1 -1s0 -1 -1 -1v0v0v0v0v0v0v0v0v0c1 0 1 1 1 1v1h-2h-1v-1s0 -1 1 -1v0v0v0v0v0h-1v0v0v0l-1 1l1 1v0h1v1v1v1s0 2 -1 3c0 1 -1 1 -1 1v0v0v1v0h-1v-1v-1v0v-1 s-1 -2 -1 -3s0 -2 1 -3l1 -1c0 -1 1 -1 1 -1v0v0h-1v1c0 0 -1 0 -1 1c-1 0 -1 1 -1 3v0v0v0c0 1 -1 1 -1 1c-1 1 -2 1 -3 1h-1v0v-1v0l1 -1v-1v0c1 -1 1 -2 2 -2c1 -1 2 -2 4 -2v0v0v0v0h-1v0h-1c-1 1 -2 1 -2 1v1v0v0h-1c-1 0 -1 -1 -2 -1l-1 -1v0v-1v0v0h1h1 c1 -1 3 -1 4 -1s2 0 3 1h1v0zM156 -1454v0h2c0 -1 1 -1 3 -1c1 0 2 0 4 1h1h1v0v0v1v0c-1 0 -1 1 -1 1c-1 0 -1 1 -2 1h-1v0v0v-1c-1 0 -1 0 -2 -1h-1h-1v0v0v0v0v0v0c2 0 3 1 4 2c0 0 1 1 1 2h1v1c0 1 1 1 1 1v0v1v0h-2c0 0 -1 0 -2 -1c-1 0 -1 0 -1 -1v0v0v0v0 c0 -2 -1 -3 -1 -3c0 -1 -1 -1 -1 -1c0 -1 0 -1 -1 -1v0v0v0v1c1 0 2 1 2 1v3v3s0 1 -1 1v0v1v1v0v0s-1 0 -1 -1v0l-1 -1v-3v-1v-1v-1v0v0c1 0 1 -1 1 -1s0 -1 -1 -1v0v0v0v0v0v0v0v0v0c1 0 1 1 1 1v1h-2h-1v-1s0 -1 1 -1v0v0v0v0v0h-1v0v0v0l-1 1l1 1v0h1v1v1v1s0 2 -1 3 c0 1 -1 1 -1 1v0v0v1v0h-1v-1v-1v0v-1s-1 -2 -1 -3s0 -2 1 -3l1 -1c0 -1 1 -1 1 -1v0v0h-1v1c0 0 -1 0 -1 1c-1 0 -1 1 -1 3v0v0v0c0 1 -1 1 -1 1c-1 1 -2 1 -3 1h-1v0v-1v0l1 -1v-1v0c1 -1 1 -2 2 -2c1 -1 2 -2 4 -2v0v0v0v0h-1v0h-1c-1 1 -2 1 -2 1v1v0v0h-1 c-1 0 -1 -1 -2 -1l-1 -1v0v-1v0v0h1h1c1 -1 3 -1 4 -1s2 0 3 1h1v0zM715 68c1 -1 3 -2 5 -4c5 -4 14 -9 25 -16c12 -7 26 -13 44 -20c18 -8 39 -14 64 -19c24 -5 52 -7 83 -7c25 0 50 2 74 7c25 4 49 9 71 15c23 7 44 13 63 19c36 11 62 18 78 18c14 0 25 -2 34 -6 c8 -3 15 -3 20 1c4 3 6 7 6 13c-1 4 -5 11 -10 18l-15 21c-13 17 -30 32 -51 47c-29 18 -55 29 -79 33c-23 4 -41 4 -53 2h-1c-2 0 -5 -1 -10 -3s-11 -7 -18 -14c-21 -19 -46 -38 -75 -57c-30 -18 -59 -30 -86 -36h-11c-4 -1 -9 -1 -13 0s-6 2 -6 4s0 3 1 3c1 1 2 2 4 2 c1 1 2 1 3 1v0c42 11 77 25 106 44c28 18 53 39 76 60c38 37 68 77 90 121c3 6 6 12 9 20c8 18 19 37 31 57s27 35 46 45c3 2 5 5 6 8c1 4 0 8 -3 12c-2 3 -7 6 -14 8c-5 1 -17 2 -36 2c-20 0 -44 -3 -73 -9c-29 -7 -61 -19 -97 -38c-20 -11 -34 -22 -42 -32 s-13 -17 -13 -21v0s-1 0 -1 -1c0 0 0 -1 -1 -2c0 -1 0 -2 -1 -3v-6c-3 -49 -10 -89 -22 -119c-13 -30 -27 -53 -42 -69s-28 -28 -39 -35c-7 -5 -14 -8 -20 -10c-7 -2 -11 -2 -14 0v3c1 1 2 3 3 4s3 2 4 3c44 30 74 64 90 103c15 38 23 78 24 121c2 35 -2 69 -11 101 c-9 31 -19 61 -31 88c-4 9 -7 19 -11 28c-2 5 -5 15 -8 30c-3 16 -2 32 2 49c3 11 3 19 1 23c-3 4 -7 6 -14 7c-6 0 -12 -4 -19 -11s-12 -13 -16 -19c-1 0 -2 -1 -2 -2c-3 -3 -8 -10 -16 -21s-18 -29 -31 -54c-16 -33 -27 -65 -34 -97c-7 -31 -12 -58 -13 -80 c-2 -22 -2 -35 -2 -40c0 -23 2 -39 5 -50c3 -12 8 -20 14 -25c7 -5 15 -10 25 -15c1 0 2 -1 3 -1c14 -6 25 -13 32 -23c8 -10 11 -21 11 -32s-4 -21 -12 -29c-7 -8 -19 -16 -34 -22h-1c-1 -1 -2 -1 -3 -2h-3c-7 -2 -13 -2 -17 -1c-5 1 -7 3 -8 5c0 1 1 2 2 3c2 1 3 2 5 2 c2 1 3 1 4 1c2 0 2 1 2 1c34 9 50 23 50 42c0 13 -8 25 -24 36s-35 16 -58 16h-2h-3c-23 0 -42 -5 -58 -16s-24 -23 -24 -36c0 -19 17 -33 50 -42c0 0 0 -1 2 -1c1 0 3 0 4 -1c2 0 3 -1 5 -2c1 -1 2 -2 2 -3c0 -2 -3 -4 -7 -5c-5 -1 -11 -1 -18 1h-2c-1 1 -2 1 -3 1 c0 0 -1 1 -2 1c-15 6 -26 14 -34 22s-12 18 -12 29s3 21 11 31c7 11 18 18 32 24c1 1 2 1 3 1c10 5 19 10 25 15c7 5 11 14 14 25s5 27 5 50c0 4 0 17 -2 40c-1 22 -5 49 -12 80c-7 32 -19 64 -35 97c-12 24 -22 42 -30 53s-13 18 -16 21v1l-3 3c-4 6 -10 12 -16 19 c-7 6 -13 10 -19 10c-6 -1 -11 -3 -13 -7c-3 -4 -3 -12 0 -23c4 -17 5 -33 2 -49c-3 -15 -6 -25 -8 -30c-4 -9 -7 -18 -11 -28c-11 -27 -22 -56 -31 -88s-13 -65 -11 -101c1 -43 9 -83 24 -121c16 -39 46 -73 90 -103c2 -1 3 -2 4 -3s2 -3 3 -4s1 -2 0 -3c-2 -2 -7 -2 -14 0 c-6 2 -13 5 -19 10c-12 7 -25 19 -40 35s-29 39 -42 69c-12 30 -19 70 -22 119v5s-1 2 -1 3v2c-1 1 -1 1 -1 2h-1v0c0 4 -5 11 -13 21s-22 21 -42 32c-35 19 -67 31 -97 38c-29 6 -53 9 -72 9c-20 0 -32 -1 -37 -2c-7 -2 -11 -5 -14 -8c-3 -4 -4 -8 -3 -12c1 -3 3 -6 7 -8 c18 -10 33 -25 45 -45c12 -19 23 -39 31 -57c3 -8 6 -14 9 -20c22 -44 52 -84 90 -121c23 -21 48 -42 76 -60c29 -19 64 -34 106 -44c1 0 2 0 3 -1c2 0 3 -1 4 -2c1 0 2 -1 2 -3c-1 -2 -3 -3 -7 -4s-9 -1 -13 0h-11c-27 6 -56 18 -86 36c-29 19 -54 38 -74 57 c-8 7 -14 12 -19 14s-8 3 -10 3h-1c-12 2 -30 2 -53 -2c-24 -4 -50 -15 -79 -33c-21 -15 -38 -31 -51 -47l-15 -21s-9 -14 -10 -18c0 -6 2 -10 7 -13c4 -4 11 -4 19 -1c9 4 20 6 34 6c16 0 42 -6 78 -18c19 -6 40 -12 63 -19c22 -6 46 -11 71 -15c24 -5 49 -7 74 -7 c31 0 59 2 84 7c24 5 45 12 63 19s33 14 44 20c12 7 20 12 25 16c3 2 4 3 6 4z"></glyph><glyph glyph-name="onequarter" unicode="¼" d="M354 714h39l-57 -405h93l-3 -23h-228l3 23h96l53 374l-110 -91l-13 17zM797 714h30l-501 -714h-30zM821 145h67l-3 -24h-68l-17 -121h-38l17 121h-210l3 24l250 285h39zM782 145l34 244l-213 -244h179z"></glyph><glyph glyph-name="divide" unicode="÷" d="M408 472c-7 0 -13 3 -18 9c-5 5 -7 12 -6 19c0 3 1 6 3 9c1 3 3 5 5 8c2 2 4 4 7 6s6 4 9 5s5 1 8 1c8 0 14 -3 19 -8c5 -6 7 -13 6 -20c-1 -8 -5 -15 -11 -20c-7 -6 -14 -9 -22 -9zM158 341l4 24h464l-4 -24h-464zM367 177c-8 0 -14 3 -19 9c-5 5 -7 12 -6 20l3 9 s3 5 5 8c2 2 4 4 7 6c3 1 6 3 9 4s6 1 9 1c5 0 9 -1 13 -4s7 -6 9 -10c2 -5 3 -9 2 -14c-1 -8 -5 -15 -11 -20c-7 -6 -14 -9 -21 -9z"></glyph><glyph glyph-name="brokenbar" unicode="¦" d="M157 337h-32l60 423h31zM103 183h32l-60 -424h-31z"></glyph><glyph glyph-name="degree" unicode="°" d="M269 395c-44 0 -79 16 -105 49c-27 32 -37 71 -30 118c6 46 27 85 63 118c35 32 75 48 119 48s79 -16 105 -48c26 -33 36 -72 29 -118c-4 -31 -15 -59 -32 -84c-18 -26 -40 -46 -66 -61c-27 -15 -54 -22 -83 -22zM272 417c33 0 63 14 90 43c27 28 43 62 49 102 c5 40 -1 74 -20 102s-46 42 -79 42c-22 0 -43 -6 -63 -19s-37 -31 -50 -53s-22 -46 -26 -72c-3 -26 -1 -50 6 -72c7 -23 19 -40 36 -53c16 -13 35 -20 57 -20z"></glyph><glyph glyph-name="thorn" unicode="þ" d="M156 -1454v0h2c0 -1 1 -1 3 -1c1 0 2 0 4 1h1h1v0v0v1v0c-1 0 -1 1 -1 1c-1 0 -1 1 -2 1h-1v0v0v-1c-1 0 -1 0 -2 -1h-1h-1v0v0v0v0v0v0c2 0 3 1 4 2c0 0 1 1 1 2h1v1c0 1 1 1 1 1v0v1v0h-2c0 0 -1 0 -2 -1c-1 0 -1 0 -1 -1v0v0v0v0c0 -2 -1 -3 -1 -3c0 -1 -1 -1 -1 -1 c0 -1 0 -1 -1 -1v0v0v0v1c1 0 2 1 2 1v3v3s0 1 -1 1v0v1v1v0v0s-1 0 -1 -1v0l-1 -1v-3v-1v-1v-1v0v0c1 0 1 -1 1 -1s0 -1 -1 -1v0v0v0v0v0v0v0v0v0c1 0 1 1 1 1v1h-2h-1v-1s0 -1 1 -1v0v0v0v0v0h-1v0v0v0l-1 1l1 1v0h1v1v1v1s0 2 -1 3c0 1 -1 1 -1 1v0v0v1v0h-1v-1v-1v0v-1 s-1 -2 -1 -3s0 -2 1 -3l1 -1c0 -1 1 -1 1 -1v0v0h-1v1c0 0 -1 0 -1 1c-1 0 -1 1 -1 3v0v0v0c0 1 -1 1 -1 1c-1 1 -2 1 -3 1h-1v0v-1v0l1 -1v-1v0c1 -1 1 -2 2 -2c1 -1 2 -2 4 -2v0v0v0v0h-1v0h-1c-1 1 -2 1 -2 1v1v0v0h-1c-1 0 -1 -1 -2 -1l-1 -1v0v-1v0v0h1h1 c1 -1 3 -1 4 -1s2 0 3 1h1v0zM156 -1454v0h2c0 -1 1 -1 3 -1c1 0 2 0 4 1h1h1v0v0v1v0c-1 0 -1 1 -1 1c-1 0 -1 1 -2 1h-1v0v0v-1c-1 0 -1 0 -2 -1h-1h-1v0v0v0v0v0v0c2 0 3 1 4 2c0 0 1 1 1 2h1v1c0 1 1 1 1 1v0v1v0h-2c0 0 -1 0 -2 -1c-1 0 -1 0 -1 -1v0v0v0v0 c0 -2 -1 -3 -1 -3c0 -1 -1 -1 -1 -1c0 -1 0 -1 -1 -1v0v0v0v1c1 0 2 1 2 1v3v3s0 1 -1 1v0v1v1v0v0s-1 0 -1 -1v0l-1 -1v-3v-1v-1v-1v0v0c1 0 1 -1 1 -1s0 -1 -1 -1v0v0v0v0v0v0v0v0v0c1 0 1 1 1 1v1h-2h-1v-1s0 -1 1 -1v0v0v0v0v0h-1v0v0v0l-1 1l1 1v0h1v1v1v1s0 2 -1 3 c0 1 -1 1 -1 1v0v0v1v0h-1v-1v-1v0v-1s-1 -2 -1 -3s0 -2 1 -3l1 -1c0 -1 1 -1 1 -1v0v0h-1v1c0 0 -1 0 -1 1c-1 0 -1 1 -1 3v0v0v0c0 1 -1 1 -1 1c-1 1 -2 1 -3 1h-1v0v-1v0l1 -1v-1v0c1 -1 1 -2 2 -2c1 -1 2 -2 4 -2v0v0v0v0h-1v0h-1c-1 1 -2 1 -2 1v1v0v0h-1 c-1 0 -1 -1 -2 -1l-1 -1v0v-1v0v0h1h1c1 -1 3 -1 4 -1s2 0 3 1h1v0zM715 68c1 -1 3 -2 5 -4c5 -4 14 -9 25 -16c12 -7 26 -13 44 -20c18 -8 39 -14 64 -19c24 -5 52 -7 83 -7c25 0 50 2 74 7c25 4 49 9 71 15c23 7 44 13 63 19c36 11 62 18 78 18c14 0 25 -2 34 -6 c8 -3 15 -3 20 1c4 3 6 7 6 13c-1 4 -5 11 -10 18l-15 21c-13 17 -30 32 -51 47c-29 18 -55 29 -79 33c-23 4 -41 4 -53 2h-1c-2 0 -5 -1 -10 -3s-11 -7 -18 -14c-21 -19 -46 -38 -75 -57c-30 -18 -59 -30 -86 -36h-11c-4 -1 -9 -1 -13 0s-6 2 -6 4s0 3 1 3c1 1 2 2 4 2 c1 1 2 1 3 1v0c42 11 77 25 106 44c28 18 53 39 76 60c38 37 68 77 90 121c3 6 6 12 9 20c8 18 19 37 31 57s27 35 46 45c3 2 5 5 6 8c1 4 0 8 -3 12c-2 3 -7 6 -14 8c-5 1 -17 2 -36 2c-20 0 -44 -3 -73 -9c-29 -7 -61 -19 -97 -38c-20 -11 -34 -22 -42 -32 s-13 -17 -13 -21v0s-1 0 -1 -1c0 0 0 -1 -1 -2c0 -1 0 -2 -1 -3v-6c-3 -49 -10 -89 -22 -119c-13 -30 -27 -53 -42 -69s-28 -28 -39 -35c-7 -5 -14 -8 -20 -10c-7 -2 -11 -2 -14 0v3c1 1 2 3 3 4s3 2 4 3c44 30 74 64 90 103c15 38 23 78 24 121c2 35 -2 69 -11 101 c-9 31 -19 61 -31 88c-4 9 -7 19 -11 28c-2 5 -5 15 -8 30c-3 16 -2 32 2 49c3 11 3 19 1 23c-3 4 -7 6 -14 7c-6 0 -12 -4 -19 -11s-12 -13 -16 -19c-1 0 -2 -1 -2 -2c-3 -3 -8 -10 -16 -21s-18 -29 -31 -54c-16 -33 -27 -65 -34 -97c-7 -31 -12 -58 -13 -80 c-2 -22 -2 -35 -2 -40c0 -23 2 -39 5 -50c3 -12 8 -20 14 -25c7 -5 15 -10 25 -15c1 0 2 -1 3 -1c14 -6 25 -13 32 -23c8 -10 11 -21 11 -32s-4 -21 -12 -29c-7 -8 -19 -16 -34 -22h-1c-1 -1 -2 -1 -3 -2h-3c-7 -2 -13 -2 -17 -1c-5 1 -7 3 -8 5c0 1 1 2 2 3c2 1 3 2 5 2 c2 1 3 1 4 1c2 0 2 1 2 1c34 9 50 23 50 42c0 13 -8 25 -24 36s-35 16 -58 16h-2h-3c-23 0 -42 -5 -58 -16s-24 -23 -24 -36c0 -19 17 -33 50 -42c0 0 0 -1 2 -1c1 0 3 0 4 -1c2 0 3 -1 5 -2c1 -1 2 -2 2 -3c0 -2 -3 -4 -7 -5c-5 -1 -11 -1 -18 1h-2c-1 1 -2 1 -3 1 c0 0 -1 1 -2 1c-15 6 -26 14 -34 22s-12 18 -12 29s3 21 11 31c7 11 18 18 32 24c1 1 2 1 3 1c10 5 19 10 25 15c7 5 11 14 14 25s5 27 5 50c0 4 0 17 -2 40c-1 22 -5 49 -12 80c-7 32 -19 64 -35 97c-12 24 -22 42 -30 53s-13 18 -16 21v1l-3 3c-4 6 -10 12 -16 19 c-7 6 -13 10 -19 10c-6 -1 -11 -3 -13 -7c-3 -4 -3 -12 0 -23c4 -17 5 -33 2 -49c-3 -15 -6 -25 -8 -30c-4 -9 -7 -18 -11 -28c-11 -27 -22 -56 -31 -88s-13 -65 -11 -101c1 -43 9 -83 24 -121c16 -39 46 -73 90 -103c2 -1 3 -2 4 -3s2 -3 3 -4s1 -2 0 -3c-2 -2 -7 -2 -14 0 c-6 2 -13 5 -19 10c-12 7 -25 19 -40 35s-29 39 -42 69c-12 30 -19 70 -22 119v5s-1 2 -1 3v2c-1 1 -1 1 -1 2h-1v0c0 4 -5 11 -13 21s-22 21 -42 32c-35 19 -67 31 -97 38c-29 6 -53 9 -72 9c-20 0 -32 -1 -37 -2c-7 -2 -11 -5 -14 -8c-3 -4 -4 -8 -3 -12c1 -3 3 -6 7 -8 c18 -10 33 -25 45 -45c12 -19 23 -39 31 -57c3 -8 6 -14 9 -20c22 -44 52 -84 90 -121c23 -21 48 -42 76 -60c29 -19 64 -34 106 -44c1 0 2 0 3 -1c2 0 3 -1 4 -2c1 0 2 -1 2 -3c-1 -2 -3 -3 -7 -4s-9 -1 -13 0h-11c-27 6 -56 18 -86 36c-29 19 -54 38 -74 57 c-8 7 -14 12 -19 14s-8 3 -10 3h-1c-12 2 -30 2 -53 -2c-24 -4 -50 -15 -79 -33c-21 -15 -38 -31 -51 -47l-15 -21s-9 -14 -10 -18c0 -6 2 -10 7 -13c4 -4 11 -4 19 -1c9 4 20 6 34 6c16 0 42 -6 78 -18c19 -6 40 -12 63 -19c22 -6 46 -11 71 -15c24 -5 49 -7 74 -7 c31 0 59 2 84 7c24 5 45 12 63 19s33 14 44 20c12 7 20 12 25 16c3 2 4 3 6 4z"></glyph><glyph glyph-name="threequarters" unicode="¾" d="M168 354c9 -14 22 -26 40 -35c17 -10 39 -15 64 -15c23 0 44 5 62 15c18 9 32 21 41 36s15 31 18 50c2 15 1 28 -2 39s-9 20 -17 27s-16 12 -25 17s-19 8 -31 10c-13 1 -23 2 -32 3s-18 1 -28 1l3 22c27 0 50 3 69 9s34 14 44 25c10 10 17 20 22 30c5 9 8 19 9 30 c3 25 -1 44 -13 58c-13 13 -34 20 -63 20c-44 0 -79 -14 -104 -43l-13 11c7 9 17 18 28 26s25 15 44 21c18 6 37 9 57 9c33 0 59 -8 80 -23c20 -15 28 -39 23 -72c-4 -33 -18 -58 -41 -77s-49 -30 -77 -33c33 -3 60 -13 81 -31c21 -19 29 -45 24 -80c-5 -33 -20 -62 -46 -87 s-62 -37 -108 -37c-33 0 -59 6 -80 19c-21 12 -36 27 -45 45zM774 714h30l-501 -714h-30zM798 145h67l-3 -24h-68l-17 -121h-38l17 121h-210l3 24l250 285h39zM759 145l34 244l-213 -244h179z"></glyph><glyph glyph-name="twosuperior" unicode="²" d="M142 336l3 23l183 182c0 1 3 3 8 8l11 11c2 2 6 6 11 12s10 11 13 16c3 4 7 9 12 16s8 13 11 19s5 13 8 20c2 7 4 14 5 21c3 25 -2 45 -16 60s-36 22 -66 22c-43 0 -78 -14 -103 -43l-13 11c12 16 30 29 53 40s48 16 77 16c39 0 68 -10 86 -30s25 -45 21 -76 c-5 -35 -29 -73 -70 -114l-190 -185h236l-4 -29h-276z"></glyph><glyph glyph-name="registered" unicode="®" d="M419 -10c-67 0 -126 16 -177 49c-52 33 -90 77 -115 134c-25 56 -32 117 -23 183c9 67 34 128 75 185c41 56 91 100 152 133s124 49 191 49c66 0 125 -16 177 -49c51 -33 89 -77 114 -133c25 -57 32 -118 23 -185c-9 -66 -34 -127 -74 -183c-41 -57 -91 -101 -152 -134 s-125 -49 -191 -49zM422 13c62 0 122 15 179 46s105 72 143 125s61 110 70 172c9 63 2 120 -21 173s-59 95 -108 126s-104 46 -166 46c-63 0 -122 -15 -179 -46s-105 -73 -143 -126s-62 -110 -71 -173c-9 -62 -1 -119 22 -172s59 -94 108 -125c48 -31 103 -46 166 -46z M300 144l60 428h161c38 0 67 -11 88 -34c20 -23 28 -52 23 -88c-4 -28 -15 -51 -32 -70c-18 -19 -41 -33 -69 -40l77 -196h-47l-74 189h-16h-103l-27 -189h-41zM371 358h115c11 0 21 1 31 4c9 2 18 6 27 11c8 5 15 12 22 19c6 7 11 15 15 25s7 21 9 32c4 30 -1 54 -16 72 c-15 17 -36 26 -64 26h-112z"></glyph><glyph glyph-name="minus" unicode="−" d="M163 369h464l-5 -32h-464z"></glyph><glyph glyph-name="eth" unicode="ð" d="M608 704l-104 -48c79 -83 108 -197 87 -343c-8 -57 -22 -106 -41 -149s-43 -76 -70 -101s-56 -43 -87 -55s-63 -18 -98 -18c-75 0 -135 25 -178 76s-60 114 -49 190s45 140 102 192c57 51 122 77 194 77c50 0 92 -13 126 -39c34 -27 56 -56 67 -89c2 108 -24 190 -78 247 l-121 -56l-7 23l109 51c-39 34 -95 63 -166 86l10 22c75 -22 135 -54 182 -96l115 52zM542 258c10 71 -2 129 -37 174s-83 68 -145 68s-117 -23 -164 -68s-76 -103 -86 -174s2 -129 37 -174c35 -46 83 -69 145 -69s117 23 164 69c47 45 76 103 86 174z"></glyph><glyph glyph-name="multiply" unicode="×" d="M506 545l20 -23l-179 -157l136 -157l-29 -25l-135 157l-179 -157l-20 23l179 157l-136 158l29 25l136 -157z"></glyph><glyph glyph-name="threesuperior" unicode="³" d="M183 404c9 -14 22 -26 40 -35c17 -10 39 -15 64 -15c23 0 44 5 62 15c18 9 32 21 41 36s15 31 18 50c2 17 0 32 -5 45c-6 13 -13 22 -22 29s-21 12 -36 16c-15 3 -27 5 -37 6c-11 1 -22 1 -35 1l3 22c27 0 50 3 69 9s34 14 44 25c10 10 17 20 22 30c5 9 8 19 9 30 c3 25 -1 44 -13 58c-13 13 -34 20 -63 20c-44 0 -79 -14 -104 -43l-13 11c7 9 17 18 28 26s25 15 44 21c18 6 37 9 57 9c33 0 59 -8 80 -23c20 -15 28 -39 23 -72c-1 -14 -5 -27 -11 -38s-13 -21 -20 -29c-8 -9 -17 -16 -27 -22s-20 -11 -30 -14s-20 -6 -30 -7 c33 -3 60 -13 81 -31c21 -19 29 -45 24 -80c-5 -33 -20 -62 -46 -87s-62 -37 -108 -37c-22 0 -42 3 -60 10c-18 6 -32 14 -42 23s-17 20 -22 31z"></glyph><glyph glyph-name="copyright" unicode="©" d="M522 723c66 0 125 -16 177 -49c51 -33 89 -77 114 -133c25 -57 32 -118 23 -185c-9 -66 -34 -127 -74 -183c-41 -57 -91 -101 -152 -134s-125 -49 -191 -49c-67 0 -126 16 -177 49c-52 33 -90 77 -115 134c-25 56 -32 117 -23 183c9 67 34 128 75 185 c41 56 91 100 152 133s124 49 191 49zM422 13c62 0 122 15 179 46s105 72 143 125s61 110 70 172c9 63 2 120 -21 173s-59 95 -108 126s-104 46 -166 46c-63 0 -122 -15 -179 -46s-105 -73 -143 -126s-62 -110 -71 -173c-9 -62 -1 -119 22 -172s59 -94 108 -125 c48 -31 103 -46 166 -46zM445 139c-61 0 -109 22 -142 66c-33 43 -46 95 -37 156c9 62 37 114 85 156c47 41 99 62 156 62c35 0 66 -8 93 -24c27 -17 47 -39 58 -67l-18 -10c-29 51 -73 76 -131 76c-51 0 -95 -18 -132 -55c-38 -37 -61 -83 -69 -138s2 -102 29 -139 c27 -38 67 -57 118 -57c58 0 111 25 159 76l14 -10c-14 -19 -31 -36 -50 -49c-20 -14 -41 -25 -64 -32s-46 -11 -69 -11z"></glyph><glyph glyph-name="Aacute" unicode="Á" d="M535 940l-158 -156h-33l137 156h54zM524 0l-69 266h-323l-144 -266h-28l386 714h38l185 -714h-45zM146 292h303l-98 381z"></glyph><glyph glyph-name="Acircumflex" unicode="Â" d="M383 912l-131 -127h-32l137 154h60l94 -154h-33zM524 0l-69 266h-323l-144 -266h-28l386 714h38l185 -714h-45zM146 292h303l-98 381z"></glyph><glyph glyph-name="Adieresis" unicode="Ä" d="M316 839c-7 0 -13 3 -18 8s-7 12 -6 20c1 7 5 14 11 19s13 8 21 8c7 0 13 -3 18 -8s7 -12 6 -19c-1 -8 -5 -15 -11 -20s-13 -8 -21 -8zM450 839c-8 0 -14 3 -19 8s-6 12 -5 20c1 7 4 14 11 19c6 5 13 8 20 8c8 0 14 -3 19 -8c4 -5 6 -12 5 -19c-1 -8 -5 -15 -11 -20 s-13 -8 -20 -8zM524 0l-69 266h-323l-144 -266h-28l386 714h38l185 -714h-45zM146 292h303l-98 381z"></glyph><glyph glyph-name="Agrave" unicode="À" d="M387 784h-32l-115 156h54zM524 0l-69 266h-323l-144 -266h-28l386 714h38l185 -714h-45zM146 292h303l-98 381z"></glyph><glyph glyph-name="Aring" unicode="Å" d="M373 777c-26 0 -47 10 -63 30c-16 19 -22 43 -18 70c3 18 9 35 20 50s24 27 40 36c15 9 32 13 49 13c27 0 48 -10 64 -29s22 -43 18 -70s-17 -51 -38 -70c-21 -20 -45 -30 -72 -30zM318 877c-3 -23 1 -41 12 -56s27 -23 46 -23c20 0 38 8 53 23s25 33 28 56s-1 42 -12 57 s-27 22 -47 22c-13 0 -25 -3 -36 -10s-21 -16 -29 -28s-13 -26 -15 -41zM524 0l-69 266h-323l-144 -266h-28l386 714h38l185 -714h-45zM146 292h303l-98 381z"></glyph><glyph glyph-name="Atilde" unicode="Ã" d="M313 871c-15 0 -30 -5 -44 -15c-15 -11 -27 -22 -36 -34l3 19c9 15 21 28 36 40c15 11 32 17 51 17c18 0 41 -8 70 -25c28 -17 49 -25 63 -25c28 0 55 16 81 49l-3 -19c-9 -15 -21 -28 -36 -39s-33 -17 -52 -17c-18 0 -41 8 -69 25c-28 16 -49 24 -64 24zM524 0l-69 266 h-323l-144 -266h-28l386 714h38l185 -714h-45zM146 292h303l-98 381z"></glyph><glyph glyph-name="Ccedilla" unicode="Ç" d="M500 698c-88 0 -165 -32 -232 -97s-107 -146 -120 -242c-9 -62 -4 -119 14 -170c17 -52 47 -94 90 -125c42 -32 93 -48 152 -48c50 0 99 12 147 35s92 56 132 99l18 -10c-18 -23 -38 -43 -61 -61c-23 -19 -48 -34 -73 -47s-52 -23 -80 -30c-29 -7 -57 -11 -85 -11 l-36 -59c23 -4 43 -14 59 -29c16 -16 22 -37 18 -64c-4 -29 -17 -49 -39 -62c-23 -13 -47 -19 -74 -19c-17 0 -33 2 -47 7s-24 9 -30 13l9 14c15 -11 36 -16 64 -16c23 0 43 5 60 16c17 10 27 24 30 43s-3 34 -18 47s-39 21 -72 26l50 83c-62 4 -115 24 -160 59 s-76 79 -95 134s-25 114 -16 177c10 69 35 131 76 187c40 56 88 99 145 130s115 46 175 46c56 0 107 -14 152 -41s78 -64 97 -109l-20 -10c-25 44 -58 77 -97 100s-84 34 -133 34z"></glyph><glyph glyph-name="Eacute" unicode="É" d="M430 784l137 156h54l-159 -156h-32zM161 26h405l-3 -26h-447l100 714h446l-4 -26h-404l-43 -309h348l-4 -26h-348z"></glyph><glyph glyph-name="Ecircumflex" unicode="Ê" d="M297 785l138 154h60l94 -154h-33l-95 127l-131 -127h-33zM161 26h405l-3 -26h-447l100 714h446l-4 -26h-404l-43 -309h348l-4 -26h-348z"></glyph><glyph glyph-name="Edieresis" unicode="Ë" d="M384 839c-8 0 -14 3 -19 8s-6 12 -5 20c1 7 5 14 11 19s13 8 21 8c7 0 13 -3 18 -8s7 -12 6 -19c-1 -8 -5 -15 -11 -20s-13 -8 -21 -8zM518 839c-8 0 -14 3 -19 8s-6 12 -5 20c1 7 4 14 11 19c6 5 13 8 20 8c8 0 14 -3 19 -8c4 -5 6 -12 5 -19c-1 -8 -5 -15 -11 -20 s-13 -8 -20 -8zM161 26h405l-3 -26h-447l100 714h446l-4 -26h-404l-43 -309h348l-4 -26h-348z"></glyph><glyph glyph-name="Egrave" unicode="È" d="M442 784l-115 156h54l93 -156h-32zM161 26h405l-3 -26h-447l100 714h446l-4 -26h-404l-43 -309h348l-4 -26h-348z"></glyph><glyph glyph-name="Iacute" unicode="Í" d="M211 784l137 156h54l-159 -156h-32zM216 714h42l-101 -714h-41z"></glyph><glyph glyph-name="Icircumflex" unicode="Î" d="M88 785l137 154h60l94 -154h-33l-95 127l-131 -127h-32zM202 714h42l-101 -714h-41z"></glyph><glyph glyph-name="Idieresis" unicode="Ï" d="M188 839c-7 0 -13 3 -18 8s-7 12 -6 20c1 7 5 14 11 19s13 8 21 8c7 0 13 -3 18 -8s7 -12 6 -19c-1 -8 -5 -15 -11 -20s-13 -8 -21 -8zM322 839c-8 0 -14 3 -19 8s-6 12 -5 20c1 7 4 14 11 19c6 5 13 8 20 8c8 0 14 -3 19 -8c4 -5 6 -12 5 -19c-1 -8 -5 -15 -11 -20 s-13 -8 -20 -8zM216 714h42l-101 -714h-41z"></glyph><glyph glyph-name="Igrave" unicode="Ì" d="M232 784l-115 156h54l93 -156h-32zM216 714h42l-101 -714h-41z"></glyph><glyph glyph-name="Ntilde" unicode="Ñ" d="M359 822l2 19c9 15 21 28 36 40c15 11 33 17 52 17c18 0 41 -8 69 -25s49 -25 63 -25c29 0 56 16 81 49l-2 -19c-9 -15 -22 -28 -37 -39s-32 -17 -51 -17c-18 0 -41 8 -69 25c-29 16 -50 24 -65 24s-29 -5 -43 -15c-15 -11 -27 -22 -36 -34zM216 714h32l398 -654l92 654 h26l-100 -714h-33l-398 654l-92 -654h-25z"></glyph><glyph glyph-name="Oacute" unicode="Ó" d="M473 785l137 156h54l-159 -156h-32zM500 724c62 0 117 -16 166 -49c48 -33 83 -77 106 -133c23 -57 29 -118 20 -185s-33 -128 -72 -184c-39 -57 -87 -101 -144 -134s-117 -49 -179 -49c-63 0 -118 16 -166 49c-49 33 -84 77 -107 134c-23 56 -29 117 -20 184 s33 128 72 185c39 56 87 100 144 133s117 49 180 49zM400 16c84 0 160 33 228 100c67 66 108 146 121 241c7 47 5 91 -4 133c-10 42 -26 78 -49 109s-51 55 -86 73c-35 17 -73 26 -114 26c-84 0 -160 -33 -227 -99c-68 -66 -109 -147 -122 -242c-9 -62 -3 -119 16 -171 c19 -53 49 -94 91 -124c42 -31 91 -46 146 -46z"></glyph><glyph glyph-name="Ocircumflex" unicode="Ô" d="M363 785l137 154h60l94 -154h-33l-95 128l-131 -128h-32zM500 724c62 0 117 -16 166 -49c48 -33 83 -77 106 -133c23 -57 29 -118 20 -185s-33 -128 -72 -184c-39 -57 -87 -101 -144 -134s-117 -49 -179 -49c-63 0 -118 16 -166 49c-49 33 -84 77 -107 134 c-23 56 -29 117 -20 184s33 128 72 185c39 56 87 100 144 133s117 49 180 49zM400 16c55 0 108 15 159 46c50 30 92 71 126 124c34 52 55 109 64 171c7 47 5 91 -4 133c-10 42 -26 78 -49 109s-51 55 -86 73c-35 17 -73 26 -114 26c-84 0 -160 -33 -227 -99 c-68 -66 -109 -147 -122 -242c-9 -62 -3 -119 16 -171c19 -53 49 -94 91 -124c42 -31 91 -46 146 -46z"></glyph><glyph glyph-name="Odieresis" unicode="Ö" d="M450 839c-8 0 -14 3 -19 9c-5 5 -6 12 -5 19s4 14 11 20c6 5 13 8 20 8c8 0 14 -3 19 -8c4 -6 6 -13 5 -20s-5 -14 -11 -19c-6 -6 -13 -9 -20 -9zM583 839c-8 0 -14 3 -19 9c-5 5 -6 12 -5 19s4 14 11 20c6 5 13 8 21 8c7 0 13 -3 18 -8c5 -6 6 -13 5 -20s-5 -14 -11 -19 c-6 -6 -13 -9 -20 -9zM500 724c62 0 117 -16 166 -49c48 -33 83 -77 106 -133c23 -57 29 -118 20 -185s-33 -128 -72 -184c-39 -57 -87 -101 -144 -134s-117 -49 -179 -49c-63 0 -118 16 -166 49c-49 33 -84 77 -107 134c-23 56 -29 117 -20 184s33 128 72 185 c39 56 87 100 144 133s117 49 180 49zM400 16c55 0 108 15 159 46c50 30 92 71 126 124c34 52 55 109 64 171c7 47 5 91 -4 133c-10 42 -26 78 -49 109s-51 55 -86 73c-35 17 -73 26 -114 26c-84 0 -160 -33 -227 -99c-68 -66 -109 -147 -122 -242c-9 -62 -3 -119 16 -171 c19 -53 49 -94 91 -124c42 -31 91 -46 146 -46z"></glyph><glyph glyph-name="Ograve" unicode="Ò" d="M491 785l-115 156h54l94 -156h-33zM500 724c62 0 117 -16 166 -49c48 -33 83 -77 106 -133c23 -57 29 -118 20 -185s-33 -128 -72 -184c-39 -57 -87 -101 -144 -134s-117 -49 -179 -49c-63 0 -118 16 -166 49c-49 33 -84 77 -107 134c-23 56 -29 117 -20 184 s33 128 72 185c39 56 87 100 144 133s117 49 180 49zM400 16c84 0 160 33 228 100c67 66 108 146 121 241c7 47 5 91 -4 133c-10 42 -26 78 -49 109s-51 55 -86 73c-35 17 -73 26 -114 26c-84 0 -160 -33 -227 -99c-68 -66 -109 -147 -122 -242c-9 -62 -3 -119 16 -171 c19 -53 49 -94 91 -124c42 -31 91 -46 146 -46z"></glyph><glyph glyph-name="Otilde" unicode="Õ" d="M367 822l2 19c9 15 21 28 36 40c15 11 33 17 52 17c18 0 41 -8 69 -24c28 -17 49 -25 63 -25c29 0 56 16 81 49l-2 -20c-9 -14 -22 -27 -37 -38c-15 -12 -33 -18 -52 -18c-17 0 -40 8 -68 25c-29 16 -50 24 -65 24c-8 0 -16 -1 -24 -4s-15 -7 -22 -12s-14 -11 -19 -16 s-10 -11 -14 -17zM500 724c62 0 117 -16 166 -49c48 -33 83 -77 106 -133c23 -57 29 -118 20 -185s-33 -128 -72 -184c-39 -57 -87 -101 -144 -134s-117 -49 -179 -49c-63 0 -118 16 -166 49c-49 33 -84 77 -107 134c-23 56 -29 117 -20 184s33 128 72 185 c39 56 87 100 144 133s117 49 180 49zM400 16c84 0 160 33 228 100c67 66 108 146 121 241c7 47 5 91 -4 133c-10 42 -26 78 -49 109s-51 55 -86 73c-35 17 -73 26 -114 26c-84 0 -160 -33 -227 -99c-68 -66 -109 -147 -122 -242c-9 -62 -3 -119 16 -171 c19 -53 49 -94 91 -124c42 -31 91 -46 146 -46z"></glyph><glyph glyph-name="Scaron" unicode="Š" d="M54 40l20 37c40 -29 91 -49 149 -49c86 0 180 51 180 156c0 57 -28 102 -114 143c-111 53 -146 108 -146 170c0 117 103 189 215 189c63 0 118 -23 139 -41l-21 -36c-21 14 -65 38 -124 38c-99 0 -163 -71 -163 -136c0 -66 28 -98 120 -143c98 -47 140 -97 140 -185 c0 -91 -74 -195 -236 -195c-55 0 -129 22 -159 52zM371 710h-36l-86 115h52l55 -78h4l84 78h53z"></glyph><glyph glyph-name="Uacute" unicode="Ú" d="M482 784l137 156h54l-159 -156h-32zM740 714h25l-65 -464c-10 -72 -45 -133 -106 -184s-130 -76 -206 -76s-137 25 -184 76s-65 112 -55 184l65 464h42l-65 -464c-9 -65 7 -120 48 -165c41 -46 94 -69 161 -69s127 23 180 69c53 45 85 100 94 165z"></glyph><glyph glyph-name="Ucircumflex" unicode="Û" d="M361 785l137 154h60l94 -154h-33l-95 127l-130 -127h-33zM740 714h25l-65 -464c-10 -72 -45 -133 -106 -184s-130 -76 -206 -76s-137 25 -184 76s-65 112 -55 184l65 464h42l-65 -464c-9 -65 7 -120 48 -165c41 -46 94 -69 161 -69s127 23 180 69c53 45 85 100 94 165z "></glyph><glyph glyph-name="Udieresis" unicode="Ü" d="M448 839c-8 0 -14 3 -19 8s-7 12 -6 19c1 5 4 10 7 15c3 4 6 7 11 10c5 2 9 3 14 3c8 0 14 -3 19 -8c4 -5 6 -12 5 -19c-1 -8 -5 -15 -11 -20s-13 -8 -20 -8zM581 839c-8 0 -14 3 -19 8s-6 12 -5 19c1 5 3 10 6 15c3 4 6 7 11 10c5 2 10 3 15 3c7 0 13 -3 18 -8 s7 -12 6 -19c-1 -8 -5 -15 -11 -20c-7 -5 -14 -8 -21 -8zM740 714h25l-65 -464c-10 -72 -45 -133 -106 -184s-130 -76 -206 -76s-137 25 -184 76s-65 112 -55 184l65 464h42l-65 -464c-9 -65 7 -120 48 -165c41 -46 94 -69 161 -69s127 23 180 69c53 45 85 100 94 165z"></glyph><glyph glyph-name="Ugrave" unicode="Ù" d="M497 784l-115 156h54l93 -156h-32zM740 714h25l-65 -464c-10 -72 -45 -133 -106 -184s-130 -76 -206 -76s-137 25 -184 76s-65 112 -55 184l65 464h42l-65 -464c-9 -65 7 -120 48 -165c41 -46 94 -69 161 -69s127 23 180 69c53 45 85 100 94 165z"></glyph><glyph glyph-name="Yacute" unicode="Ý" d="M424 784l138 156h54l-159 -156h-33zM697 714h31l-323 -408l-43 -306h-42l43 306l-199 408h49l183 -381z"></glyph><glyph glyph-name="Ydieresis" unicode="Ÿ" d="M318 0h-47l53 277l-146 397h50l91 -256c24 -68 30 -88 34 -106h2c12 18 39 58 78 111l188 251h53l-304 -399zM351 724c-21 0 -37 21 -37 41c0 19 17 41 39 41s38 -22 38 -41c0 -20 -16 -41 -40 -41zM531 724c-21 0 -37 21 -37 41c0 19 17 41 39 41s38 -22 38 -41 c0 -20 -16 -41 -40 -41z"></glyph><glyph glyph-name="Zcaron" unicode="Ž" d="M-26 0l6 33l548 598l-1 3h-394l8 40h458l-7 -34l-546 -597l2 -3h437l-8 -40h-503zM394 710h-36l-86 115h52l55 -78h4l84 78h53z"></glyph><glyph glyph-name="aacute" unicode="á" d="M530 761l-159 -156h-32l137 156h54zM517 535h41l-76 -535h-41l22 151c-22 -43 -52 -80 -90 -112c-39 -33 -81 -49 -126 -49c-58 0 -105 27 -140 80s-48 118 -37 197c11 80 43 146 96 199c52 53 110 79 173 79s118 -34 165 -103zM468 189l31 224c-44 71 -97 107 -158 107 c-54 0 -103 -24 -147 -73c-45 -49 -72 -109 -82 -180c-9 -69 0 -128 28 -177c28 -50 67 -75 118 -75c41 0 80 17 116 50c35 33 67 75 94 124z"></glyph><glyph glyph-name="acircumflex" unicode="â" d="M389 733l-131 -127h-33l138 154h59l94 -154h-32zM517 535h41l-76 -535h-41l22 151c-22 -43 -52 -80 -90 -112c-39 -33 -81 -49 -126 -49c-58 0 -105 27 -140 80s-48 118 -37 197c11 80 43 146 96 199c52 53 110 79 173 79s118 -34 165 -103zM468 189l31 224 c-44 71 -97 107 -158 107c-54 0 -103 -24 -147 -73c-45 -49 -72 -109 -82 -180c-9 -69 0 -128 28 -177c28 -50 67 -75 118 -75c41 0 80 17 116 50c35 33 67 75 94 124z"></glyph><glyph glyph-name="adieresis" unicode="ä" d="M312 660c-8 0 -14 3 -19 8s-6 12 -5 20c1 7 4 14 11 19c6 5 13 8 21 8c7 0 13 -3 18 -8s7 -12 6 -19c-1 -8 -5 -15 -11 -20c-7 -5 -14 -8 -21 -8zM445 660c-7 0 -13 3 -18 8s-6 12 -5 20c1 7 4 14 10 19s13 8 21 8c7 0 13 -3 18 -8s7 -12 6 -19c-1 -8 -5 -15 -11 -20 s-13 -8 -21 -8zM517 535h41l-76 -535h-41l22 151c-22 -43 -52 -80 -90 -112c-39 -33 -81 -49 -126 -49c-58 0 -105 27 -140 80s-48 118 -37 197c11 80 43 146 96 199c52 53 110 79 173 79s118 -34 165 -103zM468 189l31 224c-44 71 -97 107 -158 107 c-54 0 -103 -24 -147 -73c-45 -49 -72 -109 -82 -180c-9 -69 0 -128 28 -177c28 -50 67 -75 118 -75c41 0 80 17 116 50c35 33 67 75 94 124z"></glyph><glyph glyph-name="agrave" unicode="à" d="M389 605h-32l-115 156h54zM517 535h41l-76 -535h-41l22 151c-22 -43 -52 -80 -90 -112c-39 -33 -81 -49 -126 -49c-58 0 -105 27 -140 80s-48 118 -37 197c11 80 43 146 96 199c52 53 110 79 173 79s118 -34 165 -103zM468 189l31 224c-44 71 -97 107 -158 107 c-54 0 -103 -24 -147 -73c-45 -49 -72 -109 -82 -180c-9 -69 0 -128 28 -177c28 -50 67 -75 118 -75c41 0 80 17 116 50c35 33 67 75 94 124z"></glyph><glyph glyph-name="aring" unicode="å" d="M369 598c-27 0 -48 10 -63 30c-16 19 -22 43 -18 70c3 18 9 35 20 50c10 15 23 27 39 36s33 13 50 13c26 0 47 -10 63 -29s22 -43 19 -70c-4 -27 -17 -51 -38 -70c-22 -20 -46 -30 -72 -30zM314 698c-3 -23 1 -41 12 -56s27 -23 46 -23s37 8 53 23c15 15 25 33 28 56 s-1 42 -12 57c-12 15 -28 22 -47 22c-13 0 -25 -3 -36 -10s-21 -16 -29 -28s-13 -26 -15 -41zM517 535h41l-76 -535h-41l22 151c-22 -43 -52 -80 -90 -112c-39 -33 -81 -49 -126 -49c-58 0 -105 27 -140 80s-48 118 -37 197c11 80 43 146 96 199c52 53 110 79 173 79 s118 -34 165 -103zM468 189l31 224c-44 71 -97 107 -158 107c-54 0 -103 -24 -147 -73c-45 -49 -72 -109 -82 -180c-9 -69 0 -128 28 -177c28 -50 67 -75 118 -75c41 0 80 17 116 50c35 33 67 75 94 124z"></glyph><glyph glyph-name="atilde" unicode="ã" d="M309 692c-15 0 -30 -5 -44 -15c-15 -11 -27 -22 -36 -34l3 19c9 15 21 28 36 40c15 11 32 17 51 17c18 0 41 -8 69 -25s49 -25 63 -25c29 0 56 16 82 49l-3 -19c-9 -15 -22 -28 -37 -39s-32 -17 -51 -17c-18 0 -41 8 -69 25c-29 16 -50 24 -64 24zM517 535h41l-76 -535 h-41l22 151c-22 -43 -52 -80 -90 -112c-39 -33 -81 -49 -126 -49c-58 0 -105 27 -140 80s-48 118 -37 197c11 80 43 146 96 199c52 53 110 79 173 79s118 -34 165 -103zM468 189l31 224c-44 71 -97 107 -158 107c-54 0 -103 -24 -147 -73c-45 -49 -72 -109 -82 -180 c-9 -69 0 -128 28 -177c28 -50 67 -75 118 -75c41 0 80 17 116 50c35 33 67 75 94 124z"></glyph><glyph glyph-name="ccedilla" unicode="ç" d="M369 520c-66 0 -123 -25 -170 -75c-48 -51 -77 -110 -86 -178c-6 -43 -3 -84 9 -121c11 -38 33 -69 64 -94s68 -37 112 -37c39 0 75 9 110 27c34 18 63 42 88 72l16 -11c-14 -20 -32 -38 -53 -55s-47 -30 -76 -41c-30 -11 -60 -17 -91 -17h-8l-35 -58 c23 -4 42 -14 58 -29c16 -16 22 -37 19 -64c-4 -29 -17 -49 -40 -62s-47 -19 -74 -19c-17 0 -32 2 -46 7c-15 5 -25 9 -30 13l9 14c15 -11 36 -16 64 -16c23 0 43 5 60 16c17 10 27 24 30 43c2 13 0 24 -6 34c-6 9 -16 17 -30 24s-32 12 -54 15l50 84c-64 9 -114 39 -149 91 c-36 51 -49 113 -38 186c11 79 45 145 104 198c58 52 123 78 194 78c44 0 82 -11 114 -32c31 -21 54 -48 69 -81l-19 -11c-37 66 -92 99 -165 99z"></glyph><glyph glyph-name="eacute" unicode="é" d="M546 761l-159 -156h-33l137 156h55zM347 259c-32 -9 -75 -15 -129 -18c-55 -3 -88 -3 -99 1c-2 -41 3 -78 16 -111s34 -61 65 -83c30 -22 67 -33 110 -33c65 0 123 29 174 88l16 -12c-28 -38 -58 -64 -91 -79s-72 -22 -116 -22c-38 0 -72 9 -103 26s-55 38 -72 65 c-18 27 -30 57 -37 90s-8 67 -2 100c4 25 12 51 23 77c11 25 25 50 43 74c18 23 39 44 62 63c23 18 49 33 79 44s61 16 94 16c47 0 84 -13 112 -39s39 -57 33 -93c-5 -27 -15 -51 -30 -71s-35 -36 -59 -49s-54 -24 -89 -34zM372 519c-60 0 -115 -25 -164 -74 c-49 -50 -78 -110 -87 -181c19 -2 43 -3 70 -2c31 1 60 4 89 9c28 5 57 12 88 23c31 10 56 25 77 46c21 20 33 44 38 72c5 31 -4 57 -27 77s-51 30 -84 30z"></glyph><glyph glyph-name="ecircumflex" unicode="ê" d="M398 733l-131 -127h-32l137 154h60l94 -154h-33zM347 259c-32 -9 -75 -15 -129 -18c-55 -3 -88 -3 -99 1c-2 -41 3 -78 16 -111s34 -61 65 -83c30 -22 67 -33 110 -33c65 0 123 29 174 88l16 -12c-28 -38 -58 -64 -91 -79s-72 -22 -116 -22c-38 0 -72 9 -103 26 s-55 38 -72 65c-18 27 -30 57 -37 90s-8 67 -2 100c4 25 12 51 23 77c11 25 25 50 43 74c18 23 39 44 62 63c23 18 49 33 79 44s61 16 94 16c47 0 84 -13 112 -39s39 -57 33 -93c-5 -27 -15 -51 -30 -71s-35 -36 -59 -49s-54 -24 -89 -34zM372 519c-60 0 -115 -25 -164 -74 c-49 -50 -78 -110 -87 -181c19 -2 43 -3 70 -2c31 1 60 4 89 9c28 5 57 12 88 23c31 10 56 25 77 46c21 20 33 44 38 72c5 31 -4 57 -27 77s-51 30 -84 30z"></glyph><glyph glyph-name="edieresis" unicode="ë" d="M321 660c-7 0 -13 3 -18 8s-6 12 -5 20c1 7 4 14 11 19c6 5 13 8 20 8c8 0 14 -3 19 -8c4 -5 6 -12 5 -19c-1 -8 -5 -15 -11 -20s-13 -8 -21 -8zM455 660c-8 0 -14 3 -19 8s-6 12 -5 20c1 7 4 14 11 19c6 5 13 8 20 8c8 0 14 -3 19 -8s6 -12 5 -19c-1 -8 -5 -15 -11 -20 s-13 -8 -20 -8zM347 259c-32 -9 -75 -15 -129 -18c-55 -3 -88 -3 -99 1c-2 -41 3 -78 16 -111s34 -61 65 -83c30 -22 67 -33 110 -33c65 0 123 29 174 88l16 -12c-28 -38 -58 -64 -91 -79s-72 -22 -116 -22c-38 0 -72 9 -103 26s-55 38 -72 65c-18 27 -30 57 -37 90 s-8 67 -2 100c4 25 12 51 23 77c11 25 25 50 43 74c18 23 39 44 62 63c23 18 49 33 79 44s61 16 94 16c47 0 84 -13 112 -39s39 -57 33 -93c-5 -27 -15 -51 -30 -71s-35 -36 -59 -49s-54 -24 -89 -34zM372 519c-60 0 -115 -25 -164 -74c-49 -50 -78 -110 -87 -181 c19 -2 43 -3 70 -2c31 1 60 4 89 9c28 5 57 12 88 23c31 10 56 25 77 46c21 20 33 44 38 72c5 31 -4 57 -27 77s-51 30 -84 30z"></glyph><glyph glyph-name="egrave" unicode="è" d="M395 605h-33l-115 156h54zM347 259c-32 -9 -75 -15 -129 -18c-55 -3 -88 -3 -99 1c-2 -41 3 -78 16 -111s34 -61 65 -83c30 -22 67 -33 110 -33c65 0 123 29 174 88l16 -12c-28 -38 -58 -64 -91 -79s-72 -22 -116 -22c-38 0 -72 9 -103 26s-55 38 -72 65 c-18 27 -30 57 -37 90s-8 67 -2 100c4 25 12 51 23 77c11 25 25 50 43 74c18 23 39 44 62 63c23 18 49 33 79 44s61 16 94 16c47 0 84 -13 112 -39s39 -57 33 -93c-5 -27 -15 -51 -30 -71s-35 -36 -59 -49s-54 -24 -89 -34zM372 519c-60 0 -115 -25 -164 -74 c-49 -50 -78 -110 -87 -181c19 -2 43 -3 70 -2c31 1 60 4 89 9c28 5 57 12 88 23c31 10 56 25 77 46c21 20 33 44 38 72c5 31 -4 57 -27 77s-51 30 -84 30z"></glyph><glyph glyph-name="iacute" unicode="í" d="M154 605l137 156h55l-159 -156h-33zM80 0l76 535h41l-76 -535h-41z"></glyph><glyph glyph-name="icircumflex" unicode="î" d="M2 606l137 154h60l94 -154h-33l-95 127l-131 -127h-32zM41 0l76 535h41l-76 -535h-41z"></glyph><glyph glyph-name="idieresis" unicode="ï" d="M127 660c-7 0 -13 3 -18 8s-6 12 -5 20c1 7 4 14 11 19c6 5 13 8 20 8c8 0 14 -3 19 -8c4 -5 6 -12 5 -19c-1 -8 -5 -15 -11 -20s-13 -8 -21 -8zM261 660c-8 0 -14 3 -19 8s-6 12 -5 20c1 7 4 14 11 19c6 5 13 8 21 8c7 0 13 -3 18 -8s6 -12 5 -19c-1 -8 -5 -15 -11 -20 s-13 -8 -20 -8zM80 0l76 535h41l-76 -535h-41z"></glyph><glyph glyph-name="igrave" unicode="ì" d="M149 605l-115 156h54l94 -156h-33zM57 0l76 535h41l-76 -535h-41z"></glyph><glyph glyph-name="ntilde" unicode="ñ" d="M310 692c-15 0 -30 -5 -44 -15c-15 -11 -27 -22 -36 -34l3 19c9 15 21 28 36 40c15 11 33 17 52 17c18 0 41 -8 69 -25s49 -25 63 -25c28 0 55 16 81 49l-3 -19c-9 -15 -21 -28 -36 -39s-33 -17 -52 -17c-17 0 -40 8 -68 25c-29 16 -50 24 -65 24zM421 545 c19 0 36 -3 53 -8s32 -14 46 -25c13 -11 23 -27 30 -47c6 -20 7 -43 3 -69l-56 -396h-41l56 395c6 41 0 73 -19 94s-47 32 -83 32c-88 0 -168 -62 -241 -185l-48 -336h-41l76 535h41l-25 -172c33 59 70 104 113 135c42 31 87 47 136 47z"></glyph><glyph glyph-name="oacute" unicode="ó" d="M343 604l137 156h54l-159 -156h-32zM290 -10c-73 0 -130 27 -172 81c-43 53 -58 119 -47 197s45 144 102 197s122 80 195 80c72 0 129 -27 171 -80s58 -119 47 -197s-45 -144 -102 -197c-57 -54 -122 -81 -194 -81zM293 15c59 0 114 25 163 75c49 49 78 109 88 178 s-3 129 -38 178s-83 74 -142 74s-114 -25 -163 -74s-79 -109 -89 -178c-9 -69 4 -129 39 -178c35 -50 83 -75 142 -75z"></glyph><glyph glyph-name="ocircumflex" unicode="ô" d="M230 605l138 154h60l94 -154h-33l-95 127l-131 -127h-33zM290 -10c-73 0 -130 27 -172 81c-43 53 -58 119 -47 197s45 144 102 197s122 80 195 80c72 0 129 -27 171 -80s58 -119 47 -197s-45 -144 -102 -197c-57 -54 -122 -81 -194 -81zM293 15c59 0 114 25 163 75 c49 49 78 109 88 178s-3 129 -38 178s-83 74 -142 74s-114 -25 -163 -74s-79 -109 -89 -178c-9 -69 4 -129 39 -178c35 -50 83 -75 142 -75z"></glyph><glyph glyph-name="odieresis" unicode="ö" d="M317 659c-8 0 -14 3 -19 8s-6 12 -5 20c1 5 3 9 6 14c3 4 6 7 11 10c5 2 10 3 15 3s9 -1 13 -3c4 -3 7 -6 9 -10c1 -5 2 -9 1 -14c-1 -8 -4 -15 -10 -20c-7 -5 -14 -8 -21 -8zM450 659c-7 0 -13 3 -18 8s-7 12 -6 20c1 5 3 9 6 14c3 4 7 7 12 10c5 2 10 3 15 3 s9 -1 13 -3c3 -3 6 -6 8 -10c2 -5 3 -9 2 -14c-1 -8 -5 -15 -11 -20s-13 -8 -21 -8zM290 -10c-73 0 -130 27 -172 81c-43 53 -58 119 -47 197s45 144 102 197s122 80 195 80c72 0 129 -27 171 -80s58 -119 47 -197s-45 -144 -102 -197c-57 -54 -122 -81 -194 -81zM293 15 c59 0 114 25 163 75c49 49 78 109 88 178s-3 129 -38 178s-83 74 -142 74s-114 -25 -163 -74s-79 -109 -89 -178c-9 -69 4 -129 39 -178c35 -50 83 -75 142 -75z"></glyph><glyph glyph-name="ograve" unicode="ò" d="M355 604l-115 156h54l93 -156h-32zM290 -10c-73 0 -130 27 -172 81c-43 53 -58 119 -47 197s45 144 102 197s122 80 195 80c72 0 129 -27 171 -80s58 -119 47 -197s-45 -144 -102 -197c-57 -54 -122 -81 -194 -81zM293 15c59 0 114 25 163 75c49 49 78 109 88 178 s-3 129 -38 178s-83 74 -142 74s-114 -25 -163 -74s-79 -109 -89 -178c-9 -69 4 -129 39 -178c35 -50 83 -75 142 -75z"></glyph><glyph glyph-name="otilde" unicode="õ" d="M234 642l3 19c9 15 21 28 36 40c15 11 32 17 51 17c18 0 41 -8 70 -24c28 -17 49 -25 62 -25c29 0 56 16 82 48l-3 -19c-9 -14 -21 -27 -36 -38c-15 -12 -33 -18 -52 -18c-18 0 -41 8 -69 25c-29 16 -50 24 -64 24c-15 0 -30 -5 -44 -15c-15 -10 -27 -21 -36 -34z M290 -10c-73 0 -130 27 -172 81c-43 53 -58 119 -47 197s45 144 102 197s122 80 195 80c72 0 129 -27 171 -80s58 -119 47 -197s-45 -144 -102 -197c-57 -54 -122 -81 -194 -81zM293 15c59 0 114 25 163 75c49 49 78 109 88 178s-3 129 -38 178s-83 74 -142 74 s-114 -25 -163 -74s-79 -109 -89 -178c-9 -69 4 -129 39 -178c35 -50 83 -75 142 -75z"></glyph><glyph glyph-name="scaron" unicode="š" d="M54 19l17 38c22 -15 60 -29 95 -29c68 0 117 47 117 101c0 44 -15 71 -78 105c-65 35 -82 79 -82 120c0 73 67 138 157 138c39 0 77 -13 92 -25l-17 -40c-14 10 -45 25 -81 25c-59 0 -105 -41 -105 -92c0 -45 25 -69 78 -98c63 -34 83 -79 83 -122 c0 -93 -79 -152 -167 -152c-50 0 -89 16 -109 31zM298 542h-38l-70 140h45l48 -103h3l84 103h48z"></glyph><glyph glyph-name="uacute" unicode="ú" d="M555 761l-159 -156h-32l137 156h54zM547 535h41l-76 -535h-41l25 172c-33 -59 -70 -104 -112 -135c-43 -31 -88 -47 -137 -47c-19 0 -36 3 -53 8s-32 14 -45 25c-14 11 -24 27 -30 47s-7 43 -4 69l56 396h41l-56 -395c-6 -41 1 -73 20 -94s46 -32 82 -32 c88 0 168 62 241 185z"></glyph><glyph glyph-name="ucircumflex" unicode="û" d="M404 733l-131 -127h-33l138 154h60l94 -154h-33zM547 535h41l-76 -535h-41l25 172c-33 -59 -70 -104 -112 -135c-43 -31 -88 -47 -137 -47c-19 0 -36 3 -53 8s-32 14 -45 25c-14 11 -24 27 -30 47s-7 43 -4 69l56 396h41l-56 -395c-6 -41 1 -73 20 -94s46 -32 82 -32 c88 0 168 62 241 185z"></glyph><glyph glyph-name="udieresis" unicode="ü" d="M327 660c-8 0 -14 3 -19 8s-6 12 -5 20c1 7 5 14 11 19s13 8 21 8c7 0 13 -3 18 -8s7 -12 6 -19c-1 -8 -5 -15 -11 -20c-7 -5 -14 -8 -21 -8zM460 660c-7 0 -13 3 -18 8s-6 12 -5 20c1 7 4 14 11 19c6 5 13 8 20 8c8 0 14 -3 19 -8c4 -5 6 -12 5 -19 c-1 -8 -5 -15 -11 -20s-13 -8 -21 -8zM547 535h41l-76 -535h-41l25 172c-33 -59 -70 -104 -112 -135c-43 -31 -88 -47 -137 -47c-19 0 -36 3 -53 8s-32 14 -45 25c-14 11 -24 27 -30 47s-7 43 -4 69l56 396h41l-56 -395c-6 -41 1 -73 20 -94s46 -32 82 -32 c88 0 168 62 241 185z"></glyph><glyph glyph-name="ugrave" unicode="ù" d="M410 605h-32l-115 156h54zM547 535h41l-76 -535h-41l25 172c-33 -59 -70 -104 -112 -135c-43 -31 -88 -47 -137 -47c-19 0 -36 3 -53 8s-32 14 -45 25c-14 11 -24 27 -30 47s-7 43 -4 69l56 396h41l-56 -395c-6 -41 1 -73 20 -94s46 -32 82 -32c88 0 168 62 241 185z"></glyph><glyph glyph-name="yacute" unicode="ý" d="M334 605l137 156h54l-159 -156h-32zM146 -241l122 226l-148 550h45l131 -498l267 498h28l-417 -776h-28z"></glyph><glyph glyph-name="ydieresis" unicode="ÿ" d="M326 660c-8 0 -14 3 -19 8s-6 12 -5 20c1 7 4 14 11 19c6 5 13 8 21 8c7 0 13 -3 18 -8s7 -12 6 -19c-1 -8 -5 -15 -11 -20c-7 -5 -14 -8 -21 -8zM459 660c-5 0 -9 1 -13 4c-4 2 -7 5 -9 10c-2 4 -3 9 -2 14s3 9 6 14c3 4 7 7 12 10c4 2 9 3 14 3c8 0 14 -3 19 -8 c4 -5 6 -12 5 -19c-1 -8 -5 -15 -11 -20s-13 -8 -21 -8zM146 -241l122 226l-148 550h45l131 -498l267 498h28l-417 -776h-28z"></glyph><glyph glyph-name="zcaron" unicode="ž" d="M-28 0l6 30l303 315c44 46 71 68 98 93v4h-302l8 38h358l-8 -34l-298 -310c-48 -50 -73 -72 -98 -94v-4h323l-8 -38h-382zM295 542h-38l-70 140h45l48 -103h3l84 103h48z"></glyph><glyph glyph-name="Dcroat" unicode="Đ" d="M461 714c62 0 116 -16 163 -49c46 -33 79 -76 100 -131s27 -113 18 -176c-9 -64 -31 -123 -68 -178s-83 -99 -138 -131c-55 -33 -111 -49 -170 -49h-246l48 342h-78l4 25h78l48 347h241zM700 357c8 60 4 115 -12 166c-16 50 -44 90 -83 120s-86 45 -140 45h-206l-46 -321 h210l-4 -25h-209l-45 -316h203c57 0 109 16 158 47c48 31 87 71 117 121c29 50 48 104 57 163z"></glyph><glyph glyph-name="Eng" unicode="Ŋ" d="M512 -214c-18 0 -35 3 -50 10s-27 15 -36 24s-16 18 -21 28l17 13c10 -16 22 -29 35 -38s30 -14 53 -14c33 0 59 11 80 33c20 21 33 52 38 91l10 67l-405 654l-92 -654h-25l100 714h32l398 -654l92 654h25l-111 -790c-5 -41 -21 -74 -46 -99c-25 -26 -57 -39 -94 -39z "></glyph><glyph glyph-name="Hbar" unicode="Ħ" d="M629 485h-394l-22 -115h394zM122 522h74l29 152h47l-29 -152h394l29 152h47l-29 -152h66l-7 -37h-66l-93 -485h-47l62 330h-394l-62 -330h-47l93 485h-74z"></glyph><glyph glyph-name="Tbar" unicode="Ŧ" d="M493 340h-153l-65 -340h-47l65 340h-145l8 39h144l49 255h-237l8 40h521l-8 -40h-237l-49 -255h154z"></glyph><glyph glyph-name="Yogh" unicode="Ȝ" d="M-5 -111l-7 39c228 35 408 134 408 291c0 59 -49 120 -164 120c-29 0 -65 -8 -102 -18l-7 34c141 30 263 99 263 199c0 57 -51 92 -119 92c-60 0 -123 -32 -147 -45l-13 33c27 17 99 52 171 52c91 0 160 -53 160 -128c0 -94 -88 -157 -156 -181l-1 -3 c75 -10 164 -50 164 -157c0 -122 -124 -280 -450 -328z"></glyph><glyph glyph-name="dcroat" unicode="đ" d="M692 651l-4 -24h-118l-88 -627h-41l22 151c-22 -43 -52 -80 -90 -112c-39 -33 -81 -49 -126 -49c-58 0 -105 27 -140 80s-48 118 -37 197c11 80 43 146 96 199c52 53 110 79 173 79s118 -34 165 -103l25 185h-187l4 24h187l15 109h41l-15 -109h118zM468 189l31 224 c-44 71 -97 107 -158 107c-54 0 -103 -24 -147 -73c-45 -49 -72 -109 -82 -180c-9 -69 0 -128 28 -177c28 -50 67 -75 118 -75c41 0 80 17 116 50c35 33 67 75 94 124z"></glyph><glyph glyph-name="eng" unicode="ŋ" d="M421 545c19 0 36 -3 53 -8s32 -14 46 -25c13 -11 23 -27 30 -47c6 -20 7 -43 3 -69l-56 -396l-10 -76c-4 -27 -12 -51 -24 -72c-13 -21 -29 -37 -50 -49s-44 -18 -71 -18c-51 0 -86 21 -105 62l17 14c19 -33 47 -50 83 -50c62 0 99 41 110 122l10 69l55 393 c6 41 0 73 -19 94s-47 32 -83 32c-88 0 -168 -62 -241 -185l-48 -336h-41l76 535h41l-25 -172c33 59 70 104 113 135c42 31 87 47 136 47z"></glyph><glyph glyph-name="hbar" unicode="ħ" d="M119 599h92l22 117h47l-23 -117h221l-7 -37h-221l-38 -190h2c44 71 115 120 205 120c37 0 132 -17 132 -140c0 -28 -3 -60 -7 -80l-52 -272h-47l52 272c3 15 7 41 7 72c0 58 -30 107 -105 107c-77 0 -188 -81 -211 -205l-45 -246h-47l108 562h-92z"></glyph><glyph glyph-name="kra" unicode="ĸ" d="M143 0h-47l92 480h47l-45 -233h2c16 17 37 35 51 47l216 186h58l-227 -197l164 -283h-51l-149 257l-74 -59z"></glyph><glyph glyph-name="napostrophe" unicode="ŉ" d="M143 0h-47l69 364c8 39 14 77 19 116h44l-16 -110h2c42 72 119 122 203 122c40 0 135 -16 135 -149c0 -19 -4 -49 -9 -77l-51 -266h-47l52 273c3 18 7 43 7 63c0 65 -26 115 -107 115c-71 0 -186 -76 -211 -215zM141 550l-8 27c27 9 58 31 58 75c0 21 -12 43 -26 54 l41 12c15 -9 30 -35 30 -60c0 -68 -52 -101 -95 -108z"></glyph><glyph glyph-name="tbar" unicode="ŧ" d="M107 300h67l28 142h-78l8 38h78l17 91l50 15l-20 -106h133l-8 -38h-133l-27 -142h101l-7 -37h-101l-16 -88c-6 -33 -11 -57 -11 -92c0 -36 19 -56 54 -56c17 0 32 2 43 6l5 -37c-12 -5 -33 -8 -56 -8c-74 0 -94 52 -94 96c0 33 5 66 11 95l16 84h-67z"></glyph><glyph glyph-name="yogh" unicode="ȝ" d="M-114 -211l-6 37c55 6 377 42 377 242c0 64 -63 112 -156 110c-21 0 -48 -5 -90 -17l-7 34c137 37 246 88 246 175c0 45 -43 82 -116 82c-60 0 -117 -28 -141 -41l-10 31c27 17 90 50 167 50c81 0 145 -51 145 -118c0 -82 -71 -133 -140 -156l-1 -3 c73 -10 149 -61 149 -147c0 -143 -149 -257 -417 -279z"></glyph><glyph glyph-name="IJ" unicode="Ĳ" d="M225 674h47l-129 -674h-47zM522 216l87 458h47l-87 -459c-29 -155 -92 -227 -218 -227c-46 0 -92 12 -106 21l13 40c26 -13 58 -19 102 -19c80 0 135 43 162 186z"></glyph><glyph glyph-name="ij" unicode="ĳ" d="M143 0h-47l92 480h47zM236 581c-23 0 -36 21 -36 42c0 22 15 42 38 42s37 -19 38 -42c-1 -21 -14 -42 -40 -42zM406 480h47l-93 -484c-15 -78 -32 -132 -62 -164c-29 -31 -67 -44 -102 -44c-22 0 -36 1 -50 6l7 38c8 -3 24 -5 45 -5c53 0 90 37 111 146zM449 581 c-23 0 -36 21 -36 42c0 22 15 42 38 42s37 -19 38 -42c-1 -21 -14 -42 -40 -42z"></glyph><glyph glyph-name="zero.slash" unicode="" d="M124 124l318 439c-16 34 -45 60 -95 60c-122 0 -233 -196 -233 -415c0 -27 3 -56 10 -84zM456 520l-317 -438c18 -32 47 -55 94 -55c141 0 229 251 229 423c0 19 -1 45 -6 70zM557 652l-65 -83c13 -32 18 -70 18 -107c0 -247 -117 -474 -282 -474c-54 0 -92 20 -118 54 l-50 -67l-30 27l59 75c-16 37 -23 84 -23 137c0 248 135 448 286 448c57 0 95 -23 120 -57l52 72z"></glyph><glyph glyph-name="euro" unicode="€" d="M479 698c-49 0 -96 -11 -141 -33s-83 -52 -116 -91s-58 -83 -75 -132h354l-3 -23h-358c-5 -19 -10 -39 -13 -60c-3 -20 -4 -40 -4 -60h358l-3 -23h-354c5 -76 31 -138 77 -187s107 -73 183 -73c49 0 98 12 146 35s92 56 133 99l17 -10c-37 -47 -82 -83 -136 -109 c-54 -27 -110 -40 -168 -40c-85 0 -153 27 -206 81s-83 122 -89 204h-73l4 23h69c-1 21 1 41 4 62c3 19 7 39 12 58h-69l4 23h72c29 83 80 150 151 203s146 79 225 79c56 0 107 -14 153 -41c45 -27 77 -64 96 -109l-20 -10c-25 44 -58 77 -97 100s-84 34 -133 34z"></glyph><glyph glyph-name="Aringacute" unicode="Ǻ" d="M360 692c-49 0 -78 30 -78 68c0 42 38 76 88 76c42 0 75 -27 75 -67c0 -49 -41 -77 -85 -77zM361 721c30 0 49 19 49 45c0 22 -15 42 -44 42c-28 0 -48 -22 -48 -46s17 -41 43 -41zM449 927h75l-122 -73h-48zM408 238h-286l-134 -238h-48l386 674h46l126 -674h-46z M147 278h253l-43 237c-5 28 -13 74 -17 108h-2c-18 -35 -33 -66 -55 -105z"></glyph><glyph glyph-name="estimated" unicode="℮" d="M817 316h-605c-3 0 -5 -1 -5 -4v-183c0 -8 4 -15 9 -21c57 -61 139 -99 229 -99c96 0 182 43 240 111h55c-68 -79 -176 -131 -296 -131c-206 0 -374 150 -374 336s168 336 374 336s373 -150 373 -336v-9zM681 340v184c0 9 -4 16 -10 22c-58 58 -138 95 -226 95 c-90 0 -170 -38 -228 -98c-6 -6 -10 -14 -10 -23v-180c0 -3 2 -5 5 -5h464c3 0 5 2 5 5z"></glyph><glyph glyph-name="zero.oldstyle" unicode="" d="M275 -12c-98 0 -187 78 -187 209c0 147 107 295 264 295c92 0 188 -79 188 -210c0 -150 -106 -294 -265 -294zM285 27c126 0 207 128 207 252c0 105 -61 174 -148 174c-130 0 -208 -131 -208 -254c0 -104 60 -172 149 -172z"></glyph><glyph glyph-name="one.oldstyle" unicode="" d="M348 480l-91 -480h-46l83 433h-2l-154 -75l-8 38l173 84h45z"></glyph><glyph glyph-name="two.oldstyle" unicode="" d="M401 40l-7 -40h-406l5 27l122 78c168 107 228 169 228 247c0 71 -49 105 -109 105c-61 0 -115 -36 -140 -53l-17 28c35 28 93 64 166 64c82 0 148 -51 148 -144c0 -88 -70 -158 -239 -267l-70 -45v-2c19 1 49 2 66 2h253z"></glyph><glyph glyph-name="three.oldstyle" unicode="" d="M-30 -85l13 36c30 -14 75 -23 112 -23c128 0 214 64 214 149c0 77 -69 113 -145 113c-31 0 -52 -1 -71 -3l6 39c6 1 12 1 17 1c94 6 205 53 205 147c0 51 -44 79 -105 79c-53 0 -97 -19 -123 -34l-16 30c29 19 87 43 151 43c66 0 141 -35 141 -121 c0 -78 -66 -131 -145 -152l-1 -3c79 -12 134 -58 134 -133c0 -133 -144 -194 -253 -194c-54 0 -109 11 -134 26z"></glyph><glyph glyph-name="four.oldstyle" unicode="" d="M347 61l-33 -172h-43l32 172h-299l7 32l381 399h36l-73 -391h102l-8 -40h-102zM310 101l48 252c5 24 11 54 17 73l-3 1c-17 -24 -41 -53 -57 -70l-242 -253l1 -3h236z"></glyph><glyph glyph-name="five.oldstyle" unicode="" d="M-4 -88l12 38c29 -12 71 -21 111 -21c116 0 207 66 207 164c0 31 -12 59 -33 80c-51 50 -152 50 -224 40l84 267h266l-15 -40h-221l-60 -184c71 8 157 -5 209 -57c27 -26 42 -62 42 -103c0 -124 -116 -207 -256 -207c-51 0 -102 13 -122 23z"></glyph><glyph glyph-name="six.oldstyle" unicode="" d="M300 27c92 0 180 79 180 189c0 82 -57 133 -131 133c-90 0 -149 -49 -176 -100c-12 -21 -15 -39 -15 -61c0 -90 53 -161 142 -161zM544 598l3 -38c-138 -11 -226 -58 -282 -114c-49 -48 -76 -94 -90 -142h2c34 43 96 84 184 84c86 0 167 -62 167 -166 c0 -132 -105 -234 -235 -234c-93 0 -183 62 -183 212c0 65 29 180 114 264c72 70 171 125 320 134z"></glyph><glyph glyph-name="seven.oldstyle" unicode="" d="M464 480l-6 -35c-70 -142 -256 -401 -390 -556l-48 15c103 107 323 401 386 534v2h-321l6 40h373z"></glyph><glyph glyph-name="eight.oldstyle" unicode="" d="M358 600c95 0 167 -59 167 -140c0 -68 -51 -109 -136 -148v-2c82 -39 119 -90 119 -149c0 -110 -113 -173 -220 -173c-119 0 -200 62 -200 158c0 86 83 138 169 172v2c-60 27 -94 70 -94 122c0 93 91 158 195 158zM348 563c-72 0 -140 -40 -140 -110 c0 -62 52 -97 134 -124c73 25 136 62 136 130c0 49 -37 104 -130 104zM286 26c97 0 174 56 174 130c0 68 -56 108 -157 145c-77 -24 -167 -73 -167 -156c0 -72 64 -119 150 -119z"></glyph><glyph glyph-name="nine.oldstyle" unicode="" d="M297 131c67 0 134 38 176 95c10 13 19 36 19 64c0 109 -65 163 -148 163c-88 0 -174 -74 -174 -185c0 -89 56 -137 127 -137zM116 -111l-4 39c33 2 63 5 91 11c183 36 248 154 277 244l-3 1c-32 -44 -106 -92 -188 -92c-99 0 -167 68 -167 168c0 135 114 232 239 232 c99 0 179 -75 179 -210c0 -147 -89 -344 -350 -386c-23 -4 -48 -7 -74 -7z"></glyph><glyph glyph-name="percent.oldstyle" unicode="" d="M260 600c80 0 108 -69 108 -126c0 -158 -72 -274 -172 -274c-72 0 -112 56 -112 143c0 124 70 257 176 257zM252 566c-69 0 -126 -108 -126 -229c0 -49 14 -103 77 -103c69 0 123 112 123 231c0 41 -12 101 -74 101zM209 -12h-45l464 612h45zM649 395 c80 0 108 -69 108 -126c0 -158 -72 -274 -172 -274c-72 0 -112 56 -112 143c0 124 70 257 176 257zM641 361c-69 0 -126 -108 -126 -229c0 -49 14 -103 77 -103c69 0 123 112 123 231c0 41 -12 101 -74 101z"></glyph><glyph glyph-name="zero.fitted" unicode="" d="M263 -12c-116 0 -161 93 -161 226c0 248 135 448 286 448c120 0 158 -101 158 -200c0 -247 -117 -474 -283 -474zM270 27c140 0 228 251 228 423c0 58 -9 173 -115 173c-122 0 -233 -196 -233 -415c0 -76 19 -181 120 -181z"></glyph><glyph glyph-name="one.fitted" unicode="" d="M248 0l115 597h-2l-96 -52l-14 37l122 68h45l-124 -650h-46z"></glyph><glyph glyph-name="two.fitted" unicode="" d="M342 0h-390l7 35l73 60c239 196 338 291 338 413c0 41 -19 113 -115 113c-63 0 -115 -32 -147 -58l-18 35c49 41 119 64 171 64c129 0 159 -93 159 -151c0 -135 -129 -260 -336 -423l-58 -46v-2h324z"></glyph><glyph glyph-name="three.fitted" unicode="" d="M-18 34l21 36c26 -17 64 -41 127 -41c142 0 192 103 192 173c0 95 -77 130 -153 130h-44l8 40h47c58 0 180 45 180 150c0 59 -33 99 -106 99c-50 0 -97 -18 -131 -45l-19 36c42 28 96 50 153 50c122 0 153 -80 153 -135c0 -87 -75 -152 -149 -173v-2 c81 -20 112 -89 112 -151c0 -109 -95 -213 -247 -213c-72 0 -126 26 -144 46z"></glyph><glyph glyph-name="four.fitted" unicode="" d="M339 0h-45l36 191h-306l7 32l396 427h36l-80 -419h103l-8 -40h-103zM92 231h246l53 279c5 24 10 50 16 73l-3 1c-22 -29 -35 -54 -55 -75l-257 -276v-2z"></glyph><glyph glyph-name="five.fitted" unicode="" d="M459 650l-8 -42h-239l-64 -203c14 2 27 3 41 3c21 0 64 -5 100 -20c69 -29 94 -96 94 -147c0 -163 -130 -253 -256 -253c-61 0 -117 24 -137 39l20 37c25 -16 72 -35 131 -35c106 0 194 93 194 196c0 67 -27 142 -164 142c-25 0 -47 -2 -78 -4l89 287h277z"></glyph><glyph glyph-name="six.fitted" unicode="" d="M512 662l-7 -45c-22 0 -51 -1 -83 -9c-123 -32 -230 -144 -279 -292h2c42 65 125 113 194 113c118 0 166 -85 166 -179c0 -128 -107 -262 -243 -262c-120 0 -180 86 -180 210c0 162 97 302 177 365c57 46 116 76 178 90c29 7 56 9 75 9zM269 28c97 0 188 102 188 222 c0 90 -46 138 -129 138c-66 0 -138 -45 -183 -117c-6 -9 -11 -20 -12 -32c-2 -12 -4 -31 -4 -51c0 -95 46 -160 140 -160z"></glyph><glyph glyph-name="seven.fitted" unicode="" d="M105 650h380l-7 -39c-136 -203 -272 -407 -409 -611h-51c136 203 272 405 407 607l-1 3h-327z"></glyph><glyph glyph-name="eight.fitted" unicode="" d="M351 662c92 0 161 -56 161 -148c0 -75 -54 -135 -139 -172v-4c84 -40 107 -103 107 -157c0 -127 -115 -193 -221 -193c-125 0 -199 72 -199 164c0 102 77 168 165 198v4c-58 37 -76 81 -76 128c0 100 89 180 202 180zM257 26c99 0 175 59 175 150c0 74 -40 122 -151 153 c-84 -17 -173 -68 -173 -174c0 -61 46 -129 149 -129zM340 624c-83 0 -146 -66 -146 -137c0 -57 31 -102 121 -127c81 19 149 73 149 149c0 44 -21 115 -124 115z"></glyph><glyph glyph-name="nine.fitted" unicode="" d="M138 -12l8 44c21 -1 48 0 72 5c50 9 106 35 159 85c47 43 95 109 130 204h-4c-52 -65 -122 -96 -183 -96c-120 0 -160 100 -160 169c0 133 109 263 240 263c122 0 168 -96 168 -202c0 -180 -115 -333 -183 -386c-51 -40 -108 -67 -165 -79c-25 -5 -57 -8 -82 -7zM394 622 c-97 0 -186 -95 -186 -220c0 -64 34 -131 122 -131c69 0 131 40 172 102c6 9 11 18 13 28c3 17 6 43 6 66c0 90 -36 155 -127 155z"></glyph><glyph glyph-name="zero.slashfitted" unicode="" d="M124 124l318 439c-16 34 -45 60 -95 60c-122 0 -233 -196 -233 -415c0 -27 3 -56 10 -84zM456 520l-317 -438c18 -32 47 -55 94 -55c141 0 229 251 229 423c0 19 -1 45 -6 70zM557 652l-65 -83c13 -32 18 -70 18 -107c0 -247 -117 -474 -282 -474c-54 0 -92 20 -118 54 l-50 -67l-30 27l59 75c-16 37 -23 84 -23 137c0 248 135 448 286 448c57 0 95 -23 120 -57l52 72z"></glyph><glyph glyph-name="zero.taboldstyle" unicode="" d="M275 -12c-98 0 -187 78 -187 209c0 147 107 295 264 295c92 0 188 -79 188 -210c0 -150 -106 -294 -265 -294zM285 27c126 0 207 128 207 252c0 105 -61 174 -148 174c-130 0 -208 -131 -208 -254c0 -104 60 -172 149 -172z"></glyph><glyph glyph-name="one.taboldstyle" unicode="" d="M509 480l-91 -480h-46l84 437h-2l-209 -80l-5 38l224 85h45z"></glyph><glyph glyph-name="two.taboldstyle" unicode="" d="M481 40l-7 -40h-406l5 27l122 78c168 107 228 169 228 247c0 71 -49 105 -109 105c-61 0 -115 -36 -140 -53l-17 28c35 28 93 64 166 64c82 0 148 -51 148 -144c0 -88 -70 -158 -239 -267l-70 -45v-2c19 1 49 2 66 2h253z"></glyph><glyph glyph-name="three.taboldstyle" unicode="" d="M82 -85l13 36c30 -14 75 -23 112 -23c128 0 214 64 214 149c0 77 -69 113 -145 113c-31 0 -52 -1 -71 -3l6 39c6 1 12 1 17 1c94 6 205 53 205 147c0 51 -44 79 -105 79c-53 0 -97 -19 -123 -34l-16 30c29 19 87 43 151 43c66 0 141 -35 141 -121 c0 -78 -66 -131 -145 -152l-1 -3c79 -12 134 -58 134 -133c0 -133 -144 -194 -253 -194c-54 0 -109 11 -134 26z"></glyph><glyph glyph-name="four.taboldstyle" unicode="" d="M379 61l-33 -172h-43l32 172h-299l7 32l381 399h36l-73 -391h102l-8 -40h-102zM342 101l48 252c5 24 11 54 17 73l-3 1c-17 -24 -41 -53 -57 -70l-242 -253l1 -3h236z"></glyph><glyph glyph-name="five.taboldstyle" unicode="" d="M96 -88l12 38c29 -12 71 -21 111 -21c116 0 207 66 207 164c0 31 -12 59 -33 80c-51 50 -152 50 -224 40l84 267h266l-15 -40h-221l-60 -184c71 8 157 -5 209 -57c27 -26 42 -62 42 -103c0 -124 -116 -207 -256 -207c-51 0 -102 13 -122 23z"></glyph><glyph glyph-name="six.taboldstyle" unicode="" d="M318 27c92 0 180 79 180 189c0 82 -57 133 -131 133c-90 0 -149 -49 -176 -100c-12 -21 -15 -39 -15 -61c0 -90 53 -161 142 -161zM562 598l3 -38c-138 -11 -226 -58 -282 -114c-49 -48 -76 -94 -90 -142h2c34 43 96 84 184 84c86 0 167 -62 167 -166 c0 -132 -105 -234 -235 -234c-93 0 -183 62 -183 212c0 65 29 180 114 264c72 70 171 125 320 134z"></glyph><glyph glyph-name="seven.taboldstyle" unicode="" d="M516 480l-6 -35c-70 -142 -256 -401 -390 -556l-48 15c103 107 323 401 386 534v2h-321l6 40h373z"></glyph><glyph glyph-name="eight.taboldstyle" unicode="" d="M366 600c95 0 167 -59 167 -140c0 -68 -51 -109 -136 -148v-2c82 -39 119 -90 119 -149c0 -110 -113 -173 -220 -173c-119 0 -200 62 -200 158c0 86 83 138 169 172v2c-60 27 -94 70 -94 122c0 93 91 158 195 158zM356 563c-72 0 -140 -40 -140 -110 c0 -62 52 -97 134 -124c73 25 136 62 136 130c0 49 -37 104 -130 104zM294 26c97 0 174 56 174 130c0 68 -56 108 -157 145c-77 -24 -167 -73 -167 -156c0 -72 64 -119 150 -119z"></glyph><glyph glyph-name="nine.taboldstyle" unicode="" d="M297 131c67 0 134 38 176 95c10 13 19 36 19 64c0 109 -65 163 -148 163c-88 0 -174 -74 -174 -185c0 -89 56 -137 127 -137zM116 -111l-4 39c33 2 63 5 91 11c183 36 248 154 277 244l-3 1c-32 -44 -106 -92 -188 -92c-99 0 -167 68 -167 168c0 135 114 232 239 232 c99 0 179 -75 179 -210c0 -147 -89 -344 -350 -386c-23 -4 -48 -7 -74 -7z"></glyph><glyph glyph-name="dollar.taboldstyle" unicode="" d="M308 -81h-36l15 81c-50 1 -102 21 -131 42l24 34c18 -15 64 -37 122 -37c78 0 143 38 143 96c0 31 -14 64 -108 99c-87 32 -112 66 -112 112c0 77 80 128 161 131l16 84h37l-16 -84c43 -5 85 -23 107 -41l-22 -34c-29 22 -68 37 -112 37c-76 0 -123 -40 -123 -87 c0 -38 19 -55 103 -86c76 -28 117 -70 117 -122c0 -88 -85 -139 -170 -144z"></glyph><glyph glyph-name="cent.taboldstyle" unicode="" d="M449 116l11 -36c-21 -11 -67 -30 -120 -33l-14 -71h-34l14 71c-92 7 -158 69 -158 158c0 124 104 226 232 240l12 65h35l-12 -65c46 -2 88 -23 107 -38l-21 -34c-22 16 -58 33 -101 33c-119 0 -204 -96 -204 -192c0 -79 50 -127 140 -127c46 0 84 15 113 29z"></glyph><glyph glyph-name="euro.taboldstyle" unicode="" d="M473 65l11 -37c-31 -21 -92 -40 -165 -40c-114 0 -206 74 -212 198h-55l7 37h50c2 18 6 36 10 55h-50l7 37h55c50 124 161 197 288 197c64 0 106 -17 134 -32l-18 -37c-27 16 -67 30 -115 30c-107 0 -198 -61 -243 -158h295l-7 -37h-300c-5 -18 -8 -36 -9 -55h299l-7 -37 h-293c10 -105 80 -158 180 -158c52 0 114 21 138 37z"></glyph><glyph glyph-name="fhook.taboldstyle" unicode="" d="M533 585l-16 -37c-17 7 -29 11 -51 11c-86 0 -128 -71 -154 -179l-12 -51h137l-5 -39h-142l-43 -178c-33 -140 -87 -223 -189 -223c-27 0 -53 7 -68 16l16 37c19 -10 38 -13 58 -13c52 0 104 45 132 161l48 200h-99l4 39h105l12 52c27 115 87 219 207 219 c24 0 46 -8 60 -15z"></glyph><glyph glyph-name="sterling.taboldstyle" unicode="" d="M498 486l-17 -37c-13 9 -47 22 -88 22c-86 0 -147 -67 -142 -199v-11h165l-6 -38h-156c4 -75 -16 -138 -82 -183v-2h308l-6 -38h-396l5 31c86 36 133 89 124 192h-92l6 38h83v3c-5 148 69 248 199 248c47 0 80 -16 95 -26z"></glyph><glyph glyph-name="yen.taboldstyle" unicode="" d="M310 0h-45l23 120h-156l7 37h156l12 66h-156l7 37h138l-109 240h51l73 -173c10 -24 18 -45 24 -63h3c14 19 35 45 53 66l144 170h56l-210 -240h134l-7 -37h-156l-13 -66h156l-7 -37h-156z"></glyph><glyph glyph-name="numbersign.taboldstyle" unicode="" d="M266 221h96l51 163h-96zM196 0h-41l58 183h-91l7 38h96l51 163h-95l7 38h100l57 178h40l-56 -178h96l57 178h40l-56 -178h91l-7 -38h-96l-51 -163h96l-7 -38h-101l-58 -183h-41l58 183h-96z"></glyph><glyph glyph-name="zerosuperior" unicode="⁰" d="M344 770c49 0 85 -21 107 -62c21 -42 28 -95 19 -158c-9 -64 -30 -117 -63 -158s-75 -62 -125 -62s-86 21 -107 62c-22 41 -28 94 -19 158c9 63 30 116 63 158c33 41 75 62 125 62zM285 354c27 0 50 9 71 27s37 41 49 70c11 29 20 62 25 99c8 58 5 105 -9 142 c-15 36 -42 54 -81 54s-71 -18 -95 -54c-25 -36 -41 -83 -49 -142c-9 -59 -6 -106 8 -142s41 -54 81 -54z"></glyph><glyph glyph-name="one.superior" d="M314 407h-40l67 350h-2l-63 -30l-6 31l81 39h37z"></glyph><glyph glyph-name="two.superior" d="M350 407h-248l5 29l83 67c109 88 167 137 167 203c0 24 -11 61 -68 61c-36 0 -71 -21 -88 -34l-15 28c32 24 73 41 112 41c76 0 102 -53 102 -96c0 -78 -85 -148 -192 -230l-42 -32v-2h191z"></glyph><glyph glyph-name="three.superior" d="M214 739l-11 30c22 17 63 33 99 33c79 0 100 -47 100 -83c0 -47 -38 -83 -90 -100v-2c46 -12 68 -53 68 -89c0 -71 -57 -125 -155 -125c-42 0 -81 14 -95 26l15 31c15 -10 45 -24 84 -24c75 0 111 47 111 88c0 56 -55 76 -98 76h-27l6 32h29c47 0 110 33 110 81 c0 29 -14 55 -67 55c-28 0 -60 -14 -79 -29z"></glyph><glyph glyph-name="foursuperior" unicode="⁴" d="M381 480h68l-3 -23h-68l-17 -122h-38l17 122h-210l3 23l250 285h39zM343 480l34 244l-213 -244h179z"></glyph><glyph glyph-name="fivesuperior" unicode="⁵" d="M293 330c-31 0 -57 6 -78 19c-21 12 -36 27 -43 46l16 10c9 -16 23 -28 40 -37s36 -14 57 -14c9 0 19 1 29 3c9 2 19 6 30 11s20 11 29 19s16 19 23 32s11 28 13 45c3 21 2 40 -3 55s-14 27 -25 35c-12 7 -24 13 -36 16c-13 3 -26 5 -40 5c-32 0 -57 -6 -75 -19l-14 11 l27 197h217l-4 -29h-193l-22 -152c23 10 48 15 76 15c51 0 87 -13 108 -39s29 -58 24 -96c-3 -23 -11 -45 -23 -64c-12 -20 -30 -36 -53 -49s-50 -20 -80 -20z"></glyph><glyph glyph-name="sixsuperior" unicode="⁶" d="M361 596c33 0 59 -11 80 -32c21 -22 28 -53 23 -92c-4 -27 -14 -52 -30 -74s-36 -39 -59 -50c-24 -12 -49 -18 -75 -18c-19 0 -36 3 -51 10c-15 6 -29 16 -41 30c-13 13 -21 33 -26 59c-5 25 -5 55 0 90c7 49 21 93 43 132c21 39 47 68 76 89c29 20 59 30 90 30 c18 0 35 -4 51 -11s28 -17 36 -30l-16 -12c-17 21 -40 32 -69 32c-40 0 -76 -20 -107 -60c-31 -41 -52 -94 -63 -159c17 19 38 35 63 48c25 12 50 18 75 18zM424 471c5 32 0 57 -13 75c-14 18 -35 27 -62 27c-25 0 -50 -7 -73 -20c-24 -14 -43 -29 -57 -46 c-3 -34 -2 -62 3 -85s15 -40 28 -51s31 -17 52 -17c30 0 57 10 80 31s37 49 42 86z"></glyph><glyph glyph-name="sevensuperior" unicode="⁷" d="M238 336c13 37 31 76 55 119c23 43 53 88 88 137s73 96 116 143h-250l4 29h287l-3 -23c-53 -56 -104 -122 -154 -198s-84 -145 -103 -207h-40z"></glyph><glyph glyph-name="eightsuperior" unicode="⁸" d="M462 677c-7 -47 -43 -83 -109 -106c37 -19 64 -37 79 -54s21 -40 17 -67c-5 -37 -22 -66 -53 -87c-31 -22 -68 -33 -109 -33c-15 0 -30 2 -45 6c-15 3 -30 9 -44 17s-24 20 -31 36c-7 15 -10 34 -7 55c8 55 46 95 115 120c-25 14 -43 29 -53 46c-11 17 -15 36 -12 59 c5 32 20 57 46 75c25 17 58 26 97 26c38 0 67 -8 87 -24c19 -17 27 -40 22 -69zM428 677c3 21 -2 39 -15 52c-14 13 -35 20 -64 20s-52 -6 -70 -19c-19 -13 -30 -32 -33 -55c-1 -10 -1 -19 2 -27c2 -9 5 -16 9 -21c3 -5 10 -11 20 -17c10 -7 18 -11 24 -14 c5 -3 15 -8 29 -15c15 7 24 12 28 15c4 2 12 7 23 14s19 13 24 18c4 5 9 12 14 21s8 18 9 28zM414 443c2 16 -1 30 -9 43c-8 12 -23 24 -46 36c-5 3 -15 8 -30 15s-25 12 -32 15c-61 -25 -95 -61 -102 -108c-4 -27 3 -49 20 -66s42 -26 76 -26s62 9 84 26s35 38 39 65z"></glyph><glyph glyph-name="ninesuperior" unicode="⁹" d="M368 770c19 0 36 -3 51 -9c15 -7 29 -17 42 -30c12 -14 21 -34 26 -59c5 -26 4 -56 -1 -91c-10 -74 -35 -134 -76 -181s-86 -70 -133 -70c-18 0 -35 4 -51 11s-28 17 -36 30l16 12c17 -21 40 -32 69 -32c40 0 76 20 107 61c31 40 52 93 63 158c-17 -19 -37 -35 -62 -47 c-25 -13 -51 -19 -76 -19c-33 0 -59 11 -80 33c-21 21 -28 52 -23 91c6 41 25 75 56 102s67 40 108 40zM319 527c25 0 50 7 74 21c23 13 42 28 56 45c3 26 3 49 1 68c-3 19 -7 35 -14 48s-17 22 -28 28c-12 6 -26 9 -42 9c-30 0 -57 -10 -80 -31s-37 -49 -42 -86 c-5 -32 0 -57 14 -75c13 -18 34 -27 61 -27z"></glyph><glyph glyph-name="period.superior" unicode="" d="M187 400c-17 0 -29 15 -29 32c0 20 13 35 33 35c18 0 30 -13 30 -33c0 -19 -13 -34 -34 -34z"></glyph><glyph glyph-name="comma.superior" unicode="" d="M107 336l-33 -4c17 31 46 96 59 137l51 6c-21 -49 -60 -116 -77 -139z"></glyph><glyph glyph-name="dollar.superior" unicode="" d="M257 356h-32l12 61c-27 0 -63 13 -81 27l14 32c21 -15 48 -26 83 -26c46 0 89 28 89 75c0 24 -13 49 -56 68c-60 26 -83 56 -83 93c0 54 49 100 109 104l13 62h32l-13 -62c31 -1 57 -12 67 -20l-14 -31c-12 6 -31 19 -71 19c-50 0 -80 -31 -80 -67c0 -26 13 -42 64 -66 c52 -24 75 -54 75 -93c0 -64 -49 -106 -116 -115z"></glyph><glyph glyph-name="cent.superior" unicode="" d="M328 395h-32l13 64c-38 5 -62 19 -79 42c-17 22 -24 49 -24 76c0 97 77 168 162 176l11 64h32l-12 -63c23 0 54 -10 65 -18l-16 -32c-16 9 -36 18 -71 18c-58 0 -128 -53 -128 -142c0 -50 31 -89 90 -89c33 0 58 10 74 17l6 -32c-12 -7 -47 -17 -79 -17z"></glyph><glyph glyph-name="hyphenminus.superior" unicode="" d="M194 605h142l-7 -33h-141z"></glyph><glyph glyph-name="parenleftsuperior" unicode="⁽" d="M358 831h37c-58 -63 -133 -171 -133 -325c0 -45 11 -98 40 -161h-32c-28 50 -44 98 -44 166c0 155 80 265 132 320z"></glyph><glyph glyph-name="parenrightsuperior" unicode="⁾" d="M127 345h-37c58 65 134 172 134 326c0 45 -12 98 -41 160h32c28 -49 45 -97 45 -165c0 -155 -81 -264 -133 -321z"></glyph><glyph glyph-name="zeroinferior" unicode="₀" d="M236 383c49 0 85 -21 107 -62c21 -42 27 -95 18 -158c-9 -64 -30 -117 -63 -158s-75 -62 -124 -62c-50 0 -86 21 -107 62c-22 41 -29 94 -20 158c9 63 31 116 64 158c33 41 75 62 125 62zM177 -33c20 0 38 5 55 15s31 24 43 43c11 18 21 39 29 62s14 48 17 76 c9 58 6 105 -8 142c-15 36 -42 54 -81 54c-40 0 -72 -18 -96 -54c-25 -36 -41 -83 -49 -142s-5 -106 9 -142s41 -54 81 -54z"></glyph><glyph glyph-name="oneinferior" unicode="₁" d="M225 377h38l-57 -405h94l-3 -23h-229l4 23h96l52 374l-110 -91l-13 17z"></glyph><glyph glyph-name="twoinferior" unicode="₂" d="M32 -51l4 23l183 182c0 1 3 3 8 8l11 11c2 2 6 6 11 12s10 11 13 16c3 4 6 9 11 16s8 13 11 19s5 13 8 20s4 14 5 21c4 25 -1 45 -15 60s-36 22 -66 22c-43 0 -78 -14 -103 -43l-14 11c12 16 30 29 53 40s49 16 78 16c39 0 68 -10 86 -30s25 -45 20 -76 c-5 -35 -28 -73 -69 -114l-190 -185h236l-4 -29h-277z"></glyph><glyph glyph-name="threeinferior" unicode="₃" d="M74 17c9 -14 22 -26 40 -35c17 -10 39 -15 64 -15c35 0 62 10 83 29s33 43 37 72c3 15 2 28 -1 39s-9 20 -17 27s-16 12 -25 17s-20 8 -32 10c-12 1 -22 2 -31 3s-18 1 -28 1l3 22c27 0 50 3 69 9s34 14 44 25c9 10 16 20 21 30c5 9 8 19 10 30c3 25 -1 44 -14 58 c-13 13 -33 20 -62 20c-44 0 -79 -14 -104 -43l-13 11c11 15 28 29 51 40s49 16 78 16c21 0 39 -3 55 -8c15 -6 28 -16 38 -31s13 -33 10 -56c-5 -33 -19 -58 -42 -77s-49 -30 -77 -33c33 -3 60 -13 81 -31c21 -19 30 -45 25 -80c-5 -33 -20 -62 -46 -87s-62 -37 -108 -37 c-33 0 -60 6 -81 19c-21 12 -36 27 -44 45z"></glyph><glyph glyph-name="fourinferior" unicode="₄" d="M272 93h68l-4 -23h-67l-17 -122h-39l17 122h-210l4 23l250 285h38zM234 93l34 244l-214 -244h180z"></glyph><glyph glyph-name="fiveinferior" unicode="₅" d="M184 -57c-31 0 -56 6 -77 19c-21 12 -36 27 -43 46l16 10c9 -16 23 -28 40 -37s35 -14 56 -14c13 0 25 2 38 5c12 3 24 9 37 17c12 7 23 19 32 34s15 33 18 54s1 40 -4 55s-14 27 -25 35c-11 7 -23 13 -35 16c-13 3 -26 5 -40 5c-33 0 -58 -6 -76 -19l-14 11l28 197h217 l-4 -29h-194l-21 -152c22 10 47 15 76 15c51 0 87 -13 108 -39s29 -58 24 -96c-5 -37 -21 -68 -48 -94s-64 -39 -109 -39z"></glyph><glyph glyph-name="sixinferior" unicode="₆" d="M252 209c33 0 60 -11 81 -32c21 -22 28 -53 23 -92c-6 -41 -25 -75 -56 -102c-32 -27 -68 -40 -109 -40c-18 0 -35 3 -50 10c-15 6 -29 16 -42 30c-13 13 -21 33 -26 59c-5 25 -5 55 0 90c11 74 36 134 77 181s85 70 132 70c19 0 36 -4 52 -11s28 -17 36 -30l-16 -12 c-17 21 -41 32 -70 32c-39 0 -75 -20 -106 -60c-32 -41 -53 -94 -64 -159c11 13 24 24 39 34c14 9 30 17 48 23c17 6 34 9 51 9zM316 84c5 32 0 57 -13 75c-14 18 -35 27 -62 27c-25 0 -50 -7 -73 -20c-24 -14 -43 -29 -57 -46c-6 -51 -2 -90 13 -115c14 -25 37 -38 69 -38 c19 0 38 4 55 13s32 22 45 40c12 18 20 39 23 64z"></glyph><glyph glyph-name="seveninferior" unicode="₇" d="M130 -51c19 57 52 120 97 190s99 140 162 209h-251l4 29h288l-3 -23c-53 -56 -105 -122 -154 -198c-50 -76 -85 -145 -104 -207h-39z"></glyph><glyph glyph-name="eightinferior" unicode="₈" d="M353 290c-7 -47 -43 -83 -109 -106c37 -19 64 -37 79 -54s21 -40 17 -67c-3 -25 -13 -46 -29 -64c-16 -19 -35 -33 -58 -42s-48 -14 -75 -14c-16 0 -31 2 -46 6c-15 3 -29 9 -43 17s-25 20 -32 36c-7 15 -9 34 -6 55c8 55 46 95 115 120c-25 14 -43 29 -54 46 s-14 36 -11 59c5 32 20 57 46 75c25 17 58 26 97 26c38 0 67 -8 86 -24c19 -17 27 -40 23 -69zM319 290c2 14 0 26 -5 37s-14 19 -27 26c-13 6 -28 9 -47 9c-29 0 -52 -6 -71 -19s-30 -32 -33 -55c-1 -8 -1 -15 0 -22s3 -14 8 -20s9 -11 13 -15c3 -4 10 -8 19 -13 s15 -9 20 -11c5 -3 13 -7 25 -13c1 1 3 2 6 3c14 7 25 13 32 18c7 4 16 10 27 18c10 8 18 17 23 26s9 19 10 31zM304 56c3 16 0 30 -8 43c-8 12 -23 24 -46 36c-5 3 -15 8 -30 15s-26 12 -33 15c-61 -25 -94 -61 -101 -108c-4 -27 2 -49 19 -66s42 -26 76 -26 c23 0 43 4 62 12c18 8 32 19 43 33c10 13 16 29 18 46z"></glyph><glyph glyph-name="nineinferior" unicode="₉" d="M220 383c19 0 36 -3 51 -9c15 -7 28 -17 41 -30c13 -14 22 -34 27 -59c5 -26 4 -56 -1 -91c-10 -74 -35 -134 -76 -181s-86 -70 -133 -70c-19 0 -36 4 -52 11s-28 17 -35 30l15 12c18 -21 41 -32 70 -32c40 0 76 20 107 61c31 40 52 93 63 158c-17 -19 -37 -35 -62 -47 c-25 -13 -51 -19 -76 -19c-33 0 -59 11 -80 33c-21 21 -28 52 -23 91c6 41 25 75 56 102s67 40 108 40zM171 140c25 0 49 7 73 21c23 13 42 28 56 45c6 51 2 90 -12 115c-15 25 -38 38 -70 38c-30 0 -57 -10 -80 -31s-38 -49 -43 -86c-4 -32 1 -57 14 -75s34 -27 62 -27z "></glyph><glyph glyph-name="period.inferior" unicode="" d="M-25 -150c-17 0 -29 15 -29 32c0 20 13 35 33 35c18 0 30 -13 30 -33c0 -19 -13 -34 -34 -34z"></glyph><glyph glyph-name="comma.inferior" unicode="" d="M-105 -214l-33 -4c17 31 46 96 59 137l51 6c-21 -49 -60 -116 -77 -139z"></glyph><glyph glyph-name="dollar.inferior" unicode="" d="M45 -194h-32l12 61c-27 0 -63 13 -81 27l14 32c21 -15 48 -26 83 -26c46 0 89 28 89 75c0 24 -13 49 -56 68c-60 26 -83 56 -83 93c0 54 49 100 109 104l13 62h32l-13 -62c31 -1 57 -12 67 -20l-14 -31c-12 6 -31 19 -71 19c-50 0 -80 -31 -80 -67c0 -26 13 -42 64 -66 c52 -24 75 -54 75 -93c0 -64 -49 -106 -116 -115z"></glyph><glyph glyph-name="cent.inferior" unicode="" d="M116 -155h-32l13 64c-38 5 -62 19 -79 42c-17 22 -24 49 -24 76c0 97 77 168 162 176l11 64h32l-12 -63c23 0 54 -10 65 -18l-16 -32c-16 9 -36 18 -71 18c-58 0 -128 -53 -128 -142c0 -50 31 -89 90 -89c33 0 58 10 74 17l6 -32c-12 -7 -47 -17 -79 -17z"></glyph><glyph glyph-name="hyphenminus.inferior" unicode="" d="M-18 55h142l-7 -33h-141z"></glyph><glyph glyph-name="parenleftinferior" unicode="₍" d="M146 281h37c-58 -63 -133 -171 -133 -325c0 -45 11 -98 40 -161h-32c-28 50 -44 98 -44 166c0 155 80 265 132 320z"></glyph><glyph glyph-name="parenrightinferior" unicode="₎" d="M-85 -205h-37c58 65 134 172 134 326c0 45 -12 98 -41 160h32c28 -49 45 -97 45 -165c0 -155 -81 -264 -133 -321z"></glyph><glyph glyph-name="zero.numerator" unicode="" d="M239 260c-73 0 -103 56 -103 139c0 146 80 265 178 265c76 0 102 -60 102 -124c0 -147 -72 -280 -177 -280zM246 292c80 0 129 145 129 240c0 33 -6 100 -66 100c-71 0 -132 -116 -132 -236c0 -42 11 -104 69 -104z"></glyph><glyph glyph-name="one.numerator" unicode="" d="M258 267h-40l67 350h-2l-63 -30l-6 31l81 39h37z"></glyph><glyph glyph-name="two.numerator" unicode="" d="M294 267h-248l5 29l83 67c109 88 167 137 167 203c0 24 -11 61 -68 61c-36 0 -71 -21 -88 -34l-15 28c32 24 73 41 112 41c76 0 102 -53 102 -96c0 -78 -85 -148 -192 -230l-42 -32v-2h191z"></glyph><glyph glyph-name="three.numerator" unicode="" d="M158 599l-11 30c22 17 63 33 99 33c79 0 100 -47 100 -83c0 -47 -38 -83 -90 -100v-2c46 -12 68 -53 68 -89c0 -71 -57 -125 -155 -125c-42 0 -81 14 -95 26l15 31c15 -10 45 -24 84 -24c75 0 111 47 111 88c0 56 -55 76 -98 76h-27l6 32h29c47 0 110 33 110 81 c0 29 -14 55 -67 55c-28 0 -60 -14 -79 -29z"></glyph><glyph glyph-name="four.numerator" unicode="" d="M294 267h-39l21 110h-186l6 28l232 252h41l-47 -246h60l-7 -34h-60zM283 411l29 153c3 16 7 33 11 48l-2 1c-14 -18 -23 -36 -36 -50l-141 -151v-1h139z"></glyph><glyph glyph-name="five.numerator" unicode="" d="M369 657l-7 -35h-148l-34 -109c9 1 15 2 24 2c15 0 43 -3 66 -13c41 -18 57 -58 57 -90c0 -100 -81 -152 -162 -152c-41 0 -78 15 -91 25l14 31c16 -10 47 -22 84 -22c59 0 113 49 113 107c0 37 -16 80 -102 80c-17 0 -31 -2 -50 -3l55 179h181z"></glyph><glyph glyph-name="six.numerator" unicode="" d="M407 664l-6 -36c-13 0 -31 -1 -50 -6c-80 -19 -137 -78 -164 -157l1 -1c25 36 72 62 113 62c70 0 104 -50 104 -110c0 -79 -67 -156 -152 -156c-77 0 -117 53 -117 130c0 96 56 177 106 216c32 25 67 42 108 51c18 4 37 6 57 7zM258 293c55 0 105 55 105 121 c0 51 -28 79 -75 79c-38 0 -77 -25 -102 -64c-4 -6 -7 -14 -8 -21c-1 -5 -1 -16 -1 -25c0 -53 27 -90 81 -90z"></glyph><glyph glyph-name="seven.numerator" unicode="" d="M154 657h243l-5 -31c-61 -91 -168 -246 -245 -359h-45c81 119 174 255 243 354v2h-197z"></glyph><glyph glyph-name="eight.numerator" unicode="" d="M304 664c57 0 103 -32 103 -91c0 -44 -31 -79 -81 -100v-2c49 -23 63 -60 63 -92c0 -80 -74 -119 -141 -119c-79 0 -126 43 -126 99c0 59 44 99 97 117v2c-34 21 -45 48 -45 76c0 64 58 110 130 110zM249 291c54 0 98 32 98 83c0 42 -24 69 -86 85 c-48 -9 -97 -37 -97 -95c0 -34 27 -73 85 -73zM295 633c-46 0 -82 -37 -82 -76c0 -32 19 -57 70 -70c44 9 83 38 83 81c0 25 -13 65 -71 65z"></glyph><glyph glyph-name="nine.numerator" unicode="" d="M136 260l6 36c13 -1 28 0 44 2c31 5 64 19 96 46c28 25 56 61 76 112l-2 1c-30 -37 -72 -54 -107 -54c-72 0 -101 57 -101 104c0 82 68 157 150 157c78 0 111 -58 111 -127c0 -105 -67 -193 -110 -226c-34 -26 -73 -42 -112 -48c-18 -3 -37 -4 -51 -3zM293 631 c-53 0 -104 -51 -104 -120c0 -36 21 -74 71 -74c39 0 73 22 96 55c4 5 7 11 8 16c2 9 4 24 4 36c0 50 -23 87 -75 87z"></glyph><glyph glyph-name="period.numerator" unicode="" d="M131 260c-17 0 -29 15 -29 32c0 20 13 35 33 35c18 0 30 -13 30 -33c0 -19 -13 -34 -34 -34z"></glyph><glyph glyph-name="comma.numerator" unicode="" d="M51 196l-33 -4c17 31 46 96 59 137l51 6c-21 -49 -60 -116 -77 -139z"></glyph><glyph glyph-name="dollar.numerator" unicode="" d="M201 216h-32l12 61c-27 0 -63 13 -81 27l14 32c21 -15 48 -26 83 -26c46 0 89 28 89 75c0 24 -13 49 -56 68c-60 26 -83 56 -83 93c0 54 49 100 109 104l13 62h32l-13 -62c31 -1 57 -12 67 -20l-14 -31c-12 6 -31 19 -71 19c-50 0 -80 -31 -80 -67c0 -26 13 -42 64 -66 c52 -24 75 -54 75 -93c0 -64 -49 -106 -116 -115z"></glyph><glyph glyph-name="cent.numerator" unicode="" d="M272 255h-32l13 64c-38 5 -62 19 -79 42c-17 22 -24 49 -24 76c0 97 77 168 162 176l11 64h32l-12 -63c23 0 54 -10 65 -18l-16 -32c-16 9 -36 18 -71 18c-58 0 -128 -53 -128 -142c0 -50 31 -89 90 -89c33 0 58 10 74 17l6 -32c-12 -7 -47 -17 -79 -17z"></glyph><glyph glyph-name="hyphenminus.numerator" unicode="" d="M138 465h142l-7 -33h-141z"></glyph><glyph glyph-name="parenleft.numerator" unicode="" d="M302 692h37c-58 -63 -133 -171 -133 -325c0 -45 11 -98 40 -161h-32c-28 50 -44 98 -44 166c0 155 80 265 132 320z"></glyph><glyph glyph-name="parenright.numerator" unicode="" d="M71 206h-37c58 65 134 172 134 326c0 45 -12 98 -41 160h32c28 -49 45 -97 45 -165c0 -155 -81 -264 -133 -321z"></glyph><glyph glyph-name="zero.denominator" unicode="" d="M133 -7c-73 0 -103 56 -103 139c0 146 80 265 178 265c76 0 102 -60 102 -124c0 -147 -72 -280 -177 -280zM140 25c80 0 129 145 129 240c0 33 -6 100 -66 100c-71 0 -132 -116 -132 -236c0 -42 11 -104 69 -104z"></glyph><glyph glyph-name="one.denominator" unicode="" d="M152 0h-40l67 350h-2l-63 -30l-6 31l81 39h37z"></glyph><glyph glyph-name="two.denominator" unicode="" d="M188 0h-248l5 29l83 67c109 88 167 137 167 203c0 24 -11 61 -68 61c-36 0 -71 -21 -88 -34l-15 28c32 24 73 41 112 41c76 0 102 -53 102 -96c0 -78 -85 -148 -192 -230l-42 -32v-2h191z"></glyph><glyph glyph-name="three.denominator" unicode="" d="M52 332l-11 30c22 17 63 33 99 33c79 0 100 -47 100 -83c0 -47 -38 -83 -90 -100v-2c46 -12 68 -53 68 -89c0 -72 -57 -126 -155 -126c-42 0 -81 14 -95 26l15 31c15 -10 45 -24 84 -24c75 0 111 47 111 89c0 56 -55 76 -98 76h-27l6 32h29c47 0 110 33 110 81 c0 29 -14 55 -67 55c-28 0 -60 -14 -79 -29z"></glyph><glyph glyph-name="four.denominator" unicode="" d="M188 0h-39l21 110h-186l6 28l232 252h41l-47 -246h60l-7 -34h-60zM177 144l29 153c3 16 7 33 11 48l-2 1c-14 -18 -23 -36 -36 -50l-141 -151v-1h139z"></glyph><glyph glyph-name="five.denominator" unicode="" d="M263 390l-7 -35h-148l-34 -109c9 1 15 2 24 2c15 0 43 -3 66 -13c41 -18 57 -58 57 -90c0 -100 -81 -152 -162 -152c-41 0 -78 15 -91 25l14 31c16 -10 47 -22 84 -22c59 0 113 49 113 107c0 37 -16 80 -102 80c-17 0 -31 -2 -50 -3l55 179h181z"></glyph><glyph glyph-name="six.denominator" unicode="" d="M301 397l-6 -36c-13 0 -31 -1 -50 -6c-80 -19 -137 -78 -164 -157l1 -1c25 36 72 62 113 62c70 0 104 -50 104 -110c0 -79 -67 -156 -152 -156c-77 0 -117 53 -117 130c0 96 56 177 106 216c32 25 67 42 108 51c18 4 37 6 57 7zM152 26c55 0 105 55 105 121 c0 51 -28 79 -75 79c-38 0 -77 -25 -102 -64c-4 -6 -7 -14 -8 -21c-1 -5 -1 -16 -1 -25c0 -53 27 -90 81 -90z"></glyph><glyph glyph-name="seven.denominator" unicode="" d="M48 390h243l-5 -31c-61 -91 -168 -246 -245 -359h-45c81 119 174 255 243 354v2h-197z"></glyph><glyph glyph-name="eight.denominator" unicode="" d="M198 397c57 0 103 -32 103 -91c0 -44 -31 -79 -81 -100v-2c49 -23 63 -60 63 -92c0 -80 -74 -119 -141 -119c-79 0 -126 43 -126 99c0 59 44 99 97 117v2c-34 21 -45 48 -45 76c0 64 58 110 130 110zM143 24c54 0 98 32 98 83c0 42 -24 69 -86 85c-48 -9 -97 -37 -97 -95 c0 -34 27 -73 85 -73zM189 366c-46 0 -82 -37 -82 -76c0 -32 19 -57 70 -70c44 9 83 38 83 81c0 25 -13 65 -71 65z"></glyph><glyph glyph-name="nine.denominator" unicode="" d="M30 -7l6 36c13 -1 28 0 44 2c31 5 64 19 96 46c28 25 56 61 76 112l-2 1c-30 -37 -72 -54 -107 -54c-72 0 -101 57 -101 104c0 82 68 157 150 157c78 0 111 -58 111 -127c0 -105 -67 -193 -110 -226c-34 -26 -73 -42 -112 -48c-18 -3 -37 -4 -51 -3zM187 364 c-53 0 -104 -51 -104 -120c0 -36 21 -74 71 -74c39 0 73 22 96 55c4 5 7 11 8 16c2 9 4 24 4 36c0 50 -23 87 -75 87z"></glyph><glyph glyph-name="period.denominator" unicode="" d="M25 -7c-17 0 -29 15 -29 32c0 20 13 35 33 35c18 0 30 -13 30 -33c0 -19 -13 -34 -34 -34z"></glyph><glyph glyph-name="comma.denominator" unicode="" d="M-55 -71l-33 -4c17 31 46 96 59 137l51 6c-21 -49 -60 -116 -77 -139z"></glyph><glyph glyph-name="dollar.denominator" unicode="" d="M95 -51h-32l12 61c-27 0 -63 13 -81 27l14 32c21 -15 48 -26 83 -26c46 0 89 28 89 75c0 24 -13 49 -56 68c-60 26 -83 56 -83 93c0 54 49 100 109 104l13 62h32l-13 -62c31 -1 57 -12 67 -20l-14 -31c-12 6 -31 19 -71 19c-50 0 -80 -31 -80 -67c0 -26 13 -42 64 -66 c52 -24 75 -54 75 -93c0 -64 -49 -106 -116 -115z"></glyph><glyph glyph-name="cent.denominator" unicode="" d="M166 -12h-32l13 64c-38 5 -62 19 -79 42c-17 22 -24 49 -24 76c0 97 77 168 162 176l11 64h32l-12 -63c23 0 54 -10 65 -18l-16 -32c-16 9 -36 18 -71 18c-58 0 -128 -53 -128 -142c0 -50 31 -89 90 -89c33 0 58 10 74 17l6 -32c-12 -7 -47 -17 -79 -17z"></glyph><glyph glyph-name="hyphenminus.denominator" unicode="" d="M32 198h142l-7 -33h-141z"></glyph><glyph glyph-name="parenleft.denominator" unicode="" d="M196 424h37c-58 -63 -133 -171 -133 -325c0 -45 11 -98 40 -161h-32c-28 50 -44 98 -44 166c0 155 80 265 132 320z"></glyph><glyph glyph-name="parenright.denominator" unicode="" d="M-35 -62h-37c58 65 134 172 134 326c0 45 -12 98 -41 160h32c28 -49 45 -97 45 -165c0 -155 -81 -264 -133 -321z"></glyph><glyph glyph-name="at.cap" unicode="" d="M552 360l23 113c-13 5 -38 12 -73 12c-104 0 -195 -83 -195 -197c0 -47 29 -90 89 -90c78 0 144 98 156 162zM593 69l16 -37c-54 -33 -118 -44 -179 -44c-188 0 -324 132 -324 322c0 198 137 376 374 376c191 0 314 -135 314 -309c0 -137 -91 -217 -176 -217 c-38 0 -81 29 -74 100h-4c-37 -63 -85 -100 -163 -100c-57 0 -114 51 -114 129c0 133 114 234 245 234c49 0 84 -9 115 -22l-34 -167c-19 -92 -3 -134 38 -135c58 -2 121 64 121 173c0 159 -103 277 -276 277c-177 0 -321 -128 -321 -334c0 -169 116 -288 283 -288 c53 0 117 14 159 42z"></glyph><glyph glyph-name="emdash.cap" unicode="" d="M106 347h940l-8 -40h-940z"></glyph><glyph glyph-name="endash.cap" unicode="" d="M106 347h440l-8 -40h-440z"></glyph><glyph glyph-name="exclamdown.cap" unicode="" d="M139 0h-59l103 488h41zM234 680c24 0 41 -22 41 -46c0 -27 -18 -47 -43 -47s-42 20 -42 47c0 24 17 46 44 46z"></glyph><glyph glyph-name="guillemotleft.cap" unicode="" d="M332 511l-168 -186l115 -182h-48l-117 184l166 184h52zM482 511l-168 -186l115 -182h-48l-117 184l166 184h52z"></glyph><glyph glyph-name="guillemotright.cap" unicode="" d="M216 330l-115 181h48l117 -184l-167 -184h-51zM366 330l-115 181h48l117 -184l-167 -184h-51z"></glyph><glyph glyph-name="guilsinglleft.cap" unicode="" d="M332 511l-168 -186l115 -182h-48l-117 184l166 184h52z"></glyph><glyph glyph-name="guilsinglright.cap" unicode="" d="M216 330l-115 181h48l117 -184l-167 -184h-51z"></glyph><glyph glyph-name="hyphenminus.cap" unicode="" d="M132 379h225l-8 -43h-225z"></glyph><glyph glyph-name="questiondown.cap" unicode="" d="M308 492h45c0 -10 -1 -20 -2 -31c-3 -53 -40 -117 -112 -185c-54 -52 -85 -106 -85 -161c0 -41 17 -89 91 -89c34 0 68 8 103 29l14 -39c-43 -23 -88 -33 -121 -33c-114 0 -137 85 -137 130c0 61 38 126 106 192c59 57 88 105 93 151zM357 680c24 0 41 -22 41 -46 c0 -27 -18 -47 -43 -47s-42 20 -42 47c0 24 17 46 44 46z"></glyph><glyph glyph-name="braceleft.cap" unicode="" d="M78 311l6 35c73 -2 91 38 98 78c11 57 2 112 13 169c17 92 81 133 162 133h13l-7 -37h-19c-62 0 -95 -37 -108 -102c-10 -53 0 -105 -10 -158c-9 -52 -40 -89 -81 -101v-2c36 -11 45 -44 45 -68c0 -40 -13 -81 -28 -117c-15 -35 -29 -69 -29 -98c0 -42 20 -77 73 -77h19 l-7 -37h-13c-71 0 -114 42 -114 104c0 43 15 82 29 118s29 71 29 103c0 12 2 59 -71 57z"></glyph><glyph glyph-name="braceright.cap" unicode="" d="M230 342l-6 -35c-73 2 -91 -38 -98 -78c-11 -56 -2 -111 -13 -168c-17 -91 -81 -132 -162 -132h-13l7 37h19c62 0 95 37 108 101c10 53 0 105 10 158c9 49 40 88 81 100v2c-36 12 -45 46 -45 69c0 38 15 77 29 115c14 37 28 72 28 100c0 43 -20 78 -73 78h-19l7 37h13 c71 0 114 -42 114 -104c0 -46 -14 -85 -29 -122c-15 -36 -29 -68 -29 -101c0 -12 -2 -59 71 -57z"></glyph><glyph glyph-name="bracketleft.cap" unicode="" d="M258 -71h-170l152 797h170l-7 -37h-127l-138 -723h127z"></glyph><glyph glyph-name="bracketright.cap" unicode="" d="M50 726h170l-152 -797h-170l7 37h127l138 723h-127z"></glyph><glyph glyph-name="parenleft.cap" unicode="" d="M393 732h49c-97 -101 -229 -278 -229 -542c0 -74 20 -165 72 -270h-40c-49 85 -77 163 -77 281c0 262 145 445 225 531z"></glyph><glyph glyph-name="parenright.cap" unicode="" d="M-39 -80h-49c97 103 229 280 229 544c0 74 -20 165 -72 268h40c49 -83 77 -161 77 -279c0 -262 -145 -445 -225 -533z"></glyph><glyph glyph-name="periodcentered.cap" unicode="" d="M191 293c-24 0 -41 22 -41 46c0 27 18 47 43 47s42 -20 42 -47c0 -24 -17 -46 -44 -46z"></glyph><glyph glyph-name="lessthanorequalto" unicode="≤" d="M489 173l-374 177l4 24l423 177l-5 -36l-367 -153l324 -153zM66 0l5 33h398l-4 -33h-399z"></glyph><glyph glyph-name="greaterthanorequalto" unicode="≥" d="M142 551l373 -177l-3 -24l-423 -177l5 36l367 153l-324 153zM64 0l5 33h398l-4 -33h-399z"></glyph><glyph glyph-name="almostequalto" unicode="≈" d="M484 382c-27 0 -64 10 -109 29c-46 19 -80 29 -103 29c-24 0 -47 -6 -69 -17c-22 -12 -41 -26 -56 -41l2 15c14 19 33 35 57 50c23 14 50 21 80 21c28 0 65 -9 111 -28c45 -19 79 -29 101 -29c24 0 47 6 69 17s41 25 56 40l-2 -15c-14 -19 -33 -35 -56 -49 c-24 -15 -51 -22 -81 -22zM463 233c-27 0 -64 10 -109 29c-46 19 -80 28 -103 28c-24 0 -47 -6 -69 -17s-41 -25 -56 -40l2 15c14 19 33 35 57 50c23 14 50 21 80 21c28 0 65 -10 111 -29c45 -19 79 -29 101 -29c24 0 47 6 69 18c22 11 41 25 56 40l-2 -15 c-7 -9 -14 -17 -22 -24c-9 -8 -19 -16 -30 -23s-24 -13 -39 -17c-15 -5 -31 -7 -46 -7z"></glyph><glyph glyph-name="notequalto" unicode="≠" d="M596 155h-310l-85 -134h-45l87 134h-163v40h188l97 150h-285v40h310l85 134h45l-87 -134h163v-40h-188l-97 -150h285v-40z"></glyph><glyph glyph-name="infinity" unicode="∞" d="M572 128c-74 0 -126 61 -175 108c-52 -52 -106 -108 -184 -108c-77 0 -133 55 -133 135c0 75 62 137 141 137c75 0 127 -61 176 -110c52 54 106 110 184 110c77 0 133 -55 133 -137c0 -73 -62 -135 -142 -135zM576 168c55 0 96 45 96 95c0 56 -39 97 -94 97 c-63 0 -114 -54 -154 -97c43 -40 87 -95 152 -95zM217 168c62 0 113 53 153 95c-43 40 -87 97 -151 97c-56 0 -97 -45 -97 -97c0 -54 39 -95 95 -95z"></glyph><glyph glyph-name="lozenge" unicode="◊" d="M530 325l-246 -358h-44l-122 358l246 358h44zM482 324l-98 301c-2 5 -4 10 -5 17h-2c-3 -7 -7 -12 -11 -17l-200 -299l98 -301c2 -5 4 -10 5 -17h2c3 7 7 12 11 17z"></glyph><glyph glyph-name="integral" unicode="∫" d="M286 780l-16 -35c-7 2 -17 4 -27 4c-81 0 -103 -123 -113 -182c-24 -141 -48 -347 -73 -486c-16 -86 -47 -222 -159 -222c-21 0 -35 5 -44 9l11 35c8 -3 20 -6 35 -6c83 0 104 129 114 186c24 139 49 349 73 487c14 86 51 217 162 217c17 0 29 -3 37 -7z"></glyph><glyph glyph-name="partialdifferential" unicode="∂" d="M164 636l-18 33c40 28 100 54 178 54c123 0 238 -110 238 -314c0 -246 -130 -421 -302 -421c-124 0 -176 100 -176 189c0 146 114 255 255 255c81 0 153 -60 172 -107h1c5 29 7 58 7 87c0 187 -109 269 -198 269c-73 0 -123 -21 -157 -45zM266 30c123 0 205 114 234 240 c-20 62 -89 120 -169 120c-104 0 -197 -74 -197 -209c0 -90 48 -151 132 -151z"></glyph><glyph glyph-name="naryproduct" unicode="∏" d="M725 609h-85l-146 -699h-46l146 699h-320l-146 -699h-46l146 699h-88l9 41h585z"></glyph><glyph glyph-name="squareroot" unicode="√" d="M675 819l-387 -923h-40l-86 437l-76 -33l-10 32l121 52l70 -382c4 -13 6 -31 7 -47h1c6 15 14 34 19 47l339 817h42z"></glyph><glyph glyph-name="narysummation" unicode="∑" d="M452 -90h-514l5 31l340 342l-209 333l6 34h465l-7 -41h-407l-1 -3l204 -326l-321 -326v-3h446z"></glyph><glyph glyph-name="increment" unicode="∆" d="M580 0h-552l6 34l362 624h48l142 -624zM90 41h446l-91 412c-11 50 -26 116 -34 157h-2c-16 -31 -46 -88 -73 -136z"></glyph><glyph glyph-name="Ohmsign-grek" unicode="Ω" d="M165 40v4c-58 49 -110 141 -110 251c0 207 150 391 372 391c178 0 288 -136 288 -293c0 -161 -103 -285 -210 -349v-4h161l-7 -40h-241l5 34c107 51 244 180 244 354c0 121 -78 259 -245 259c-215 0 -319 -206 -319 -338c0 -143 65 -232 132 -275l-7 -34h-240l7 40h170z "></glyph><glyph glyph-name="pi-grek" unicode="π" d="M583 441h-80l-54 -297c-17 -94 -15 -121 -11 -144h-44c-5 13 -10 41 7 136l56 305h-205c-8 -32 -17 -69 -28 -108c-36 -125 -90 -271 -133 -333h-47c45 70 98 205 133 330c11 39 21 77 29 111c-52 0 -91 -4 -120 -12l-2 30c21 14 56 21 124 21h386z"></glyph><glyph glyph-name="aringacute" unicode="ǻ" d="M491 0h-45c-2 30 5 92 15 157h-2c-58 -119 -137 -169 -226 -169c-97 0 -151 77 -151 161c0 179 150 343 348 343c44 0 93 -6 127 -15l-45 -240c-20 -106 -24 -190 -21 -237zM475 286l29 156c-13 5 -37 10 -81 10c-152 0 -293 -125 -293 -298c0 -53 20 -127 113 -127 c95 0 205 114 232 259zM524 841h83l-164 -110h-47zM421 706c50 0 89 -40 89 -93c0 -51 -43 -90 -90 -90c-53 0 -92 40 -92 90c0 52 39 93 93 93zM417 676c-30 0 -50 -28 -50 -63c0 -30 22 -60 51 -60c31 0 53 28 53 66c0 31 -22 57 -54 57z"></glyph><glyph glyph-name="Abreve" unicode="Ă" d="M365 788c-20 0 -38 3 -53 9c-16 6 -28 14 -37 24s-17 21 -23 34c-7 13 -10 26 -11 39s-1 26 0 39h25c-3 -17 -1 -34 6 -50c6 -17 18 -31 35 -43s37 -18 62 -18c37 0 68 12 93 35s39 48 42 76h26c-3 -17 -8 -33 -15 -49c-8 -16 -18 -31 -31 -46s-30 -27 -51 -36 s-43 -14 -68 -14zM524 0l-69 266h-323l-144 -266h-28l386 714h38l185 -714h-45zM146 292h303l-98 381z"></glyph><glyph glyph-name="Amacron" unicode="Ā" d="M408 238h-286l-134 -238h-48l386 674h46l126 -674h-46zM147 278h253l-43 237c-5 28 -13 74 -17 108h-2c-18 -35 -33 -66 -55 -105zM248 772h227l-7 -40h-227z"></glyph><glyph glyph-name="Aogonek" unicode="Ą" d="M372 674l126 -674h-10c-39 -42 -66 -85 -66 -120c0 -25 16 -40 38 -40c11 0 26 3 41 11l10 -29c-19 -17 -44 -20 -66 -20c-45 0 -70 30 -70 70c0 55 62 118 75 133l-42 233h-286l-134 -238h-48l386 674h46zM147 278h253l-43 237c-5 28 -13 74 -17 108h-2 c-18 -35 -33 -66 -55 -105z"></glyph><glyph glyph-name="i.dot" d="M143 0h-47l92 480h47zM236 581c-23 0 -36 21 -36 42c0 22 15 42 38 42s37 -19 38 -42c-1 -21 -14 -42 -40 -42z"></glyph><glyph glyph-name="Cacute" unicode="Ć" d="M588 67l11 -39c-46 -20 -117 -40 -202 -40c-179 0 -291 107 -291 289c0 111 45 223 128 299c74 68 171 110 288 110c92 0 155 -25 173 -43l-21 -36c-33 23 -92 39 -168 39c-86 0 -177 -36 -243 -98c-67 -63 -109 -161 -109 -265c0 -129 60 -255 252 -255 c61 0 134 13 182 39zM565 831h81l-144 -115h-45z"></glyph><glyph glyph-name="Ccaron" unicode="Č" d="M588 67l11 -39c-46 -20 -117 -40 -202 -40c-179 0 -291 107 -291 289c0 111 45 223 128 299c74 68 171 110 288 110c92 0 155 -25 173 -43l-21 -36c-33 23 -92 39 -168 39c-86 0 -177 -36 -243 -98c-67 -63 -109 -161 -109 -265c0 -129 60 -255 252 -255 c61 0 134 13 182 39zM518 716h-36l-86 115h52l55 -78h4l84 78h53z"></glyph><glyph glyph-name="Ccircumflex" unicode="Ĉ" d="M588 67l11 -39c-46 -20 -117 -40 -202 -40c-179 0 -291 107 -291 289c0 111 45 223 128 299c74 68 171 110 288 110c92 0 155 -25 173 -43l-21 -36c-33 23 -92 39 -168 39c-86 0 -177 -36 -243 -98c-67 -63 -109 -161 -109 -265c0 -129 60 -255 252 -255 c61 0 134 13 182 39zM502 825h36l86 -115h-49l-59 79h-2l-85 -79h-53z"></glyph><glyph glyph-name="Cdotaccent" unicode="Ċ" d="M588 67l11 -39c-46 -20 -117 -40 -202 -40c-179 0 -291 107 -291 289c0 111 45 223 128 299c74 68 171 110 288 110c92 0 155 -25 173 -43l-21 -36c-33 23 -92 39 -168 39c-86 0 -177 -36 -243 -98c-67 -63 -109 -161 -109 -265c0 -129 60 -255 252 -255 c61 0 134 13 182 39zM519 724c-21 0 -37 21 -37 41c0 19 17 41 39 41s38 -22 38 -41c0 -20 -16 -41 -40 -41z"></glyph><glyph glyph-name="Dcaron" unicode="Ď" d="M98 0l126 665c54 9 115 14 180 14c134 0 234 -41 285 -112c24 -31 49 -89 50 -168c0 -106 -42 -219 -135 -299c-85 -72 -194 -105 -334 -105c-48 0 -113 1 -172 5zM264 630l-112 -589c48 -6 94 -6 122 -6c148 0 242 39 310 104c74 70 106 160 106 253 c0 127 -61 248 -293 248c-37 0 -97 -2 -133 -10zM473 710h-36l-86 115h52l55 -78h4l84 78h53z"></glyph><glyph glyph-name="Ebreve" unicode="Ĕ" d="M487 376l-8 -40h-272l-56 -296h306l-8 -40h-353l129 674h336l-8 -40h-289l-49 -258h272zM293 830h37c0 -30 13 -57 68 -57c51 0 73 24 83 57h40c-10 -50 -50 -97 -123 -97c-83 0 -111 47 -105 97z"></glyph><glyph glyph-name="Ecaron" unicode="Ě" d="M487 376l-8 -40h-272l-56 -296h306l-8 -40h-353l129 674h336l-8 -40h-289l-49 -258h272zM404 710h-36l-86 115h52l55 -78h4l84 78h53z"></glyph><glyph glyph-name="Edotaccent" unicode="Ė" d="M487 376l-8 -40h-272l-56 -296h306l-8 -40h-353l129 674h336l-8 -40h-289l-49 -258h272zM403 724c-21 0 -37 21 -37 41c0 19 17 41 39 41s38 -22 38 -41c0 -20 -16 -41 -40 -41z"></glyph><glyph glyph-name="Emacron" unicode="Ē" d="M487 376l-8 -40h-272l-56 -296h306l-8 -40h-353l129 674h336l-8 -40h-289l-49 -258h272zM293 772h227l-7 -40h-227z"></glyph><glyph glyph-name="Eogonek" unicode="Ę" d="M96 0l129 674h336l-8 -40h-289l-49 -258h272l-8 -40h-272l-56 -296h306l-8 -40h-17c-46 -28 -94 -83 -94 -128c0 -22 13 -34 34 -34c14 0 29 3 44 10l9 -30c-24 -14 -42 -18 -67 -18c-42 0 -67 28 -67 63c0 65 66 119 92 137h-287z"></glyph><glyph glyph-name="Gbreve" unicode="Ğ" d="M668 332l-56 -300c-33 -15 -109 -39 -198 -39c-108 0 -190 29 -245 97c-56 68 -63 144 -63 196c0 99 44 210 126 285c74 66 175 110 293 110c96 0 157 -25 174 -38l-19 -39c-43 24 -94 37 -167 37c-99 0 -192 -42 -259 -109c-64 -65 -100 -159 -100 -243 c0 -146 74 -256 274 -256c51 0 107 12 142 28l44 231h-174l7 40h221zM393 824h37c0 -30 13 -57 68 -57c51 0 73 24 83 57h40c-10 -50 -50 -97 -123 -97c-83 0 -111 47 -105 97z"></glyph><glyph glyph-name="Gcircumflex" unicode="Ĝ" d="M668 332l-56 -300c-33 -15 -109 -39 -198 -39c-108 0 -190 29 -245 97c-56 68 -63 144 -63 196c0 99 44 210 126 285c74 66 175 110 293 110c96 0 157 -25 174 -38l-19 -39c-43 24 -94 37 -167 37c-99 0 -192 -42 -259 -109c-64 -65 -100 -159 -100 -243 c0 -146 74 -256 274 -256c51 0 107 12 142 28l44 231h-174l7 40h221zM508 825h36l86 -115h-49l-59 79h-2l-85 -79h-53z"></glyph><glyph glyph-name="Gcedilla" unicode="Ģ" d="M668 332l-56 -300c-33 -15 -109 -39 -198 -39c-108 0 -190 29 -245 97c-56 68 -63 144 -63 196c0 99 44 210 126 285c74 66 175 110 293 110c96 0 157 -25 174 -38l-19 -39c-43 24 -94 37 -167 37c-99 0 -192 -42 -259 -109c-64 -65 -100 -159 -100 -243 c0 -146 74 -256 274 -256c51 0 107 12 142 28l44 231h-174l7 40h221zM244 -210l-8 27c47 7 98 29 98 80c0 21 -12 38 -26 49l41 12c15 -10 30 -32 30 -57c0 -71 -72 -104 -135 -111z"></glyph><glyph glyph-name="Gdotaccent" unicode="Ġ" d="M668 332l-56 -300c-33 -15 -109 -39 -198 -39c-108 0 -190 29 -245 97c-56 68 -63 144 -63 196c0 99 44 210 126 285c74 66 175 110 293 110c96 0 157 -25 174 -38l-19 -39c-43 24 -94 37 -167 37c-99 0 -192 -42 -259 -109c-64 -65 -100 -159 -100 -243 c0 -146 74 -256 274 -256c51 0 107 12 142 28l44 231h-174l7 40h221zM517 724c-21 0 -37 21 -37 41c0 19 17 41 39 41s38 -22 38 -41c0 -20 -16 -41 -40 -41z"></glyph><glyph glyph-name="G_tildecomb" unicode="" d="M668 332l-56 -300c-33 -15 -109 -39 -198 -39c-108 0 -190 29 -245 97c-56 68 -63 144 -63 196c0 99 44 210 126 285c74 66 175 110 293 110c96 0 157 -25 174 -38l-19 -39c-43 24 -94 37 -167 37c-99 0 -192 -42 -259 -109c-64 -65 -100 -159 -100 -243 c0 -146 74 -256 274 -256c51 0 107 12 142 28l44 231h-174l7 40h221zM392 715h-33c9 43 36 87 74 87c29 0 43 -8 64 -22c15 -10 31 -17 48 -17c16 0 28 15 35 39h33c-10 -49 -34 -82 -74 -82c-26 0 -37 6 -62 20c-19 11 -29 20 -48 19c-17 -1 -30 -19 -37 -44z"></glyph><glyph glyph-name="Hcircumflex" unicode="Ĥ" d="M225 674h47l-57 -296h394l57 296h47l-129 -674h-47l64 338h-394l-64 -338h-47zM477 825h36l86 -115h-49l-59 79h-2l-85 -79h-53z"></glyph><glyph glyph-name="Ibreve" unicode="Ĭ" d="M225 674h47l-129 -674h-47zM164 830h37c0 -30 13 -57 68 -57c51 0 73 24 83 57h40c-10 -50 -50 -97 -123 -97c-83 0 -111 47 -105 97z"></glyph><glyph glyph-name="Idotaccent" unicode="İ" d="M225 674h47l-129 -674h-47zM264 724c-21 0 -37 21 -37 41c0 19 17 41 39 41s38 -22 38 -41c0 -20 -16 -41 -40 -41z"></glyph><glyph glyph-name="Imacron" unicode="Ī" d="M225 674h47l-129 -674h-47zM154 772h227l-7 -40h-227z"></glyph><glyph glyph-name="Iogonek" unicode="Į" d="M198 674l-129 -674h-8c-39 -42 -66 -85 -66 -120c0 -25 16 -40 38 -40c11 0 26 3 41 11l10 -29c-19 -17 -44 -20 -66 -20c-45 0 -70 30 -70 70c0 55 62 118 75 133l128 669h47z"></glyph><glyph glyph-name="Itilde" unicode="Ĩ" d="M94 822l3 19c9 15 21 28 36 40c15 11 32 17 51 17c18 0 41 -8 70 -25c28 -17 49 -25 63 -25c28 0 55 16 81 49l-3 -19c-9 -15 -21 -28 -36 -39s-33 -17 -52 -17c-18 0 -41 8 -69 25c-28 16 -49 24 -64 24c-11 0 -21 -3 -32 -8c-11 -6 -21 -12 -28 -19s-14 -15 -20 -22z M205 714h42l-101 -714h-41z"></glyph><glyph glyph-name="Jcircumflex" unicode="Ĵ" d="M225 216l87 458h47l-87 -459c-29 -155 -92 -227 -218 -227c-46 0 -92 12 -106 21l13 40c26 -13 58 -19 102 -19c80 0 135 43 162 186zM349 825h36l86 -115h-49l-59 79h-2l-85 -79h-53z"></glyph><glyph glyph-name="Kcedilla" unicode="Ķ" d="M96 0l129 674h47l-66 -348l6 1c25 28 51 50 73 72l293 275h60l-311 -291l209 -383h-52l-193 354l-96 -84l-52 -270h-47zM155 -210l-8 27c47 7 98 29 98 80c0 21 -12 38 -26 49l41 12c15 -10 30 -32 30 -57c0 -71 -72 -104 -135 -111z"></glyph><glyph glyph-name="Lacute" unicode="Ĺ" d="M96 0l129 674h47l-122 -634h307l-8 -40h-353zM348 825h81l-144 -115h-45z"></glyph><glyph glyph-name="Lcaron" unicode="Ľ" d="M96 0l129 674h47l-122 -634h307l-8 -40h-353zM326 510l-8 27c47 7 98 29 98 80c0 21 -12 38 -26 49l41 12c15 -10 30 -32 30 -57c0 -71 -72 -104 -135 -111z"></glyph><glyph glyph-name="Lcedilla" unicode="Ļ" d="M96 0l129 674h47l-122 -634h307l-8 -40h-353zM151 -210l-8 27c47 7 98 29 98 80c0 21 -12 38 -26 49l41 12c15 -10 30 -32 30 -57c0 -71 -72 -104 -135 -111z"></glyph><glyph glyph-name="Lmiddledot" unicode="Ŀ" d="M96 0l129 674h47l-122 -634h307l-8 -40h-353zM377 320c-21 0 -37 21 -37 41c0 19 17 41 39 41s38 -22 38 -41c0 -20 -16 -41 -40 -41z"></glyph><glyph glyph-name="M_circumflexcomb" unicode="" d="M737 0h-46l49 403c7 59 24 181 33 222h-3c-29 -55 -68 -132 -108 -200l-252 -425h-37l-77 407c-16 85 -26 162 -33 218h-2c-10 -41 -37 -163 -53 -222l-108 -403h-46l183 674h54l87 -478c10 -54 20 -112 24 -139h2c15 27 42 80 73 133l283 484h56zM533 825h36l86 -115 h-49l-59 79h-2l-85 -79h-53z"></glyph><glyph glyph-name="Nacute" unicode="Ń" d="M142 0h-46l129 674h43l233 -470c38 -76 52 -113 66 -155l2 2c2 50 7 91 26 194l82 429h46l-129 -674h-41l-227 463c-43 87 -56 115 -70 159l-3 -2c-7 -58 -13 -102 -30 -193zM545 825h81l-144 -115h-45z"></glyph><glyph glyph-name="Ncaron" unicode="Ň" d="M142 0h-46l129 674h43l233 -470c38 -76 52 -113 66 -155l2 2c2 50 7 91 26 194l82 429h46l-129 -674h-41l-227 463c-43 87 -56 115 -70 159l-3 -2c-7 -58 -13 -102 -30 -193zM500 710h-36l-86 115h52l55 -78h4l84 78h53z"></glyph><glyph glyph-name="N_circumflexcomb" unicode="" d="M142 0h-46l129 674h43l233 -470c38 -76 52 -113 66 -155l2 2c2 50 7 91 26 194l82 429h46l-129 -674h-41l-227 463c-43 87 -56 115 -70 159l-3 -2c-7 -58 -13 -102 -30 -193zM482 825h36l86 -115h-49l-59 79h-2l-85 -79h-53z"></glyph><glyph glyph-name="Ncedilla" unicode="Ņ" d="M142 0h-46l129 674h43l233 -470c38 -76 52 -113 66 -155l2 2c2 50 7 91 26 194l82 429h46l-129 -674h-41l-227 463c-43 87 -56 115 -70 159l-3 -2c-7 -58 -13 -102 -30 -193zM253 -210l-8 27c47 7 98 29 98 80c0 21 -12 38 -26 49l41 12c15 -10 30 -32 30 -57 c0 -71 -72 -104 -135 -111z"></glyph><glyph glyph-name="Obreve" unicode="Ŏ" d="M389 -12c-192 0 -283 135 -283 291c0 114 47 226 128 306c61 60 156 101 248 101c206 0 284 -142 284 -291c0 -113 -41 -220 -121 -301c-65 -65 -151 -106 -256 -106zM396 28c80 0 157 34 215 93c65 65 107 161 107 273c0 102 -41 252 -243 252c-83 0 -156 -36 -212 -92 c-68 -68 -109 -167 -109 -270c0 -135 69 -256 242 -256zM418 830h37c0 -30 13 -57 68 -57c51 0 73 24 83 57h40c-10 -50 -50 -97 -123 -97c-83 0 -111 47 -105 97z"></glyph><glyph glyph-name="Odoubleacute" unicode="Ő" d="M389 -12c-192 0 -283 135 -283 291c0 114 47 226 128 306c61 60 156 101 248 101c206 0 284 -142 284 -291c0 -113 -41 -220 -121 -301c-65 -65 -151 -106 -256 -106zM396 28c80 0 157 34 215 93c65 65 107 161 107 273c0 102 -41 252 -243 252c-83 0 -156 -36 -212 -92 c-68 -68 -109 -167 -109 -270c0 -135 69 -256 242 -256zM504 825h69l-134 -115h-38zM634 825h69l-134 -115h-38z"></glyph><glyph glyph-name="Omacron" unicode="Ō" d="M389 -12c-192 0 -283 135 -283 291c0 114 47 226 128 306c61 60 156 101 248 101c206 0 284 -142 284 -291c0 -113 -41 -220 -121 -301c-65 -65 -151 -106 -256 -106zM396 28c80 0 157 34 215 93c65 65 107 161 107 273c0 102 -41 252 -243 252c-83 0 -156 -36 -212 -92 c-68 -68 -109 -167 -109 -270c0 -135 69 -256 242 -256zM408 772h227l-7 -40h-227z"></glyph><glyph glyph-name="Oslashacute" unicode="Ǿ" d="M72 -28l-24 26l88 87c-40 56 -59 108 -59 195c0 111 44 218 123 297c67 67 164 109 257 109c85 0 148 -21 195 -69l88 85l27 -25l-89 -86c44 -58 59 -122 59 -189c0 -120 -46 -230 -123 -308c-63 -65 -159 -106 -252 -106c-84 0 -150 22 -202 71zM170 118l453 468 c-38 38 -89 60 -174 60c-139 0 -264 -101 -307 -249c-26 -89 -26 -201 26 -279h2zM645 555l-453 -467c43 -41 95 -60 182 -60c119 0 244 87 293 235c28 84 37 204 -20 292h-2zM545 831h81l-144 -115h-45z"></glyph><glyph glyph-name="Racute" unicode="Ŕ" d="M96 0l127 665c42 9 96 14 139 14c76 0 134 -21 166 -60c24 -28 35 -65 35 -99c0 -98 -88 -175 -172 -194v-2c54 -14 80 -69 85 -136c9 -106 13 -159 21 -188h-50c-2 9 -11 93 -15 163c-5 99 -47 147 -120 147h-110l-59 -310h-47zM264 631l-54 -282h98 c132 0 206 83 206 166c0 90 -70 126 -161 126c-44 0 -70 -4 -89 -10zM452 825h81l-144 -115h-45z"></glyph><glyph glyph-name="Rcaron" unicode="Ř" d="M96 0l127 665c42 9 96 14 139 14c76 0 134 -21 166 -60c24 -28 35 -65 35 -99c0 -98 -88 -175 -172 -194v-2c54 -14 80 -69 85 -136c9 -106 13 -159 21 -188h-50c-2 9 -11 93 -15 163c-5 99 -47 147 -120 147h-110l-59 -310h-47zM264 631l-54 -282h98 c132 0 206 83 206 166c0 90 -70 126 -161 126c-44 0 -70 -4 -89 -10zM391 710h-36l-86 115h52l55 -78h4l84 78h53z"></glyph><glyph glyph-name="Rcedilla" unicode="Ŗ" d="M96 0l127 665c42 9 96 14 139 14c76 0 134 -21 166 -60c24 -28 35 -65 35 -99c0 -98 -88 -175 -172 -194v-2c54 -14 80 -69 85 -136c9 -106 13 -159 21 -188h-50c-2 9 -11 93 -15 163c-5 99 -47 147 -120 147h-110l-59 -310h-47zM264 631l-54 -282h98 c132 0 206 83 206 166c0 90 -70 126 -161 126c-44 0 -70 -4 -89 -10zM165 -210l-8 27c47 7 98 29 98 80c0 21 -12 38 -26 49l41 12c15 -10 30 -32 30 -57c0 -71 -72 -104 -135 -111z"></glyph><glyph glyph-name="Sacute" unicode="Ś" d="M54 40l20 37c40 -29 91 -49 149 -49c86 0 180 51 180 156c0 57 -28 102 -114 143c-111 53 -146 108 -146 170c0 117 103 189 215 189c63 0 118 -23 139 -41l-21 -36c-21 14 -65 38 -124 38c-99 0 -163 -71 -163 -136c0 -66 28 -98 120 -143c98 -47 140 -97 140 -185 c0 -91 -74 -195 -236 -195c-55 0 -129 22 -159 52zM426 826h81l-144 -115h-45z"></glyph><glyph glyph-name="Scedilla" unicode="Ş" d="M497 645l-21 -36c-21 14 -65 38 -124 38c-99 0 -163 -71 -163 -136c0 -66 28 -98 120 -143c98 -47 140 -97 140 -185c0 -78 -55 -166 -173 -189l-38 -48c31 -6 49 -30 49 -61c0 -47 -43 -83 -104 -83c-23 0 -46 7 -57 14l16 36c13 -9 31 -13 51 -13c26 0 49 16 49 42 c0 22 -23 34 -62 38l54 70c-7 0 -14 -1 -21 -1c-55 0 -129 22 -159 52l20 37c40 -29 91 -49 149 -49c86 0 180 51 180 156c0 57 -28 102 -114 143c-111 53 -146 108 -146 170c0 117 103 189 215 189c63 0 118 -23 139 -41z"></glyph><glyph glyph-name="Scircumflex" unicode="Ŝ" d="M54 40l20 37c40 -29 91 -49 149 -49c86 0 180 51 180 156c0 57 -28 102 -114 143c-111 53 -146 108 -146 170c0 117 103 189 215 189c63 0 118 -23 139 -41l-21 -36c-21 14 -65 38 -124 38c-99 0 -163 -71 -163 -136c0 -66 28 -98 120 -143c98 -47 140 -97 140 -185 c0 -91 -74 -195 -236 -195c-55 0 -129 22 -159 52zM363 825h36l86 -115h-49l-59 79h-2l-85 -79h-53z"></glyph><glyph glyph-name="Scommaaccent" unicode="Ș" d="M54 40l20 37c40 -29 91 -49 149 -49c86 0 180 51 180 156c0 57 -28 102 -114 143c-111 53 -146 108 -146 170c0 117 103 189 215 189c63 0 118 -23 139 -41l-21 -36c-21 14 -65 38 -124 38c-99 0 -163 -71 -163 -136c0 -66 28 -98 120 -143c98 -47 140 -97 140 -185 c0 -91 -74 -195 -236 -195c-55 0 -129 22 -159 52zM119 -210l-8 27c47 7 98 29 98 80c0 21 -12 38 -26 49l41 12c15 -10 30 -32 30 -57c0 -71 -72 -104 -135 -111z"></glyph><glyph glyph-name="Tcaron" unicode="Ť" d="M228 0l121 634h-237l8 40h521l-8 -40h-237l-121 -634h-47zM404 710h-36l-86 115h52l55 -78h4l84 78h53z"></glyph><glyph glyph-name="Tcedilla" unicode="Ţ" d="M228 0l121 634h-237l8 40h521l-8 -40h-237l-121 -634h-47zM149 -210l-8 27c47 7 98 29 98 80c0 21 -12 38 -26 49l41 12c15 -10 30 -32 30 -57c0 -71 -72 -104 -135 -111z"></glyph><glyph glyph-name="Ubreve" unicode="Ŭ" d="M271 674h47l-74 -389c-6 -31 -9 -63 -9 -89c0 -119 68 -167 160 -167c111 0 202 74 237 256l75 389h47l-77 -399c-41 -211 -163 -287 -290 -287c-104 0 -199 57 -199 208c0 30 3 64 9 94zM428 830h37c0 -30 13 -57 68 -57c51 0 73 24 83 57h40c-10 -50 -50 -97 -123 -97 c-83 0 -111 47 -105 97z"></glyph><glyph glyph-name="Udoubleacute" unicode="Ű" d="M271 674h47l-74 -389c-6 -31 -9 -63 -9 -89c0 -119 68 -167 160 -167c111 0 202 74 237 256l75 389h47l-77 -399c-41 -211 -163 -287 -290 -287c-104 0 -199 57 -199 208c0 30 3 64 9 94zM524 825h69l-134 -115h-38zM654 825h69l-134 -115h-38z"></glyph><glyph glyph-name="Umacron" unicode="Ū" d="M271 674h47l-74 -389c-6 -31 -9 -63 -9 -89c0 -119 68 -167 160 -167c111 0 202 74 237 256l75 389h47l-77 -399c-41 -211 -163 -287 -290 -287c-104 0 -199 57 -199 208c0 30 3 64 9 94zM418 772h227l-7 -40h-227z"></glyph><glyph glyph-name="Uogonek" unicode="Ų" d="M493 -130l3 -33c-18 -9 -35 -12 -55 -12c-47 0 -74 23 -74 62c0 38 26 73 56 103c-12 -1 -24 -2 -36 -2c-104 0 -199 57 -199 208c0 30 3 64 9 94l74 384h47l-74 -389c-6 -31 -9 -63 -9 -89c0 -119 68 -167 160 -167c111 0 202 74 237 256l75 389h47l-77 -399 c-25 -132 -83 -211 -153 -252c-24 -14 -54 -33 -68 -46c-25 -23 -42 -50 -42 -79c0 -25 18 -35 38 -35c14 0 26 1 41 7z"></glyph><glyph glyph-name="Uring" unicode="Ů" d="M271 674h47l-74 -389c-6 -31 -9 -63 -9 -89c0 -119 68 -167 160 -167c111 0 202 74 237 256l75 389h47l-77 -399c-41 -211 -163 -287 -290 -287c-104 0 -199 57 -199 208c0 30 3 64 9 94zM523 863c52 0 87 -38 87 -86c0 -47 -38 -83 -88 -83c-53 0 -89 37 -89 83 c0 47 35 86 90 86zM520 836c-29 0 -46 -27 -46 -59c0 -28 19 -55 47 -55c29 0 48 25 48 57s-19 57 -49 57z"></glyph><glyph glyph-name="Utilde" unicode="Ũ" d="M365 822l2 19c9 15 21 28 36 40c15 11 33 17 52 17c18 0 41 -8 69 -25s49 -25 63 -25c29 0 56 16 81 49l-2 -19c-9 -15 -22 -28 -37 -39s-32 -17 -51 -17c-18 0 -41 8 -69 25c-29 16 -50 24 -65 24s-29 -5 -43 -15c-15 -11 -27 -22 -36 -34zM740 714h25l-65 -464 c-10 -72 -45 -133 -106 -184s-130 -76 -206 -76s-137 25 -184 76s-65 112 -55 184l65 464h42l-65 -464c-9 -65 7 -120 48 -165c41 -46 94 -69 161 -69s127 23 180 69c53 45 85 100 94 165z"></glyph><glyph glyph-name="Wacute" unicode="Ẃ" d="M296 0h-49l-47 674h47l29 -472c6 -100 5 -125 6 -151h2c10 26 21 50 68 143l244 480h48l30 -436c7 -101 10 -161 10 -187h2c19 53 38 96 65 150l237 473h49l-342 -674h-48l-32 440c-7 91 -8 104 -3 188h-3c-22 -60 -38 -98 -65 -149zM693 825h81l-144 -115h-45z"></glyph><glyph glyph-name="Wcircumflex" unicode="Ŵ" d="M296 0h-49l-47 674h47l29 -472c6 -100 5 -125 6 -151h2c10 26 21 50 68 143l244 480h48l30 -436c7 -101 10 -161 10 -187h2c19 53 38 96 65 150l237 473h49l-342 -674h-48l-32 440c-7 91 -8 104 -3 188h-3c-22 -60 -38 -98 -65 -149zM630 825h36l86 -115h-49l-59 79h-2 l-85 -79h-53z"></glyph><glyph glyph-name="Wdieresis" unicode="Ẅ" d="M296 0h-49l-47 674h47l29 -472c6 -100 5 -125 6 -151h2c10 26 21 50 68 143l244 480h48l30 -436c7 -101 10 -161 10 -187h2c19 53 38 96 65 150l237 473h49l-342 -674h-48l-32 440c-7 91 -8 104 -3 188h-3c-22 -60 -38 -98 -65 -149zM547 724c-21 0 -37 21 -37 41 c0 19 17 41 39 41s38 -22 38 -41c0 -20 -16 -41 -40 -41zM727 724c-21 0 -37 21 -37 41c0 19 17 41 39 41s38 -22 38 -41c0 -20 -16 -41 -40 -41z"></glyph><glyph glyph-name="Wgrave" unicode="Ẁ" d="M296 0h-49l-47 674h47l29 -472c6 -100 5 -125 6 -151h2c10 26 21 50 68 143l244 480h48l30 -436c7 -101 10 -161 10 -187h2c19 53 38 96 65 150l237 473h49l-342 -674h-48l-32 440c-7 91 -8 104 -3 188h-3c-22 -60 -38 -98 -65 -149zM511 825h71l64 -115h-35z"></glyph><glyph glyph-name="Ycircumflex" unicode="Ŷ" d="M318 0h-47l53 277l-146 397h50l91 -256c24 -68 30 -88 34 -106h2c12 18 39 58 78 111l188 251h53l-304 -399zM428 825h36l86 -115h-49l-59 79h-2l-85 -79h-53z"></glyph><glyph glyph-name="Ygrave" unicode="Ỳ" d="M697 714h31l-323 -408l-43 -306h-42l43 306l-199 408h49l183 -381zM489 784h-32l-115 156h54z"></glyph><glyph glyph-name="Ymacron" unicode="Ȳ" d="M318 0h-47l53 277l-146 397h50l91 -256c24 -68 30 -88 34 -106h2c12 18 39 58 78 111l188 251h53l-304 -399zM340 772h227l-7 -40h-227z"></glyph><glyph glyph-name="Zacute" unicode="Ź" d="M-26 0l6 33l548 598l-1 3h-394l8 40h458l-7 -34l-546 -597l2 -3h437l-8 -40h-503zM447 825h81l-144 -115h-45z"></glyph><glyph glyph-name="Zdotaccent" unicode="Ż" d="M-26 0l6 33l548 598l-1 3h-394l8 40h458l-7 -34l-546 -597l2 -3h437l-8 -40h-503zM371 724c-21 0 -37 21 -37 41c0 19 17 41 39 41s38 -22 38 -41c0 -20 -16 -41 -40 -41z"></glyph><glyph glyph-name="AEacute" unicode="Ǽ" d="M-70 0h-50l516 674h337l-8 -40h-269l-28 -260h256l-8 -40h-254l-32 -294h284l-8 -40h-325l30 279h-229zM172 318h206l23 208c3 29 8 78 13 111h-4c-19 -29 -45 -66 -73 -102zM589 825h81l-144 -115h-45z"></glyph><glyph glyph-name="abreve" unicode="ă" d="M370 609c-25 0 -46 5 -63 14c-18 9 -31 21 -40 36c-9 14 -16 29 -19 46c-3 16 -4 32 -1 49h25c-3 -17 -1 -34 6 -50c6 -17 18 -31 35 -43s37 -18 62 -18c37 0 68 12 93 35c24 23 38 48 42 76h26c-3 -17 -8 -33 -16 -49s-18 -31 -31 -46s-30 -27 -50 -36 c-21 -9 -44 -14 -69 -14zM517 535h41l-76 -535h-41l22 151c-22 -43 -52 -80 -90 -112c-39 -33 -81 -49 -126 -49c-58 0 -105 27 -140 80s-48 118 -37 197c11 80 43 146 96 199c52 53 110 79 173 79s118 -34 165 -103zM468 189l31 224c-44 71 -97 107 -158 107 c-54 0 -103 -24 -147 -73c-45 -49 -72 -109 -82 -180c-9 -69 0 -128 28 -177c28 -50 67 -75 118 -75c41 0 80 17 116 50c35 33 67 75 94 124z"></glyph><glyph glyph-name="amacron" unicode="ā" d="M491 0h-45c-2 30 5 92 15 157h-2c-58 -119 -137 -169 -226 -169c-97 0 -151 77 -151 161c0 179 150 343 348 343c44 0 93 -6 127 -15l-45 -240c-20 -106 -24 -190 -21 -237zM475 286l29 156c-13 5 -37 10 -81 10c-152 0 -293 -125 -293 -298c0 -53 20 -127 113 -127 c95 0 205 114 232 259zM300 641h207l-7 -39h-207z"></glyph><glyph glyph-name="aogonek" unicode="ą" d="M557 477l-45 -240c-20 -106 -24 -190 -21 -237h-7c-39 -42 -66 -85 -66 -120c0 -25 16 -40 38 -40c11 0 26 3 41 11l10 -29c-19 -17 -44 -20 -66 -20c-45 0 -70 30 -70 70c0 55 62 118 75 133c0 32 6 92 15 152h-2c-58 -119 -137 -169 -226 -169c-97 0 -151 77 -151 161 c0 179 150 343 348 343c44 0 93 -6 127 -15zM475 286l29 156c-13 5 -37 10 -81 10c-152 0 -293 -125 -293 -298c0 -53 20 -127 113 -127c95 0 205 114 232 259z"></glyph><glyph glyph-name="a.superior" d="M371 267h-38c0 21 1 52 6 77l-2 -1c-27 -45 -76 -80 -129 -80c-66 0 -98 56 -98 116c0 113 84 213 215 213c27 0 71 -7 90 -13l-36 -205c-6 -38 -8 -78 -8 -107zM350 432l23 117c-15 5 -35 8 -59 8c-82 0 -163 -62 -163 -172c0 -36 12 -86 69 -86s117 58 130 133z"></glyph><glyph glyph-name="cacute" unicode="ć" d="M428 65l14 -39c-21 -11 -80 -38 -164 -38c-139 0 -192 96 -192 181c0 173 133 323 301 323c58 0 111 -21 122 -31l-18 -39c-25 13 -62 27 -111 27c-147 0 -246 -138 -246 -271c0 -87 47 -150 152 -150c66 0 116 23 142 37zM424 682h79l-144 -140h-43z"></glyph><glyph glyph-name="ccaron" unicode="č" d="M428 65l14 -39c-21 -11 -80 -38 -164 -38c-139 0 -192 96 -192 181c0 173 133 323 301 323c58 0 111 -21 122 -31l-18 -39c-25 13 -62 27 -111 27c-147 0 -246 -138 -246 -271c0 -87 47 -150 152 -150c66 0 116 23 142 37zM389 542h-38l-70 140h45l48 -103h3l84 103h48z "></glyph><glyph glyph-name="ccircumflex" unicode="ĉ" d="M428 65l14 -39c-21 -11 -80 -38 -164 -38c-139 0 -192 96 -192 181c0 173 133 323 301 323c58 0 111 -21 122 -31l-18 -39c-25 13 -62 27 -111 27c-147 0 -246 -138 -246 -271c0 -87 47 -150 152 -150c66 0 116 23 142 37zM364 682h38l68 -140h-45l-47 102h-2l-81 -102 h-49z"></glyph><glyph glyph-name="cdotaccent" unicode="ċ" d="M428 65l14 -39c-21 -11 -80 -38 -164 -38c-139 0 -192 96 -192 181c0 173 133 323 301 323c58 0 111 -21 122 -31l-18 -39c-25 13 -62 27 -111 27c-147 0 -246 -138 -246 -271c0 -87 47 -150 152 -150c66 0 116 23 142 37zM392 585c-22 0 -36 19 -36 40s17 40 38 40 c22 0 37 -18 37 -40c0 -21 -13 -40 -39 -40z"></glyph><glyph glyph-name="dcaron" unicode="ď" d="M556 716h47l-115 -600c-7 -39 -14 -77 -18 -116h-43l20 115h-2c-53 -78 -120 -127 -206 -127c-114 0 -157 93 -157 181c0 177 147 323 319 323c42 0 87 -8 111 -19zM468 249l36 182c-23 11 -59 21 -106 21c-144 0 -268 -118 -268 -281c0 -56 17 -144 121 -144 c90 0 195 105 217 222zM619 550l-8 27c27 9 58 31 58 75c0 21 -12 43 -26 54l41 12c15 -9 30 -35 30 -60c0 -68 -52 -101 -95 -108z"></glyph><glyph glyph-name="ebreve" unicode="ĕ" d="M414 65l14 -37c-22 -14 -78 -40 -162 -40c-132 0 -184 98 -184 195c0 150 121 309 269 309c97 0 139 -57 139 -115c0 -136 -175 -154 -356 -150c-8 -29 -4 -84 9 -116c23 -56 70 -83 129 -83c69 0 116 22 142 37zM442 374c0 52 -43 78 -99 78c-100 0 -179 -102 -203 -186 c161 -3 302 13 302 108zM246 684h38c-4 -42 20 -77 62 -77c56 0 81 44 91 77h41c-14 -72 -71 -117 -129 -117c-93 0 -110 67 -103 117z"></glyph><glyph glyph-name="ecaron" unicode="ě" d="M414 65l14 -37c-22 -14 -78 -40 -162 -40c-132 0 -184 98 -184 195c0 150 121 309 269 309c97 0 139 -57 139 -115c0 -136 -175 -154 -356 -150c-8 -29 -4 -84 9 -116c23 -56 70 -83 129 -83c69 0 116 22 142 37zM442 374c0 52 -43 78 -99 78c-100 0 -179 -102 -203 -186 c161 -3 302 13 302 108zM355 542h-38l-70 140h45l48 -103h3l84 103h48z"></glyph><glyph glyph-name="edotaccent" unicode="ė" d="M414 65l14 -37c-22 -14 -78 -40 -162 -40c-132 0 -184 98 -184 195c0 150 121 309 269 309c97 0 139 -57 139 -115c0 -136 -175 -154 -356 -150c-8 -29 -4 -84 9 -116c23 -56 70 -83 129 -83c69 0 116 22 142 37zM442 374c0 52 -43 78 -99 78c-100 0 -179 -102 -203 -186 c161 -3 302 13 302 108zM368 585c-22 0 -36 19 -36 40s17 40 38 40c22 0 37 -18 37 -40c0 -21 -13 -40 -39 -40z"></glyph><glyph glyph-name="emacron" unicode="ē" d="M414 65l14 -37c-22 -14 -78 -40 -162 -40c-132 0 -184 98 -184 195c0 150 121 309 269 309c97 0 139 -57 139 -115c0 -136 -175 -154 -356 -150c-8 -29 -4 -84 9 -116c23 -56 70 -83 129 -83c69 0 116 22 142 37zM442 374c0 52 -43 78 -99 78c-100 0 -179 -102 -203 -186 c161 -3 302 13 302 108zM253 641h207l-7 -39h-207z"></glyph><glyph glyph-name="eogonek" unicode="ę" d="M442 374c0 52 -43 78 -99 78c-100 0 -179 -102 -203 -186c161 -3 302 13 302 108zM369 -139l3 -33c-23 -9 -45 -12 -63 -12c-44 0 -66 28 -66 65c0 46 34 85 67 109v1c-14 -2 -28 -3 -44 -3c-132 0 -184 98 -184 195c0 150 121 309 269 309c97 0 139 -57 139 -115 c0 -136 -175 -154 -356 -150c-8 -29 -4 -84 9 -116c23 -56 70 -83 129 -83c69 0 116 22 142 37l14 -37c-5 -3 -14 -7 -23 -12c-43 -22 -115 -68 -115 -124c0 -25 13 -40 35 -40c14 0 26 1 44 9z"></glyph><glyph glyph-name="gbreve" unicode="ğ" d="M28 -172l18 38c34 -23 79 -39 145 -39c92 0 176 44 214 212l21 93h-3c-45 -83 -122 -132 -208 -132c-113 0 -160 98 -160 171c0 177 142 321 314 321c55 0 126 -20 159 -38l-73 -390c-21 -110 -51 -176 -102 -221s-122 -55 -173 -55c-61 0 -121 16 -152 40zM445 264 l31 163c-20 10 -63 25 -113 25c-151 0 -260 -130 -260 -274c0 -52 20 -139 127 -139c95 0 194 115 215 225zM266 684h38c-4 -42 20 -77 62 -77c56 0 81 44 91 77h41c-14 -72 -71 -117 -129 -117c-93 0 -110 67 -103 117z"></glyph><glyph glyph-name="gcircumflex" unicode="ĝ" d="M28 -172l18 38c34 -23 79 -39 145 -39c92 0 176 44 214 212l21 93h-3c-45 -83 -122 -132 -208 -132c-113 0 -160 98 -160 171c0 177 142 321 314 321c55 0 126 -20 159 -38l-73 -390c-21 -110 -51 -176 -102 -221s-122 -55 -173 -55c-61 0 -121 16 -152 40zM445 264 l31 163c-20 10 -63 25 -113 25c-151 0 -260 -130 -260 -274c0 -52 20 -139 127 -139c95 0 194 115 215 225zM360 682h38l68 -140h-45l-47 102h-2l-81 -102h-49z"></glyph><glyph glyph-name="gcedilla" unicode="ģ" d="M28 -172l18 38c34 -23 79 -39 145 -39c92 0 176 44 214 212l21 93h-3c-45 -83 -122 -132 -208 -132c-113 0 -160 98 -160 171c0 177 142 321 314 321c55 0 126 -20 159 -38l-73 -390c-21 -110 -51 -176 -102 -221s-122 -55 -173 -55c-61 0 -121 16 -152 40zM445 264 l31 163c-20 10 -63 25 -113 25c-151 0 -260 -130 -260 -274c0 -52 20 -139 127 -139c95 0 194 115 215 225zM449 702l8 -27c-47 -7 -98 -29 -98 -80c0 -21 12 -38 26 -49l-41 -12c-15 10 -30 32 -30 57c0 71 72 104 135 111z"></glyph><glyph glyph-name="gdotaccent" unicode="ġ" d="M28 -172l18 38c34 -23 79 -39 145 -39c92 0 176 44 214 212l21 93h-3c-45 -83 -122 -132 -208 -132c-113 0 -160 98 -160 171c0 177 142 321 314 321c55 0 126 -20 159 -38l-73 -390c-21 -110 -51 -176 -102 -221s-122 -55 -173 -55c-61 0 -121 16 -152 40zM445 264 l31 163c-20 10 -63 25 -113 25c-151 0 -260 -130 -260 -274c0 -52 20 -139 127 -139c95 0 194 115 215 225zM368 585c-22 0 -36 19 -36 40s17 40 38 40c22 0 37 -18 37 -40c0 -21 -13 -40 -39 -40z"></glyph><glyph glyph-name="g_tildecomb" unicode="" d="M28 -172l18 38c34 -23 79 -39 145 -39c92 0 176 44 214 212l21 93h-3c-45 -83 -122 -132 -208 -132c-113 0 -160 98 -160 171c0 177 142 321 314 321c55 0 126 -20 159 -38l-73 -390c-21 -110 -51 -176 -102 -221s-122 -55 -173 -55c-61 0 -121 16 -152 40zM445 264 l31 163c-20 10 -63 25 -113 25c-151 0 -260 -130 -260 -274c0 -52 20 -139 127 -139c95 0 194 115 215 225zM282 578h-34c6 44 28 86 68 86c27 0 39 -10 66 -25c14 -8 27 -15 41 -15c17 0 24 9 29 43h34c-7 -50 -23 -83 -65 -83c-23 0 -43 10 -61 21c-13 8 -28 19 -46 19 c-22 0 -27 -20 -32 -46z"></glyph><glyph glyph-name="hcircumflex" unicode="ĥ" d="M143 0h-47l137 716h47l-68 -344h2c44 71 115 120 205 120c37 0 132 -17 132 -140c0 -28 -3 -60 -7 -80l-52 -272h-47l52 272c3 15 7 41 7 72c0 58 -30 107 -105 107c-77 0 -188 -81 -211 -205zM251 855h36l86 -115h-49l-59 79h-2l-85 -79h-53z"></glyph><glyph glyph-name="ibreve" unicode="ĭ" d="M143 0h-47l92 480h47zM135 684h38c-4 -42 20 -77 62 -77c56 0 81 44 91 77h41c-14 -72 -71 -117 -129 -117c-93 0 -110 67 -103 117z"></glyph><glyph glyph-name="imacron" unicode="ī" d="M143 0h-47l92 480h47zM142 641h207l-7 -39h-207z"></glyph><glyph glyph-name="iogonek" unicode="į" d="M162 588c-23 0 -37 21 -37 43s16 43 39 43s38 -20 39 -43c-1 -22 -15 -43 -41 -43zM161 480l-92 -480h-8c-39 -42 -66 -85 -66 -120c0 -25 16 -40 38 -40c11 0 26 3 41 11l10 -29c-19 -17 -44 -20 -66 -20c-45 0 -70 30 -70 70c0 55 62 118 75 133l91 475h47z"></glyph><glyph glyph-name="itilde" unicode="ĩ" d="M8 643l3 19c9 15 21 28 36 40c15 11 33 17 52 17c18 0 41 -8 69 -25s49 -25 63 -25c28 0 55 16 81 49l-3 -19c-9 -15 -21 -28 -36 -39s-33 -17 -52 -17c-17 0 -40 8 -68 25c-29 16 -50 24 -65 24s-30 -5 -44 -15c-15 -11 -27 -22 -36 -34zM44 0l76 535h41l-76 -535h-41z "></glyph><glyph glyph-name="jcircumflex" unicode="ĵ" d="M10 480h47l-93 -484c-15 -78 -32 -132 -62 -164c-29 -31 -67 -44 -102 -44c-22 0 -36 1 -50 6l7 38c8 -3 24 -5 45 -5c53 0 90 37 111 146zM49 682h38l68 -140h-45l-47 102h-2l-81 -102h-49z"></glyph><glyph glyph-name="kcedilla" unicode="ķ" d="M143 0h-47l137 716h47l-90 -469h2c16 17 37 35 51 47l216 186h58l-227 -197l164 -283h-51l-149 257l-74 -59zM123 -210l-8 27c47 7 98 29 98 80c0 21 -12 38 -26 49l41 12c15 -10 30 -32 30 -57c0 -71 -72 -104 -135 -111z"></glyph><glyph glyph-name="lacute" unicode="ĺ" d="M143 0h-47l137 716h47zM331 861h81l-144 -115h-45z"></glyph><glyph glyph-name="lcaron" unicode="ľ" d="M143 0h-47l137 716h47zM291 550l-8 27c27 9 58 31 58 75c0 21 -12 43 -26 54l41 12c15 -9 30 -35 30 -60c0 -68 -52 -101 -95 -108z"></glyph><glyph glyph-name="lcedilla" unicode="ļ" d="M52 0h-47l137 716h47zM-78 -210l-8 27c47 7 98 29 98 80c0 21 -12 38 -26 49l41 12c15 -10 30 -32 30 -57c0 -71 -72 -104 -135 -111z"></glyph><glyph glyph-name="lmiddledot" unicode="ŀ" d="M143 0h-47l137 716h47zM300 335c-22 0 -36 19 -36 40s17 40 38 40c22 0 37 -18 37 -40c0 -21 -13 -40 -39 -40z"></glyph><glyph glyph-name="m_circumflexcomb" unicode="" d="M143 0h-47l69 364c8 39 14 77 19 116h44l-17 -102h3c47 71 115 114 189 114c77 0 119 -45 123 -126c44 77 111 124 203 126c41 0 130 -22 130 -135c0 -23 -2 -53 -7 -81l-53 -276h-47l52 274c3 16 7 44 7 62c0 71 -25 115 -102 115c-73 0 -168 -70 -190 -191l-48 -260 h-47l55 284c4 22 6 39 6 56c0 49 -11 111 -103 111c-73 0 -173 -88 -193 -200zM553 682h38l68 -140h-45l-47 102h-2l-81 -102h-49z"></glyph><glyph glyph-name="nacute" unicode="ń" d="M143 0h-47l69 364c8 39 14 77 19 116h44l-16 -110h2c42 72 119 122 203 122c40 0 135 -16 135 -149c0 -19 -4 -49 -9 -77l-51 -266h-47l52 273c3 18 7 43 7 63c0 65 -26 115 -107 115c-71 0 -186 -76 -211 -215zM471 682h79l-144 -140h-43z"></glyph><glyph glyph-name="ncaron" unicode="ň" d="M143 0h-47l69 364c8 39 14 77 19 116h44l-16 -110h2c42 72 119 122 203 122c40 0 135 -16 135 -149c0 -19 -4 -49 -9 -77l-51 -266h-47l52 273c3 18 7 43 7 63c0 65 -26 115 -107 115c-71 0 -186 -76 -211 -215zM401 542h-38l-70 140h45l48 -103h3l84 103h48z"></glyph><glyph glyph-name="n_circumflexcomb" unicode="" d="M143 0h-47l69 364c8 39 14 77 19 116h44l-16 -110h2c42 72 119 122 203 122c40 0 135 -16 135 -149c0 -19 -4 -49 -9 -77l-51 -266h-47l52 273c3 18 7 43 7 63c0 65 -26 115 -107 115c-71 0 -186 -76 -211 -215zM400 682h38l68 -140h-45l-47 102h-2l-81 -102h-49z"></glyph><glyph glyph-name="ncedilla" unicode="ņ" d="M143 0h-47l69 364c8 39 14 77 19 116h44l-16 -110h2c42 72 119 122 203 122c40 0 135 -16 135 -149c0 -19 -4 -49 -9 -77l-51 -266h-47l52 273c3 18 7 43 7 63c0 65 -26 115 -107 115c-71 0 -186 -76 -211 -215zM185 -210l-8 27c47 7 98 29 98 80c0 21 -12 38 -26 49 l41 12c15 -10 30 -32 30 -57c0 -71 -72 -104 -135 -111z"></glyph><glyph glyph-name="obreve" unicode="ŏ" d="M292 -12c-136 0 -204 105 -204 208c0 169 123 296 272 296c146 0 206 -110 206 -218c0 -141 -112 -286 -274 -286zM297 27c111 0 221 101 221 249c0 64 -37 177 -160 177c-125 0 -222 -112 -222 -255c0 -100 69 -171 161 -171zM288 684h38c-4 -42 20 -77 62 -77 c56 0 81 44 91 77h41c-14 -72 -71 -117 -129 -117c-93 0 -110 67 -103 117z"></glyph><glyph glyph-name="odoubleacute" unicode="ő" d="M292 -12c-136 0 -204 105 -204 208c0 169 123 296 272 296c146 0 206 -110 206 -218c0 -141 -112 -286 -274 -286zM297 27c111 0 221 101 221 249c0 64 -37 177 -160 177c-125 0 -222 -112 -222 -255c0 -100 69 -171 161 -171zM375 681h69l-136 -140h-38zM505 681h69 l-136 -140h-38z"></glyph><glyph glyph-name="omacron" unicode="ō" d="M292 -12c-136 0 -204 105 -204 208c0 169 123 296 272 296c146 0 206 -110 206 -218c0 -141 -112 -286 -274 -286zM297 27c111 0 221 101 221 249c0 64 -37 177 -160 177c-125 0 -222 -112 -222 -255c0 -100 69 -171 161 -171zM303 641h207l-7 -39h-207z"></glyph><glyph glyph-name="oslashacute" unicode="ǿ" d="M94 -27l-24 24l57 60c-37 44 -48 97 -48 149c0 162 125 286 269 286c62 0 107 -18 136 -43l56 58l26 -23l-57 -60c37 -48 48 -103 48 -145c0 -176 -139 -291 -267 -291c-66 0 -108 18 -140 46zM161 90l292 326c-22 22 -59 37 -108 37c-125 0 -218 -119 -218 -247 c0 -51 8 -83 32 -117zM476 388l-295 -323c27 -24 65 -38 112 -38c91 0 215 89 215 245c0 45 -10 82 -30 116h-2zM436 682h79l-144 -140h-43z"></glyph><glyph glyph-name="racute" unicode="ŕ" d="M143 0h-47l62 325c10 52 19 103 26 155h43c-6 -37 -12 -74 -19 -112h3c31 70 84 124 151 124c8 0 20 -1 26 -3l-9 -46c-7 2 -16 3 -29 3c-56 0 -140 -85 -166 -226zM361 682h79l-144 -140h-43z"></glyph><glyph glyph-name="rcaron" unicode="ř" d="M143 0h-47l62 325c10 52 19 103 26 155h43c-6 -37 -12 -74 -19 -112h3c31 70 84 124 151 124c8 0 20 -1 26 -3l-9 -46c-7 2 -16 3 -29 3c-56 0 -140 -85 -166 -226zM302 542h-38l-70 140h45l48 -103h3l84 103h48z"></glyph><glyph glyph-name="rcedilla" unicode="ŗ" d="M94 0h-47l62 325c10 52 19 103 26 155h43c-6 -37 -12 -74 -19 -112h3c31 70 84 124 151 124c8 0 20 -1 26 -3l-9 -46c-7 2 -16 3 -29 3c-56 0 -140 -85 -166 -226zM6 -210l-8 27c47 7 98 29 98 80c0 21 -12 38 -26 49l41 12c15 -10 30 -32 30 -57 c0 -71 -72 -104 -135 -111z"></glyph><glyph glyph-name="sacute" unicode="ś" d="M54 19l17 38c22 -15 60 -29 95 -29c68 0 117 47 117 101c0 44 -15 71 -78 105c-65 35 -82 79 -82 120c0 73 67 138 157 138c39 0 77 -13 92 -25l-17 -40c-14 10 -45 25 -81 25c-59 0 -105 -41 -105 -92c0 -45 25 -69 78 -98c63 -34 83 -79 83 -122 c0 -93 -79 -152 -167 -152c-50 0 -89 16 -109 31zM343 682h79l-144 -140h-43z"></glyph><glyph glyph-name="scedilla" unicode="ş" d="M372 467l-17 -40c-14 10 -45 25 -81 25c-59 0 -105 -41 -105 -92c0 -45 25 -69 78 -98c63 -34 83 -79 83 -122c0 -76 -53 -129 -120 -146l-38 -48c31 -6 49 -30 49 -61c0 -47 -43 -83 -104 -83c-23 0 -46 7 -57 14l16 36c13 -9 31 -13 51 -13c26 0 49 16 49 42 c0 22 -23 34 -62 38l54 69h-5c-50 0 -89 16 -109 31l17 38c22 -15 60 -29 95 -29c68 0 117 47 117 101c0 44 -15 71 -78 105c-65 35 -82 79 -82 120c0 73 67 138 157 138c39 0 77 -13 92 -25z"></glyph><glyph glyph-name="scircumflex" unicode="ŝ" d="M54 19l17 38c22 -15 60 -29 95 -29c68 0 117 47 117 101c0 44 -15 71 -78 105c-65 35 -82 79 -82 120c0 73 67 138 157 138c39 0 77 -13 92 -25l-17 -40c-14 10 -45 25 -81 25c-59 0 -105 -41 -105 -92c0 -45 25 -69 78 -98c63 -34 83 -79 83 -122 c0 -93 -79 -152 -167 -152c-50 0 -89 16 -109 31zM283 682h38l68 -140h-45l-47 102h-2l-81 -102h-49z"></glyph><glyph glyph-name="scommaaccent" unicode="ș" d="M54 19l17 38c22 -15 60 -29 95 -29c68 0 117 47 117 101c0 44 -15 71 -78 105c-65 35 -82 79 -82 120c0 73 67 138 157 138c39 0 77 -13 92 -25l-17 -40c-14 10 -45 25 -81 25c-59 0 -105 -41 -105 -92c0 -45 25 -69 78 -98c63 -34 83 -79 83 -122 c0 -93 -79 -152 -167 -152c-50 0 -89 16 -109 31zM67 -210l-8 27c47 7 98 29 98 80c0 21 -12 38 -26 49l41 12c15 -10 30 -32 30 -57c0 -71 -72 -104 -135 -111z"></glyph><glyph glyph-name="tcaron" unicode="ť" d="M251 571l50 15l-20 -106h133l-8 -38h-133l-50 -268c-6 -32 -11 -56 -11 -91c0 -36 19 -56 54 -56c17 0 32 2 43 6l5 -37c-12 -5 -33 -8 -56 -8c-74 0 -94 52 -94 96c0 33 5 65 11 94l51 264h-78l8 38h78zM377 550l-8 27c27 9 58 31 58 75c0 21 -12 43 -26 54l41 12 c15 -9 30 -35 30 -60c0 -68 -52 -101 -95 -108z"></glyph><glyph glyph-name="tcedilla" unicode="ţ" d="M191 571l50 15l-20 -106h133l-8 -38h-133l-50 -268c-6 -32 -11 -56 -11 -91c0 -36 19 -56 54 -56c17 0 32 2 43 6l5 -37c-12 -5 -33 -8 -56 -8c-74 0 -94 52 -94 96c0 33 5 65 11 94l51 264h-78l8 38h78zM36 -210l-8 27c47 7 98 29 98 80c0 21 -12 38 -26 49l41 12 c15 -10 30 -32 30 -57c0 -71 -72 -104 -135 -111z"></glyph><glyph glyph-name="ubreve" unicode="ŭ" d="M535 480h47l-70 -364c-7 -39 -14 -77 -18 -116h-44l17 104h-2c-39 -62 -112 -116 -186 -116c-52 0 -147 13 -147 159c0 20 3 46 10 81l49 252h47l-50 -259c-6 -31 -9 -54 -9 -75c0 -71 29 -116 110 -116c71 0 175 77 197 194zM298 684h38c-4 -42 20 -77 62 -77 c56 0 81 44 91 77h41c-14 -72 -71 -117 -129 -117c-93 0 -110 67 -103 117z"></glyph><glyph glyph-name="udoubleacute" unicode="ű" d="M535 480h47l-70 -364c-7 -39 -14 -77 -18 -116h-44l17 104h-2c-39 -62 -112 -116 -186 -116c-52 0 -147 13 -147 159c0 20 3 46 10 81l49 252h47l-50 -259c-6 -31 -9 -54 -9 -75c0 -71 29 -116 110 -116c71 0 175 77 197 194zM402 681h69l-136 -140h-38zM532 681h69 l-136 -140h-38z"></glyph><glyph glyph-name="umacron" unicode="ū" d="M535 480h47l-70 -364c-7 -39 -14 -77 -18 -116h-44l17 104h-2c-39 -62 -112 -116 -186 -116c-52 0 -147 13 -147 159c0 20 3 46 10 81l49 252h47l-50 -259c-6 -31 -9 -54 -9 -75c0 -71 29 -116 110 -116c71 0 175 77 197 194zM310 641h207l-7 -39h-207z"></glyph><glyph glyph-name="uogonek" unicode="ų" d="M582 480l-70 -364c-7 -39 -14 -77 -18 -116l-3 7c-39 -42 -66 -86 -66 -121c0 -25 16 -40 38 -40c11 0 26 3 41 11l10 -29c-19 -17 -44 -20 -66 -20c-45 0 -70 30 -70 70c0 56 62 119 75 134l14 92h-2c-39 -62 -112 -116 -186 -116c-52 0 -147 13 -147 159 c0 20 3 46 10 81l49 252h47l-50 -259c-6 -31 -9 -54 -9 -75c0 -71 29 -116 110 -116c71 0 175 77 197 194l49 256h47z"></glyph><glyph glyph-name="uring" unicode="ů" d="M535 480h47l-70 -364c-7 -39 -14 -77 -18 -116h-44l17 104h-2c-39 -62 -112 -116 -186 -116c-52 0 -147 13 -147 159c0 20 3 46 10 81l49 252h47l-50 -259c-6 -31 -9 -54 -9 -75c0 -71 29 -116 110 -116c71 0 175 77 197 194zM424 716c50 0 89 -40 89 -93 c0 -51 -43 -90 -90 -90c-53 0 -92 40 -92 90c0 52 39 93 93 93zM420 686c-30 0 -50 -28 -50 -63c0 -30 22 -60 51 -60c31 0 53 28 53 66c0 31 -22 57 -54 57z"></glyph><glyph glyph-name="utilde" unicode="ũ" d="M324 692c-15 0 -30 -5 -44 -15c-15 -11 -27 -22 -36 -34l3 19c9 15 21 28 36 40c15 11 32 17 51 17c18 0 41 -8 70 -25c28 -17 49 -25 63 -25c28 0 55 16 81 49l-3 -19c-9 -15 -21 -28 -36 -39s-33 -17 -52 -17c-18 0 -41 8 -69 25c-29 16 -50 24 -64 24zM547 535h41 l-76 -535h-41l25 172c-33 -59 -70 -104 -112 -135c-43 -31 -88 -47 -137 -47c-19 0 -36 3 -53 8s-32 14 -45 25c-14 11 -24 27 -30 47s-7 43 -4 69l56 396h41l-56 -395c-6 -41 1 -73 20 -94s46 -32 82 -32c88 0 168 62 241 185z"></glyph><glyph glyph-name="wacute" unicode="ẃ" d="M140 480h44l32 -314c7 -69 7 -87 8 -117h2c8 16 23 52 52 103l187 328h48l51 -323c8 -53 13 -92 15 -108h2c11 30 21 58 41 98l171 333h49l-251 -480h-44l-52 322c-7 43 -12 82 -12 115h-2c-18 -32 -35 -70 -61 -115l-185 -322h-44zM572 682h79l-144 -140h-43z"></glyph><glyph glyph-name="wcircumflex" unicode="ŵ" d="M140 480h44l32 -314c7 -69 7 -87 8 -117h2c8 16 23 52 52 103l187 328h48l51 -323c8 -53 13 -92 15 -108h2c11 30 21 58 41 98l171 333h49l-251 -480h-44l-52 322c-7 43 -12 82 -12 115h-2c-18 -32 -35 -70 -61 -115l-185 -322h-44zM506 682h38l68 -140h-45l-47 102h-2 l-81 -102h-49z"></glyph><glyph glyph-name="wdieresis" unicode="ẅ" d="M140 480h44l32 -314c7 -69 7 -87 8 -117h2c8 16 23 52 52 103l187 328h48l51 -323c8 -53 13 -92 15 -108h2c11 30 21 58 41 98l171 333h49l-251 -480h-44l-52 322c-7 43 -12 82 -12 115h-2c-18 -32 -35 -70 -61 -115l-185 -322h-44zM426 585c-23 0 -37 20 -37 40 c0 21 17 40 38 40c22 0 38 -18 38 -40c0 -20 -14 -40 -39 -40zM605 585c-23 0 -36 20 -36 40c0 21 16 40 38 40s37 -18 37 -40c0 -20 -13 -40 -39 -40z"></glyph><glyph glyph-name="wgrave" unicode="ẁ" d="M140 480h44l32 -314c7 -69 7 -87 8 -117h2c8 16 23 52 52 103l187 328h48l51 -323c8 -53 13 -92 15 -108h2c11 30 21 58 41 98l171 333h49l-251 -480h-44l-52 322c-7 43 -12 82 -12 115h-2c-18 -32 -35 -70 -61 -115l-185 -322h-44zM412 682h69l54 -140h-33z"></glyph><glyph glyph-name="ycircumflex" unicode="ŷ" d="M10 480h48l71 -288c16 -64 25 -104 31 -138h3c14 28 30 62 60 121l155 305h51l-194 -371c-44 -84 -86 -165 -152 -236c-60 -65 -123 -90 -151 -97l-12 40c19 7 59 21 97 52c33 27 73 69 108 130c4 7 3 12 2 18zM238 682h38l68 -140h-45l-47 102h-2l-81 -102h-49z"></glyph><glyph glyph-name="ygrave" unicode="ỳ" d="M146 -241l122 226l-148 550h45l131 -498l267 498h28l-417 -776h-28zM402 605h-32l-115 156h54z"></glyph><glyph glyph-name="ymacron" unicode="ȳ" d="M10 480h48l71 -288c16 -64 25 -104 31 -138h3c14 28 30 62 60 121l155 305h51l-194 -371c-44 -84 -86 -165 -152 -236c-60 -65 -123 -90 -151 -97l-12 40c19 7 59 21 97 52c33 27 73 69 108 130c4 7 3 12 2 18zM160 641h207l-7 -39h-207z"></glyph><glyph glyph-name="zacute" unicode="ź" d="M-28 0l6 30l303 315c44 46 71 68 98 93v4h-302l8 38h358l-8 -34l-298 -310c-48 -50 -73 -72 -98 -94v-4h323l-8 -38h-382zM340 682h79l-144 -140h-43z"></glyph><glyph glyph-name="zdotaccent" unicode="ż" d="M-28 0l6 30l303 315c44 46 71 68 98 93v4h-302l8 38h358l-8 -34l-298 -310c-48 -50 -73 -72 -98 -94v-4h323l-8 -38h-382zM278 585c-22 0 -36 19 -36 40s17 40 38 40c22 0 37 -18 37 -40c0 -21 -13 -40 -39 -40z"></glyph><glyph glyph-name="aeacute" unicode="ǽ" d="M675 64l15 -36c-20 -11 -71 -40 -160 -40s-155 47 -172 130h-2c-41 -86 -124 -130 -207 -130c-88 0 -130 55 -131 121c0 113 120 190 345 179l3 20c9 56 -11 144 -110 144c-50 0 -90 -14 -136 -44l-16 35c67 42 122 49 155 49c93 0 140 -49 148 -124h2 c48 87 136 124 210 124c85 0 133 -49 133 -110c0 -135 -169 -140 -352 -133c-10 -48 -13 -94 6 -140c22 -53 69 -81 128 -81c80 0 117 23 141 36zM345 194l10 55c-104 7 -289 -9 -289 -137c0 -53 36 -84 90 -84c84 0 170 62 189 166zM704 382c0 39 -35 71 -89 71 c-112 0 -187 -102 -207 -165c148 -4 296 -7 296 94zM526 682h79l-144 -140h-43z"></glyph><glyph glyph-name="space_commaaccentcomb" unicode="" d="M98 -210l-8 27c47 7 98 29 98 80c0 21 -12 38 -26 49l41 12c15 -10 30 -32 30 -57c0 -71 -72 -104 -135 -111z"></glyph><glyph glyph-name="acute.cap" unicode="" d="M652 825h81l-144 -115h-45z"></glyph><glyph glyph-name="brevemod.cap" unicode="" d="M402 830h37c0 -30 13 -57 68 -57c51 0 73 24 83 57h40c-10 -50 -50 -97 -123 -97c-83 0 -111 47 -105 97z"></glyph><glyph glyph-name="caronmod.cap" unicode="" d="M508 710h-36l-86 115h52l55 -78h4l84 78h53z"></glyph><glyph glyph-name="cedilla.cap" unicode="" d="M188 0h39l-43 -54c33 -7 48 -33 48 -60c0 -52 -47 -84 -102 -84c-23 0 -47 7 -58 15l15 35c13 -8 29 -13 48 -13c26 0 50 14 50 40c0 23 -21 36 -60 40z"></glyph><glyph glyph-name="circumflexmod.cap" unicode="" d="M468 825h36l86 -115h-49l-59 79h-2l-85 -79h-53z"></glyph><glyph glyph-name="space_commaaccentcomb.cap" unicode="" d="M98 -210l-8 27c47 7 98 29 98 80c0 21 -12 38 -26 49l41 12c15 -10 30 -32 30 -57c0 -71 -72 -104 -135 -111z"></glyph><glyph glyph-name="dieresis.cap" unicode="" d="M391 724c-21 0 -37 21 -37 41c0 19 17 41 39 41s38 -22 38 -41c0 -20 -16 -41 -40 -41zM571 724c-21 0 -37 21 -37 41c0 19 17 41 39 41s38 -22 38 -41c0 -20 -16 -41 -40 -41z"></glyph><glyph glyph-name="dotaccentmod.cap" unicode="" d="M571 724c-21 0 -37 21 -37 41c0 19 17 41 39 41s38 -22 38 -41c0 -20 -16 -41 -40 -41z"></glyph><glyph glyph-name="grave.cap" unicode="" d="M356 825h71l64 -115h-35z"></glyph><glyph glyph-name="doubleacutemod.cap" unicode="" d="M537 825h69l-134 -115h-38zM667 825h69l-134 -115h-38z"></glyph><glyph glyph-name="macron.cap" unicode="" d="M381 772h227l-7 -40h-227z"></glyph><glyph glyph-name="ogonekmod.cap" unicode="" d="M220 2h53c-46 -28 -98 -83 -98 -128c0 -22 13 -34 34 -34c14 0 29 3 44 10l9 -30c-24 -14 -42 -18 -67 -18c-42 0 -67 28 -67 63c0 65 66 119 92 137z"></glyph><glyph glyph-name="ringmod.cap" unicode="" d="M528 863c52 0 87 -38 87 -86c0 -47 -38 -83 -88 -83c-53 0 -89 37 -89 83c0 47 35 86 90 86zM525 836c-29 0 -46 -27 -46 -59c0 -28 19 -55 47 -55c29 0 48 25 48 57s-19 57 -49 57z"></glyph><glyph glyph-name="tildemod.cap" unicode="" d="M391 715h-33c9 43 36 87 74 87c29 0 43 -8 64 -22c15 -10 31 -17 48 -17c16 0 28 15 35 39h33c-10 -49 -34 -82 -74 -82c-26 0 -37 6 -62 20c-19 11 -29 20 -48 19c-17 -1 -30 -19 -37 -44z"></glyph><glyph glyph-name="Alpha-grek" unicode="Α" d="M408 238h-286l-134 -238h-48l386 674h46l126 -674h-46zM147 278h253l-43 237c-5 28 -13 74 -17 108h-2c-18 -35 -33 -66 -55 -105z"></glyph><glyph glyph-name="Beta-grek" unicode="Β" d="M98 2l126 663c40 8 84 14 136 14c78 0 131 -19 163 -59c22 -28 27 -58 27 -91c0 -87 -79 -155 -155 -171v-3c53 -13 120 -57 119 -151c0 -65 -36 -121 -74 -151c-55 -43 -126 -58 -210 -58c-50 0 -97 2 -132 7zM265 633l-49 -257h82c113 0 203 59 203 156 c0 79 -62 109 -149 109c-39 0 -72 -3 -87 -8zM208 338l-56 -298c28 -4 60 -5 85 -5c109 -1 228 36 228 174c0 90 -83 129 -159 129h-98z"></glyph><glyph glyph-name="Gamma-grek" unicode="Γ" d="M225 674h342l-8 -40h-295l-121 -634h-47z"></glyph><glyph glyph-name="Delta-grek" unicode="Δ" d="M-38 0l6 34l384 640h48l154 -640l-6 -34h-586zM23 40h485l-103 429c-12 49 -27 113 -36 154h-2c-16 -29 -50 -83 -79 -132z"></glyph><glyph glyph-name="Epsilon-grek" unicode="Ε" d="M487 376l-8 -40h-272l-56 -296h306l-8 -40h-353l129 674h336l-8 -40h-289l-49 -258h272z"></glyph><glyph glyph-name="Zeta-grek" unicode="Ζ" d="M-26 0l6 33l548 598l-1 3h-394l8 40h458l-7 -34l-546 -597l2 -3h437l-8 -40h-503z"></glyph><glyph glyph-name="Eta-grek" unicode="Η" d="M225 674h47l-57 -296h394l57 296h47l-129 -674h-47l64 338h-394l-64 -338h-47z"></glyph><glyph glyph-name="Theta-grek" unicode="Θ" d="M389 -12c-192 0 -283 135 -283 291c0 108 44 219 123 301c61 62 158 106 253 106c206 0 284 -142 284 -291c0 -111 -39 -215 -115 -295c-65 -69 -154 -112 -262 -112zM396 28c169 0 322 152 322 366c0 102 -41 252 -243 252c-184 0 -321 -175 -321 -362 c0 -135 69 -256 242 -256zM261 369h355l-6 -40h-355z"></glyph><glyph glyph-name="Iota-grek" unicode="Ι" d="M225 674h47l-129 -674h-47z"></glyph><glyph glyph-name="Kappa-grek" unicode="Κ" d="M96 0l129 674h47l-66 -348l6 1c25 28 51 50 73 72l293 275h60l-311 -291l209 -383h-52l-193 354l-96 -84l-52 -270h-47z"></glyph><glyph glyph-name="Lamda-grek" unicode="Λ" d="M499 0h-45l-96 515c-8 45 -13 74 -17 107h-2c-16 -34 -33 -64 -56 -104l-293 -518h-48l385 674h47z"></glyph><glyph glyph-name="Mu-grek" unicode="Μ" d="M737 0h-46l49 403c7 59 24 181 33 222h-3c-29 -55 -68 -132 -108 -200l-252 -425h-37l-77 407c-16 85 -26 162 -33 218h-2c-10 -41 -37 -163 -53 -222l-108 -403h-46l183 674h54l87 -478c10 -54 20 -112 24 -139h2c15 27 42 80 73 133l283 484h56z"></glyph><glyph glyph-name="Nu-grek" unicode="Ν" d="M142 0h-46l129 674h43l233 -470c38 -76 52 -113 66 -155l2 2c2 50 7 91 26 194l82 429h46l-129 -674h-41l-227 463c-43 87 -56 115 -70 159l-3 -2c-7 -58 -13 -102 -30 -193z"></glyph><glyph glyph-name="Xi-grek" unicode="Ξ" d="M153 674h469l-7 -40h-469zM137 370h389l-7 -40h-389zM27 40h487l-7 -40h-487z"></glyph><glyph glyph-name="Omicron-grek" unicode="Ο" d="M389 -12c-192 0 -283 135 -283 291c0 108 44 219 123 301c61 62 158 106 253 106c206 0 284 -142 284 -291c0 -111 -39 -215 -115 -295c-65 -69 -154 -112 -262 -112zM396 28c169 0 322 152 322 366c0 102 -41 252 -243 252c-184 0 -321 -175 -321 -362 c0 -135 69 -256 242 -256z"></glyph><glyph glyph-name="Pi-grek" unicode="Π" d="M713 674l-128 -674h-47l120 634h-394l-121 -634h-47l129 674h488z"></glyph><glyph glyph-name="Rho-grek" unicode="Ρ" d="M96 0l128 665c37 8 87 14 141 14c77 0 139 -21 172 -61c23 -29 34 -63 34 -110c0 -72 -40 -135 -80 -167c-54 -43 -134 -63 -212 -63c-28 0 -53 1 -82 6l-54 -284h-47zM263 630l-58 -304c33 -7 57 -8 83 -8c137 0 236 70 236 190c0 97 -76 132 -167 132 c-44 0 -76 -4 -94 -10z"></glyph><glyph glyph-name="Sigma-grek" unicode="Σ" d="M57 43v-3h449l-7 -40h-517l5 32l325 310l-197 298l5 34h465l-7 -40h-404v-3l193 -293z"></glyph><glyph glyph-name="Tau-grek" unicode="Τ" d="M228 0l121 634h-237l8 40h521l-8 -40h-237l-121 -634h-47z"></glyph><glyph glyph-name="Upsilon-grek" unicode="Υ" d="M170 642l9 38c43 -6 109 -53 144 -109c40 -63 71 -149 68 -254h2c43 114 120 208 183 263c56 49 125 88 169 100l6 -37c-57 -25 -212 -109 -312 -312c-18 -36 -36 -75 -49 -145l-34 -186h-47l35 188c9 52 12 106 8 146c-18 205 -124 291 -182 308z"></glyph><glyph glyph-name="Phi-grek" unicode="Φ" d="M339 -30l11 51c-138 8 -244 110 -244 263c0 257 212 374 362 371l11 49h46l-10 -49c135 -8 243 -105 243 -266c0 -240 -194 -369 -362 -368l-10 -51h-47zM358 60l103 556c-124 2 -307 -102 -307 -327c0 -130 86 -219 204 -229zM507 616l-103 -556c185 7 306 157 306 327 c0 134 -87 220 -203 229z"></glyph><glyph glyph-name="Chi-grek" unicode="Χ" d="M456 0h-50l-88 187c-25 53 -45 98 -55 120h-2c-17 -20 -48 -60 -91 -112l-160 -195h-56l290 342l-149 332h50l91 -209c19 -43 32 -74 40 -91h2c17 18 48 59 74 89l180 211h57l-293 -332z"></glyph><glyph glyph-name="Psi-grek" unicode="Ψ" d="M808 674l-38 -205c-29 -158 -136 -250 -312 -252l-40 -217h-47l40 217c-86 1 -221 39 -221 202c0 35 4 57 10 91l31 164h47l-33 -178c-6 -32 -8 -58 -8 -72c0 -98 49 -157 182 -166l77 416h47l-77 -416c123 4 227 53 257 213l38 203h47z"></glyph><glyph glyph-name="Omega-grek" unicode="Ω" d="M165 40v4c-58 49 -110 141 -110 251c0 207 150 391 372 391c178 0 288 -136 288 -293c0 -161 -103 -285 -210 -349v-4h161l-7 -40h-241l5 34c107 51 244 180 244 354c0 121 -78 259 -245 259c-215 0 -319 -206 -319 -338c0 -143 65 -232 132 -275l-7 -34h-240l7 40h170z "></glyph><glyph glyph-name="Alphatonos-grek" unicode="Ά" d="M408 238h-286l-134 -238h-48l386 674h46l126 -674h-46zM147 278h253l-43 237c-5 28 -13 74 -17 108h-2c-18 -35 -33 -66 -55 -105zM94 674h56l-42 -145h-31z"></glyph><glyph glyph-name="Epsilontonos-grek" unicode="Έ" d="M461 376l-8 -40h-272l-56 -296h306l-8 -40h-353l129 674h336l-8 -40h-289l-49 -258h272zM61 674h56l-42 -145h-31z"></glyph><glyph glyph-name="Etatonos-grek" unicode="Ή" d="M197 674h47l-57 -296h394l57 296h47l-129 -674h-47l64 338h-394l-64 -338h-47zM57 674h56l-42 -145h-31z"></glyph><glyph glyph-name="Iotatonos-grek" unicode="Ί" d="M202 674h47l-129 -674h-47zM67 674h56l-42 -145h-31z"></glyph><glyph glyph-name="Iotadialytika-grek" unicode="Ϊ" d="M163 710c-23 0 -37 20 -37 41s17 41 39 41s38 -19 38 -41c0 -21 -14 -41 -40 -41zM343 710c-23 0 -37 20 -37 41s17 41 39 41s38 -19 38 -41c0 -21 -14 -41 -40 -41zM225 674h47l-129 -674h-47z"></glyph><glyph glyph-name="Omicrontonos-grek" unicode="Ό" d="M352 -12c-192 0 -283 135 -283 291c0 108 44 219 123 301c61 62 158 106 253 106c206 0 284 -142 284 -291c0 -111 -39 -215 -115 -295c-65 -69 -154 -112 -262 -112zM359 28c169 0 322 152 322 366c0 102 -41 252 -243 252c-184 0 -321 -175 -321 -362 c0 -135 69 -256 242 -256zM49 674h56l-42 -145h-31z"></glyph><glyph glyph-name="Upsilontonos-grek" unicode="Ύ" d="M103 642l9 38c43 -6 109 -53 144 -109c40 -63 71 -149 68 -254h2c43 114 120 208 183 263c56 49 125 88 169 100l6 -37c-57 -25 -212 -109 -312 -312c-18 -36 -36 -75 -49 -145l-34 -186h-47l35 188c9 52 12 106 8 146c-18 205 -124 291 -182 308zM13 674h56l-42 -145 h-31z"></glyph><glyph glyph-name="Upsilondialytika-grek" unicode="Ϋ" d="M372 710c-23 0 -37 20 -37 41s17 41 39 41s38 -19 38 -41c0 -21 -14 -41 -40 -41zM552 710c-23 0 -37 20 -37 41s17 41 39 41s38 -19 38 -41c0 -21 -14 -41 -40 -41zM170 642l9 38c43 -6 109 -53 144 -109c40 -63 71 -149 68 -254h2c43 114 120 208 183 263 c56 49 125 88 169 100l6 -37c-57 -25 -212 -109 -312 -312c-18 -36 -36 -75 -49 -145l-34 -186h-47l35 188c9 52 12 106 8 146c-18 205 -124 291 -182 308z"></glyph><glyph glyph-name="Omegatonos-grek" unicode="Ώ" d="M165 40v4c-58 49 -110 141 -110 251c0 207 150 391 372 391c178 0 288 -136 288 -293c0 -161 -102 -285 -209 -349v-4h160l-7 -40h-241l5 34c107 51 244 180 244 354c0 121 -78 259 -245 259c-215 0 -319 -206 -319 -338c0 -143 65 -232 132 -275l-7 -34h-240l7 40h170z M35 674h56l-42 -145h-31z"></glyph><glyph glyph-name="alpha-grek" unicode="α" d="M622 30l5 -19c-23 -14 -47 -21 -74 -21c-57 0 -84 56 -81 168c-21 -43 -42 -77 -63 -101c-40 -45 -87 -67 -141 -67c-15 0 -29 2 -44 5s-30 9 -47 17c-17 7 -32 18 -45 32c-13 13 -24 30 -35 51c-11 20 -17 44 -19 73c-3 28 -2 61 2 98c13 89 44 158 93 207 c49 48 107 72 174 72c64 0 107 -29 129 -86c15 -36 23 -91 24 -164c6 21 27 101 64 240h38c-37 -135 -71 -240 -101 -313c-1 -59 1 -101 4 -125c2 -24 8 -42 17 -55s23 -20 42 -22c21 -2 40 1 58 10zM271 15c48 0 88 18 120 53s60 85 84 151c3 43 4 82 1 119 c-3 36 -9 68 -17 95s-22 48 -42 64c-20 15 -46 23 -77 23c-55 0 -102 -22 -141 -67c-40 -45 -66 -108 -77 -189c-11 -80 -4 -141 23 -184s69 -65 126 -65z"></glyph><glyph glyph-name="beta-grek" unicode="β" d="M372 442c21 -4 42 -11 61 -22s37 -25 54 -42s29 -40 37 -67c7 -27 9 -58 4 -92c-4 -29 -12 -57 -25 -84s-30 -52 -51 -73c-21 -22 -48 -39 -79 -52s-66 -20 -103 -20c-8 0 -16 0 -24 1c-9 1 -16 2 -23 3s-15 2 -23 4c-8 1 -15 3 -20 4c-6 1 -13 3 -20 6c-7 2 -13 4 -17 5 c-5 1 -10 3 -16 6c-7 3 -11 5 -13 6c-3 1 -7 2 -12 5c-6 2 -9 3 -9 4l-39 -275h-40l117 835c8 55 30 99 65 130s82 46 143 46c27 0 52 -3 75 -10c22 -7 40 -15 55 -26s27 -24 36 -39s16 -30 19 -46c3 -17 4 -33 1 -50c-5 -37 -23 -70 -53 -99c-31 -29 -64 -49 -100 -58z M487 224c8 60 -6 108 -43 144c-37 35 -86 56 -148 62l3 22c21 -1 42 2 63 9s40 17 57 30s31 30 43 49c11 19 18 39 21 60c3 17 2 34 -2 51c-5 17 -12 32 -23 47c-11 14 -26 25 -47 34s-46 13 -75 13c-95 0 -150 -50 -165 -150l-75 -538c9 -4 21 -9 36 -14s36 -11 63 -17 s51 -9 74 -9c29 0 55 5 79 14s44 21 60 36c15 15 29 32 41 51c11 19 20 37 26 54c5 17 9 35 12 52z"></glyph><glyph glyph-name="gamma-grek" unicode="γ" d="M197 -200h-49c16 76 41 178 34 272c-10 164 -80 346 -118 408h53c40 -69 104 -249 108 -411h3c76 88 183 248 208 386c2 9 4 17 4 25h47c1 -8 -1 -19 -3 -30c-23 -127 -112 -279 -243 -425c-7 -8 -8 -13 -10 -23c-10 -67 -22 -135 -34 -202z"></glyph><glyph glyph-name="delta-grek" unicode="δ" d="M562 647l-25 -30c-30 36 -88 72 -150 72c-54 0 -81 -26 -81 -56c0 -32 30 -53 73 -89l82 -69c73 -63 109 -126 109 -213c0 -141 -109 -274 -266 -274c-120 0 -216 84 -216 215c0 158 124 262 256 310v4l-21 18c-27 24 -62 52 -62 98c0 45 44 95 126 95 c93 0 149 -50 175 -81zM430 444l-55 46c-102 -38 -239 -125 -239 -282c0 -111 82 -181 174 -181c110 0 212 98 212 233c0 64 -18 121 -92 184z"></glyph><glyph glyph-name="epsilon-grek" unicode="ε" d="M364 238h-87c-95 0 -172 -39 -172 -119c0 -57 56 -92 138 -92c66 0 142 26 168 43l9 -38c-23 -18 -102 -44 -180 -44c-99 0 -182 36 -182 129c0 75 65 134 147 143v4c-63 12 -93 49 -93 93c0 64 71 135 204 135c55 0 112 -16 131 -35l-15 -33c-13 8 -56 30 -125 30 c-90 0 -148 -40 -148 -97c0 -54 62 -81 140 -81h72z"></glyph><glyph glyph-name="zeta-grek" unicode="ζ" d="M512 716l1 -40c-179 -101 -363 -288 -363 -467c0 -88 41 -135 138 -165c29 -9 72 -16 121 -20c5 0 7 -2 7 -6c0 -30 -47 -125 -79 -161l-35 10c14 17 51 91 58 122c-31 4 -66 8 -109 23c-90 31 -149 90 -149 193c0 174 166 364 342 470v2h-92c-48 0 -90 0 -125 10l10 35 c32 -6 77 -6 117 -6h158z"></glyph><glyph glyph-name="eta-grek" unicode="η" d="M212 370h2c42 72 119 122 203 122c40 0 135 -16 135 -149c0 -19 -4 -49 -9 -77l-51 -266c-10 -54 -28 -156 -24 -200h-44c-8 25 9 135 21 200l52 273c3 18 7 43 7 63c0 65 -26 115 -107 115c-71 0 -185 -76 -210 -215l-43 -236h-48l69 364c7 39 15 84 10 116h43 c6 -21 5 -43 -6 -110z"></glyph><glyph glyph-name="theta-grek" unicode="θ" d="M296 -12c-111 0 -184 93 -184 255c0 40 4 95 20 168c30 139 119 317 279 317c116 0 180 -104 179 -241c0 -40 -4 -89 -14 -138c-35 -176 -115 -361 -280 -361zM177 392h359c6 38 6 67 6 100c0 109 -45 197 -138 197c-122 0 -199 -148 -227 -297zM528 353h-358 c-7 -43 -10 -80 -10 -115c0 -137 60 -211 140 -211c117 0 192 136 228 326z"></glyph><glyph glyph-name="iota-grek" unicode="ι" d="M248 480l-72 -378c-10 -54 -6 -75 37 -73l-11 -38c-4 -2 -12 -3 -22 -3c-31 0 -55 16 -56 69c1 27 11 71 21 125l57 298h46z"></glyph><glyph glyph-name="kappa-grek" unicode="κ" d="M252 259v-3c72 -17 108 -71 154 -143l73 -113h-53l-67 103c-50 77 -90 120 -160 120h-16l-41 -223h-46l73 394c5 25 10 68 7 86h43c3 -11 4 -44 -2 -76l-27 -145h6c122 94 211 163 288 221h58v-3c-79 -61 -169 -128 -290 -218z"></glyph><glyph glyph-name="lamda-grek" unicode="λ" d="M349 0l-74 318c-7 30 -16 69 -21 92l-5 1c-11 -18 -30 -57 -48 -89l-184 -322h-51l259 447c7 11 10 20 10 24s0 10 -2 19c-24 100 -43 198 -122 198c-5 0 -9 -1 -14 -1l8 38c9 2 15 3 23 3c82 0 111 -71 150 -230l120 -498h-49z"></glyph><glyph glyph-name="mu-grek" unicode="μ" d="M499 535h41l-76 -535h-41l25 172c-33 -59 -70 -104 -112 -135c-43 -31 -88 -47 -137 -47c-47 0 -82 14 -107 42l-38 -273h-40l93 668l1 6l1 4v4l1 1v3v1l1 4v2l1 3v1v1v2v3l1 2v1v1v2v1l1 1v2v3v1l1 1v1v4l1 3v1v2v1v1l1 1v1v1v1v2l1 2v1v1v1v1v1l1 2v1v2v3l1 1v2v1v1v1 v1l1 4v1v2v1l1 1v1v1v1v1v1v1l1 1v1h41l-56 -395c-6 -41 1 -73 20 -94s46 -32 82 -32c88 0 168 62 241 185z"></glyph><glyph glyph-name="nu-grek" unicode="ν" d="M80 480h48c21 -99 43 -197 64 -296c11 -53 18 -89 28 -138h4c69 86 192 251 223 380c5 21 8 39 9 54h46c0 -10 0 -24 -3 -36c-25 -139 -137 -295 -267 -444h-46c-35 160 -71 320 -106 480z"></glyph><glyph glyph-name="xi-grek" unicode="ξ" d="M433 403h-27c-175 0 -270 -91 -270 -200c0 -83 56 -130 161 -157c50 -13 105 -22 141 -23c5 0 7 -3 7 -8c0 -31 -54 -129 -80 -158l-35 11c14 17 54 93 61 122c-39 4 -98 13 -144 28c-87 29 -159 81 -159 181c0 119 102 201 197 224v4c-55 16 -103 63 -103 127 c0 83 81 174 220 174c58 0 105 -15 126 -33l-17 -34c-16 13 -58 29 -112 29c-107 0 -170 -59 -170 -137c0 -76 72 -112 158 -112h52z"></glyph><glyph glyph-name="omicron-grek" unicode="ο" d="M292 -12c-136 0 -204 105 -204 208c0 169 123 296 272 296c146 0 206 -110 206 -218c0 -141 -112 -286 -274 -286zM297 27c111 0 221 101 221 249c0 64 -37 177 -160 177c-125 0 -222 -112 -222 -255c0 -100 69 -171 161 -171z"></glyph><glyph glyph-name="rho-grek" unicode="ρ" d="M83 -200h-43c-3 35 8 111 24 200l35 189c22 118 52 178 93 223c42 47 100 80 183 80c122 0 187 -96 187 -201c0 -171 -123 -303 -269 -303c-66 0 -136 31 -164 95h-3l-15 -83c-10 -54 -28 -156 -28 -200zM151 215l-4 -22c-2 -9 -3 -19 -3 -29c0 -61 55 -137 151 -137 c115 0 219 108 219 258c0 87 -47 168 -148 168c-93 0 -184 -68 -215 -238z"></glyph><glyph glyph-name="sigma-grek" unicode="σ" d="M468 459v-5c78 -37 98 -132 98 -179c0 -142 -112 -287 -273 -287c-137 0 -205 105 -205 208c0 169 124 296 272 296h124h48h87l-6 -40c-20 0 -81 1 -145 7zM296 27c112 0 222 102 222 249c0 64 -37 177 -160 177c-125 0 -222 -112 -222 -255c0 -99 70 -171 160 -171z"></glyph><glyph glyph-name="tau-grek" unicode="τ" d="M287 30l-6 -37c-8 -3 -21 -5 -33 -5c-40 0 -77 23 -77 92c0 14 2 30 5 48l58 313h-54c-63 0 -94 -5 -120 -8l1 27c17 9 54 20 122 20h279l-11 -39h-170l-58 -314c-3 -17 -4 -31 -4 -42c0 -46 21 -56 47 -56c9 0 14 1 21 1z"></glyph><glyph glyph-name="upsilon-grek" unicode="υ" d="M501 480h47c6 -15 10 -47 10 -86c0 -163 -66 -406 -269 -406c-81 0 -155 56 -155 163c0 14 2 30 5 46l23 123c19 99 22 138 20 160h42c6 -7 8 -39 -1 -84l-36 -197c-3 -16 -4 -30 -4 -43c0 -91 65 -127 117 -127c130 0 210 166 210 367c0 43 -5 74 -9 84z"></glyph><glyph glyph-name="phi-grek" unicode="φ" d="M294 26l61 330c17 94 57 136 123 136c75 0 154 -79 154 -194c0 -190 -138 -307 -298 -310l-35 -188h-47l35 188c-109 12 -201 85 -201 214c0 183 148 275 209 292l16 -30c-56 -21 -177 -100 -177 -253c0 -85 45 -167 160 -185zM402 360l-61 -334c131 6 243 109 243 263 c0 79 -44 163 -112 163c-37 0 -59 -31 -70 -92z"></glyph><glyph glyph-name="chi-grek" unicode="χ" d="M-13 480h51l66 -171c15 -38 30 -77 43 -117h4c26 39 50 74 86 126l114 162h53c-79 -110 -159 -221 -238 -331l140 -341l-45 -16l-68 172c-20 50 -39 99 -58 150h-4c-19 -26 -42 -61 -68 -99c-51 -74 -102 -149 -153 -223l-40 19c82 116 164 231 246 347z"></glyph><glyph glyph-name="psi-grek" unicode="ψ" d="M613 480h48c8 -16 14 -48 14 -91c0 -223 -114 -396 -299 -401l-35 -188h-47l35 188c-108 6 -182 67 -183 183c0 22 2 46 7 72l25 134c7 40 13 85 10 103h44c4 -8 5 -36 -4 -84l-29 -160c-4 -23 -6 -44 -6 -63c3 -102 70 -143 144 -146l108 589h47l-109 -589 c105 0 244 106 244 358c0 50 -8 84 -14 95z"></glyph><glyph glyph-name="omega-grek" unicode="ω" d="M620 492h46c28 -28 56 -96 56 -170c0 -195 -110 -334 -224 -334c-69 0 -110 36 -122 97h-3c-28 -58 -68 -97 -142 -97c-73 0 -145 63 -145 189c0 149 83 272 138 315h50v-2c-58 -46 -140 -161 -140 -310c0 -108 57 -153 107 -153c58 0 111 59 125 140l35 201h47l-34 -183 c-5 -24 -6 -38 -6 -51c0 -46 25 -107 95 -107c71 0 171 107 171 288c0 75 -23 144 -54 175v2z"></glyph><glyph glyph-name="finalsigma-grek" unicode="ς" d="M349 -143l-35 12c14 18 50 92 57 120c-28 3 -80 12 -114 22c-78 23 -167 81 -167 201c0 142 117 280 288 280c48 0 87 -11 110 -26l-17 -36c-27 14 -53 23 -96 23c-130 0 -237 -95 -237 -240c0 -98 63 -146 155 -169c46 -12 77 -16 123 -21c6 -1 8 -4 8 -10 c0 -39 -56 -132 -75 -156z"></glyph><glyph glyph-name="alphatonos-grek" unicode="ά" d="M433 682h79l-144 -140h-43zM468 106h-3c-38 -65 -107 -118 -201 -118c-110 0 -176 79 -176 185c0 171 122 319 276 319c94 0 142 -56 154 -120h4c12 51 21 80 29 108h39c-5 -17 -16 -62 -28 -117c-17 -72 -36 -161 -48 -224c-14 -72 -11 -111 35 -112l-12 -38 c-6 -1 -13 -1 -17 -1c-37 0 -65 36 -52 118zM136 183c0 -90 48 -156 143 -156c81 0 154 74 189 146c12 24 16 43 23 79c3 19 5 38 5 60c0 64 -46 141 -140 141c-104 0 -220 -111 -220 -270z"></glyph><glyph glyph-name="epsilontonos-grek" unicode="έ" d="M341 682h79l-144 -140h-43zM364 238h-87c-95 0 -172 -39 -172 -119c0 -57 56 -92 138 -92c66 0 142 26 168 43l9 -36c-23 -19 -106 -46 -180 -46c-99 0 -182 36 -182 129c0 75 65 134 147 143v4c-63 12 -93 49 -93 93c0 64 71 135 204 135c55 0 112 -16 131 -35l-15 -33 c-13 8 -56 30 -125 30c-90 0 -148 -40 -148 -97c0 -54 62 -81 140 -81h72z"></glyph><glyph glyph-name="etatonos-grek" unicode="ή" d="M457 682h79l-144 -140h-43zM212 370h2c42 72 119 122 203 122c40 0 135 -16 135 -149c0 -19 -4 -49 -9 -77l-51 -266c-10 -54 -28 -156 -24 -200h-44c-8 25 9 135 21 200l52 273c3 18 7 43 7 63c0 65 -26 115 -107 115c-71 0 -185 -76 -210 -215l-43 -236h-48l69 364 c7 39 15 84 10 116h43c6 -21 5 -43 -6 -110z"></glyph><glyph glyph-name="iotatonos-grek" unicode="ί" d="M313 682h79l-144 -140h-43zM248 480l-72 -378c-10 -54 -6 -75 37 -73l-11 -38c-4 -2 -12 -3 -22 -3c-31 0 -56 18 -56 69c0 23 10 68 21 125l57 298h46z"></glyph><glyph glyph-name="iotadialytika-grek" unicode="ϊ" d="M133 564c-23 0 -37 20 -37 41s17 41 39 41s38 -19 38 -41c0 -21 -14 -41 -40 -41zM313 564c-23 0 -37 20 -37 41s17 41 39 41s38 -19 38 -41c0 -21 -14 -41 -40 -41zM234 480l-72 -378c-10 -54 -6 -75 37 -73l-11 -38c-4 -2 -12 -3 -22 -3c-31 0 -56 18 -56 68 c0 22 10 66 21 126l57 298h46z"></glyph><glyph glyph-name="omicrontonos-grek" unicode="ό" d="M431 682h79l-144 -140h-43zM292 -12c-136 0 -204 105 -204 208c0 169 123 296 272 296c146 0 206 -110 206 -218c0 -141 -112 -286 -274 -286zM297 27c111 0 221 101 221 249c0 64 -37 177 -160 177c-125 0 -222 -112 -222 -255c0 -100 69 -171 161 -171z"></glyph><glyph glyph-name="upsilontonos-grek" unicode="ύ" d="M428 682h79l-144 -140h-43zM501 480h47c6 -15 10 -47 10 -86c0 -163 -69 -406 -272 -406c-81 0 -152 56 -152 163c0 14 2 30 5 46l23 123c19 99 22 138 20 160h42c6 -7 8 -39 -1 -84l-36 -197c-3 -16 -4 -30 -4 -43c0 -91 63 -127 115 -127c130 0 212 166 212 367 c0 43 -5 74 -9 84z"></glyph><glyph glyph-name="upsilondialytika-grek" unicode="ϋ" d="M286 564c-23 0 -37 20 -37 41s17 41 39 41s38 -19 38 -41c0 -21 -14 -41 -40 -41zM466 564c-23 0 -37 20 -37 41s17 41 39 41s38 -19 38 -41c0 -21 -14 -41 -40 -41zM501 480h47c6 -15 10 -47 10 -86c0 -163 -69 -406 -272 -406c-81 0 -152 56 -152 163c0 14 2 30 5 46 l23 123c19 99 22 138 20 160h42c6 -7 8 -39 -1 -84l-36 -197c-3 -16 -4 -30 -4 -43c0 -91 63 -127 115 -127c130 0 212 166 212 367c0 43 -5 74 -9 84z"></glyph><glyph glyph-name="omegatonos-grek" unicode="ώ" d="M522 682h79l-144 -140h-43zM620 492h46c28 -28 56 -96 56 -170c0 -195 -110 -334 -224 -334c-69 0 -110 36 -122 97h-3c-28 -58 -68 -97 -142 -97c-73 0 -145 63 -145 189c0 149 83 272 138 315h50v-2c-58 -46 -140 -161 -140 -310c0 -108 57 -153 107 -153 c58 0 111 59 125 140l35 201h47l-34 -183c-5 -24 -6 -38 -6 -51c0 -46 24 -107 94 -107c71 0 172 107 172 288c0 75 -23 144 -54 175v2z"></glyph><glyph glyph-name="iotadialytikatonos-grek" unicode="ΐ" d="M235 480l-72 -378c-10 -54 -6 -75 37 -73l-11 -38c-4 -2 -12 -3 -22 -3c-31 0 -56 18 -56 70c0 23 10 65 21 124l57 298h46zM253 686h63l-102 -148h-32zM133 565c-22 0 -35 19 -35 39s16 39 37 39s36 -18 36 -39c0 -20 -13 -39 -38 -39zM350 565c-22 0 -35 19 -35 39 s16 39 37 39s36 -18 36 -39c0 -20 -13 -39 -38 -39z"></glyph></font>
</defs>
</svg>
