<?xml version="1.0" encoding="UTF-8" standalone="no"?> <svg xmlns="http://www.w3.org/2000/svg" xmlns:xlink="http://www.w3.org/1999/xlink" version="1.1"><metadata> Created by FontForge 20170924 at Fri Feb 28 09:44:11 2020 By www-data </metadata><defs><font id="HeritageSans-ExtraLight"><glyph glyph-name="ff" unicode="ff" d="M440 0h-49v441h-254v-441h-49v441h-73v39h73v15c0 78 18 140 57 179c27 27 64 42 112 42c33 0 64 -12 80 -23l-19 -37c-15 10 -40 19 -66 19c-92 0 -115 -82 -115 -174v-21h254v23c0 82 17 143 58 182c30 28 70 43 114 43c34 0 64 -9 79 -18l-16 -38c-15 8 -35 15 -67 15 c-98 0 -119 -86 -119 -183v-24h141v-39h-141v-441z"></glyph><glyph glyph-name="ffi" unicode="ffi" d="M706 692l-24 -38c-23 18 -62 33 -105 33c-107 0 -137 -86 -137 -179v-28h295v-480h-49v441h-246v-441h-49v441h-254v-441h-49v441h-73v39h73v22c0 64 18 128 60 170c27 27 65 44 115 44c35 0 73 -15 93 -27l-20 -38c-19 12 -49 24 -78 24c-34 0 -59 -11 -77 -30 c-34 -34 -44 -92 -44 -147v-18h254v29c0 130 62 219 195 219c43 0 95 -16 120 -36z"></glyph><glyph glyph-name="f_f_j" unicode="ffj" d="M706 692l-24 -38c-23 18 -62 33 -105 33c-107 0 -137 -86 -137 -179v-28h295v-445c0 -83 -10 -146 -55 -194c-38 -40 -105 -53 -140 -53l-5 40c48 1 87 14 111 39c28 30 40 68 40 204v370h-246v-441h-49v441h-254v-441h-49v441h-73v39h73v22c0 64 18 128 60 170 c27 27 65 44 115 44c35 0 73 -15 93 -27l-20 -38c-19 12 -49 24 -78 24c-34 0 -59 -11 -77 -30c-34 -34 -44 -92 -44 -147v-18h254v29c0 130 62 219 195 219c43 0 95 -16 120 -36z"></glyph><glyph glyph-name="ffl" unicode="ffl" d="M355 693l-20 -38c-23 13 -49 20 -75 20c-35 0 -60 -11 -79 -30c-33 -33 -44 -88 -44 -145v-20h254v18c0 80 23 140 69 182c34 30 81 48 148 48c51 0 96 -11 127 -27v-701h-49v671c-18 9 -44 16 -88 16c-121 0 -158 -86 -158 -181v-26h141v-39h-141v-441h-49v441h-254 v-441h-49v441h-73v39h73v10c0 63 12 136 58 182c27 27 65 44 118 44c37 0 75 -14 91 -23z"></glyph><glyph glyph-name="f_i" unicode="fi" d="M137 0h-49v441h-73v39h73v29c0 130 62 219 195 219c43 0 95 -16 120 -36l-24 -38c-23 18 -62 33 -105 33c-107 0 -137 -86 -137 -179v-28h295v-480h-49v441h-246v-441z"></glyph><glyph glyph-name="f_j" unicode="fj" d="M137 0h-49v441h-73v39h73v29c0 130 62 219 195 219c43 0 95 -16 120 -36l-24 -38c-23 18 -62 33 -105 33c-107 0 -137 -86 -137 -179v-28h295v-445c0 -83 -10 -146 -55 -194c-38 -40 -105 -53 -140 -53l-5 40c48 1 87 14 111 39c28 30 40 68 40 204v370h-246v-441z"></glyph><glyph glyph-name="f_l" unicode="fl" d="M137 0h-49v441h-73v39h73v18c0 80 23 140 69 182c34 30 81 48 148 48c51 0 96 -11 127 -27v-701h-49v671c-18 9 -44 16 -88 16c-121 0 -158 -86 -158 -181v-26h141v-39h-141v-441z"></glyph><glyph glyph-name=".notdef" d="M0 0v700h500v-700h-500zM250 395l170 255h-340zM280 350l170 -255v510zM80 50h340l-170 255zM50 605v-510l170 255z"></glyph><glyph glyph-name=".notdef" d="M0 0v700h500v-700h-500zM250 395l170 255h-340zM280 350l170 -255v510zM80 50h340l-170 255zM50 605v-510l170 255z"></glyph><glyph glyph-name="space" unicode=" "></glyph><glyph glyph-name="exclam" unicode="!" d="M107 154l-8 560h42l-8 -560h-26zM120 -4c-9 0 -17 3 -23 10c-7 7 -10 14 -10 23s3 16 10 23c6 7 14 10 23 10s17 -3 24 -10c6 -7 9 -14 9 -23s-3 -16 -9 -23c-7 -7 -15 -10 -24 -10z"></glyph><glyph glyph-name="quotedbl" unicode="&quot;" d="M78 550l-8 215h41l-8 -215h-25zM214 550l-8 215h41l-8 -215h-25z"></glyph><glyph glyph-name="numbersign" unicode="#" d="M132 0l42 218h-136v33h142l41 210h-137v32h143l42 221h34l-43 -221h193l43 221h33l-42 -221h136v-32h-142l-41 -210h136v-33h-142l-43 -218h-33l42 218h-193l-42 -218h-33zM214 251h193l40 210h-193z"></glyph><glyph glyph-name="dollar" unicode="$" d="M540 195c0 -62 -20 -111 -60 -147c-41 -36 -96 -55 -167 -58v-80h-25v80c-38 1 -73 7 -104 17c-32 9 -62 27 -89 53c-28 26 -48 59 -59 98l19 10c40 -99 118 -150 233 -152v338c-4 1 -11 2 -21 5c-10 2 -18 4 -23 5c-18 4 -33 8 -46 12c-13 3 -28 10 -46 19 c-19 9 -34 20 -45 33c-11 12 -21 28 -30 49s-13 44 -13 71c0 59 19 104 56 133s88 43 153 43h15v65h25v-67c91 -9 159 -58 202 -147l-19 -10c-42 79 -103 122 -183 131v-305c29 -6 53 -12 72 -17s40 -13 61 -23c21 -11 38 -22 51 -35c12 -13 22 -30 31 -50 c8 -21 12 -44 12 -71zM107 553c0 -27 4 -49 13 -67c9 -19 22 -34 41 -45s37 -20 55 -26s42 -12 72 -18v301h-12c-113 0 -169 -48 -169 -145zM313 16c61 3 108 19 139 49c31 29 46 69 46 119c0 27 -4 51 -13 70s-22 35 -41 47s-38 21 -57 28c-19 6 -43 13 -74 20v-333z"></glyph><glyph glyph-name="percent" unicode="%" d="M202 720c49 0 88 -21 116 -62c27 -42 41 -95 41 -158c0 -64 -14 -117 -41 -158c-28 -41 -67 -62 -116 -62s-88 21 -115 62c-28 41 -42 94 -42 158c0 63 14 116 42 158c27 41 66 62 115 62zM636 714h30l-401 -714h-30zM202 304c39 0 69 18 88 55c19 36 29 83 29 141 s-10 105 -29 142c-19 36 -49 54 -88 54c-40 0 -69 -18 -88 -54c-19 -37 -29 -84 -29 -142s10 -105 29 -141c19 -37 48 -55 88 -55zM699 434c49 0 88 -21 116 -62c27 -42 41 -95 41 -158c0 -64 -14 -117 -41 -158c-28 -41 -67 -62 -116 -62s-88 21 -115 62 c-28 41 -42 94 -42 158c0 63 14 116 42 158c27 41 66 62 115 62zM699 18c39 0 69 18 88 55c19 36 29 83 29 141s-10 105 -29 142c-19 36 -49 54 -88 54c-40 0 -69 -18 -88 -54c-19 -37 -29 -84 -29 -142s10 -105 29 -141c19 -37 48 -55 88 -55z"></glyph><glyph glyph-name="ampersand" unicode="&amp;" d="M671 0h-56l-113 103c-63 -75 -138 -113 -225 -113c-63 0 -116 21 -160 62s-66 93 -66 156c0 43 11 83 34 121c23 37 57 69 103 94c-33 47 -49 90 -49 131c0 45 14 84 42 119c27 34 67 51 119 51c33 0 62 -7 87 -21c24 -15 41 -33 51 -55l-18 -10c-9 17 -23 31 -43 43 c-21 11 -45 17 -72 17c-43 0 -74 -14 -95 -41s-32 -58 -32 -91c0 -49 25 -103 75 -162c49 -59 131 -140 246 -245c36 58 54 122 54 192h39c0 -79 -22 -152 -66 -217zM277 16c37 0 73 10 108 30c35 19 65 46 92 80c-138 128 -228 219 -271 273c-37 -21 -65 -48 -84 -82 s-28 -70 -28 -109c0 -57 18 -103 54 -138c35 -36 78 -54 129 -54z"></glyph><glyph glyph-name="quoteright" unicode="’" d="M69 566c38 37 57 73 57 109c0 11 -2 21 -6 30h-11c-7 1 -13 4 -18 11c-5 6 -8 13 -8 21c0 9 3 16 10 23c6 7 14 10 23 10c13 0 24 -8 32 -23s12 -32 12 -51c0 -25 -7 -50 -21 -76c-14 -27 -33 -49 -58 -68c-2 2 -4 5 -6 8z"></glyph><glyph glyph-name="parenleft" unicode="(" d="M206 -165c-105 114 -158 260 -158 437c0 184 53 331 158 442l19 -16c-44 -53 -77 -116 -100 -190s-35 -152 -35 -234s12 -160 35 -234s57 -137 100 -189z"></glyph><glyph glyph-name="parenright" unicode=")" d="M53 -165l-19 16c43 52 77 115 100 189s35 152 35 234s-11 160 -34 234s-57 137 -101 190l19 16c105 -111 158 -258 158 -442c0 -177 -53 -323 -158 -437z"></glyph><glyph glyph-name="asterisk" unicode="*" d="M150 445l-34 25l93 116l-143 39l13 39l138 -51l-7 147h42l-7 -147l139 51l13 -39l-143 -39l92 -116l-33 -25l-82 123z"></glyph><glyph glyph-name="plus" unicode="+" d="M518 369v-32h-214v-223h-35v223h-214v32h214v223h35v-223h214z"></glyph><glyph glyph-name="comma" unicode="," d="M51 -142c38 37 57 73 57 109c0 11 -2 21 -6 30h-11c-7 1 -13 4 -18 11c-5 6 -8 13 -8 21c0 9 3 16 10 23c6 7 14 10 23 10c13 0 24 -8 32 -23s12 -32 12 -51c0 -25 -7 -50 -21 -76c-14 -27 -33 -49 -58 -68c-2 2 -4 5 -6 8z"></glyph><glyph glyph-name="hyphenminus" unicode="-" d="M58 256v25h240v-25h-240z"></glyph><glyph glyph-name="period" unicode="." d="M84 -4c-9 0 -17 3 -23 10c-7 7 -10 14 -10 23s3 16 10 23c6 7 14 10 23 10s17 -3 24 -10c6 -7 9 -14 9 -23s-3 -16 -9 -23c-7 -7 -15 -10 -24 -10z"></glyph><glyph glyph-name="slash" unicode="/" d="M27 0l266 714h35l-266 -714h-35z"></glyph><glyph glyph-name="zero" unicode="0" d="M295 724c82 0 146 -35 191 -104s67 -157 67 -263c0 -107 -22 -194 -67 -263s-109 -104 -191 -104s-146 35 -191 104s-68 156 -68 263c0 106 23 194 68 263s109 104 191 104zM295 16c73 0 127 31 162 94s53 145 53 247c0 101 -18 184 -53 247s-89 94 -162 94 s-128 -31 -163 -94s-53 -146 -53 -247c0 -102 18 -184 53 -247s90 -94 163 -94z"></glyph><glyph glyph-name="one" unicode="1" d="M287 714h41v-688h163v-26h-371v26h167v654l-173 -161l-17 18z"></glyph><glyph glyph-name="two" unicode="2" d="M65 0v26l268 307c1 1 5 7 14 16s15 17 20 23c5 5 12 14 21 26c9 11 16 22 22 33c5 11 11 23 17 36s11 27 14 42c3 14 4 28 4 43c0 44 -14 79 -42 106c-29 27 -70 40 -123 40c-39 0 -74 -7 -103 -21c-29 -15 -52 -33 -68 -55l-19 10c15 25 40 47 76 65c35 18 77 27 124 27 c63 0 112 -16 147 -49c34 -33 51 -75 51 -126c0 -34 -7 -66 -22 -95s-37 -61 -66 -95l-288 -326h407v-33h-454z"></glyph><glyph glyph-name="three" unicode="3" d="M89 103c18 -25 43 -46 76 -62c33 -17 70 -25 112 -25c63 0 111 17 142 51s46 76 46 126c0 116 -86 174 -257 174v24c152 0 228 58 228 173c0 40 -12 72 -37 97s-64 37 -117 37c-77 0 -133 -25 -170 -76l-19 10c15 25 40 46 75 65c34 18 75 27 123 27c53 0 97 -12 133 -37 s54 -66 54 -121s-17 -98 -52 -129s-74 -50 -117 -55c24 -2 47 -7 69 -14c21 -7 42 -18 63 -32c20 -14 36 -33 49 -57c12 -25 18 -53 18 -85c0 -57 -19 -105 -56 -144c-37 -40 -92 -60 -165 -60c-53 0 -99 11 -137 32s-64 44 -79 71z"></glyph><glyph glyph-name="four" unicode="4" d="M428 231h122v-25h-122v-206h-42v206h-356v25l356 483h42v-483zM386 231v441l-324 -441h324z"></glyph><glyph glyph-name="five" unicode="5" d="M283 -10c-51 0 -94 10 -131 31c-37 20 -63 45 -78 75l18 10c20 -29 46 -52 78 -67c31 -15 64 -23 99 -23c22 0 44 3 65 9s41 16 62 30c20 13 36 34 49 61s19 58 19 95c0 31 -5 59 -14 83s-21 43 -36 57c-15 13 -32 24 -52 33s-39 15 -57 18s-37 4 -57 4 c-57 0 -99 -11 -124 -32l-18 13v327h351v-33h-325v-275c33 17 75 26 124 26c45 0 85 -6 119 -19s60 -31 79 -53c18 -22 31 -45 40 -70s13 -52 13 -79s-4 -53 -12 -78c-9 -25 -21 -49 -38 -71s-41 -39 -71 -52s-64 -20 -103 -20z"></glyph><glyph glyph-name="six" unicode="6" d="M333 429c55 0 102 -18 141 -53c39 -36 59 -86 59 -150c0 -69 -23 -125 -68 -169c-46 -45 -103 -67 -170 -67c-30 0 -58 5 -84 15s-51 26 -74 49s-42 55 -55 98c-13 42 -20 92 -20 151c0 125 28 226 84 304c55 78 122 117 200 117c28 0 56 -5 83 -16s49 -27 65 -47 l-16 -13c-33 35 -76 52 -127 52c-73 0 -131 -37 -176 -110s-68 -167 -69 -281c25 35 59 63 100 86s84 34 127 34zM294 16c55 0 101 19 139 56s57 88 57 153c0 56 -15 100 -44 132c-29 31 -69 47 -120 47c-47 0 -90 -12 -129 -37s-70 -54 -91 -85c3 -89 21 -156 54 -200 s77 -66 134 -66z"></glyph><glyph glyph-name="seven" unicode="7" d="M162 0c20 93 60 200 119 321s134 241 225 360h-429v33h466v-25c-75 -98 -145 -213 -212 -344s-109 -246 -126 -345h-43z"></glyph><glyph glyph-name="eight" unicode="8" d="M325 390c72 -31 124 -61 156 -90s48 -67 48 -114c0 -59 -22 -106 -67 -142s-101 -54 -167 -54c-24 0 -48 3 -72 9c-25 5 -50 14 -75 27c-26 13 -47 32 -63 59c-16 26 -24 57 -24 93c0 96 59 164 178 203c-51 26 -89 52 -112 79s-35 59 -35 98c0 53 19 94 58 123 s89 43 150 43s109 -13 145 -40c35 -27 53 -65 53 -113c0 -22 -4 -42 -13 -61s-19 -35 -30 -47s-26 -23 -44 -34s-33 -18 -44 -23c-12 -5 -26 -11 -42 -16zM130 568c0 -19 4 -36 11 -51s14 -28 23 -37c8 -10 21 -20 40 -31c18 -11 33 -20 44 -25s29 -13 54 -24 c27 15 47 26 60 33c12 7 27 18 46 33s32 31 40 48s12 37 12 58c0 39 -14 71 -42 94c-29 23 -69 35 -120 35s-92 -12 -122 -35c-31 -23 -46 -56 -46 -98zM293 13c62 0 111 16 146 47s52 72 52 121c0 30 -8 55 -25 76s-48 41 -91 62c-5 2 -21 9 -50 22s-50 22 -64 29 c-21 -9 -39 -19 -55 -28s-33 -22 -50 -37c-18 -15 -32 -34 -41 -55c-10 -22 -15 -46 -15 -72c0 -49 17 -89 51 -119c34 -31 81 -46 142 -46z"></glyph><glyph glyph-name="nine" unicode="9" d="M294 724c30 0 58 -5 84 -15s51 -26 74 -49s42 -55 55 -97c13 -43 20 -93 20 -152c0 -125 -28 -226 -83 -304c-56 -78 -123 -117 -201 -117c-28 0 -56 6 -83 17s-49 26 -65 46l16 13c33 -35 76 -52 127 -52c73 0 131 37 176 110s68 167 69 281c-25 -35 -59 -63 -100 -86 s-84 -34 -127 -34c-55 0 -102 18 -141 54c-39 35 -59 85 -59 149c0 69 23 125 69 170c45 44 102 66 169 66zM263 310c47 0 90 13 129 38s70 53 91 84c-3 89 -20 156 -53 200s-78 66 -135 66c-55 0 -101 -18 -139 -55s-57 -89 -57 -154c0 -56 15 -100 44 -131 c29 -32 69 -48 120 -48z"></glyph><glyph glyph-name="colon" unicode=":" d="M84 479c-9 0 -17 3 -23 10c-7 6 -10 14 -10 23s3 17 10 24c6 6 14 9 23 9s17 -3 24 -9c6 -7 9 -15 9 -24s-3 -17 -9 -23c-7 -7 -15 -10 -24 -10zM84 -4c-9 0 -17 3 -23 10c-7 7 -10 14 -10 23s3 16 10 23c6 7 14 10 23 10s17 -3 24 -10c6 -7 9 -14 9 -23s-3 -16 -9 -23 c-7 -7 -15 -10 -24 -10z"></glyph><glyph glyph-name="semicolon" unicode=";" d="M90 479c-9 0 -17 3 -23 10c-7 6 -10 14 -10 23s3 17 10 24c6 6 14 9 23 9s17 -3 24 -9c6 -7 9 -15 9 -24s-3 -17 -9 -23c-7 -7 -15 -10 -24 -10zM51 -142c38 37 57 73 57 109c0 11 -2 21 -6 30h-11c-7 1 -13 4 -18 11c-5 6 -8 13 -8 21c0 9 3 16 10 23c6 7 14 10 23 10 c13 0 24 -8 32 -23s12 -32 12 -51c0 -25 -7 -50 -21 -76c-14 -27 -33 -49 -58 -68c-2 2 -4 5 -6 8z"></glyph><glyph glyph-name="less" unicode="&lt;" d="M440 541v-36l-346 -153l346 -154v-36l-399 178v23z"></glyph><glyph glyph-name="equal" unicode="=" d="M69 442h450v-33h-450v33zM69 265v32h450v-32h-450z"></glyph><glyph glyph-name="greater" unicode="&gt;" d="M52 162v36l346 153l-346 154v36l399 -178v-23z"></glyph><glyph glyph-name="question" unicode="?" d="M170 155c-3 47 4 88 19 121s40 66 74 97c4 4 15 14 33 30c17 15 28 26 33 31s12 15 22 29s17 28 20 43c3 14 4 30 4 49c0 97 -50 145 -149 145c-89 0 -146 -38 -171 -113l-21 7c28 87 94 130 198 130c124 0 186 -59 186 -176c0 -24 -2 -45 -7 -63s-15 -35 -28 -52 c-14 -17 -27 -31 -39 -42c-13 -11 -32 -28 -58 -49c-60 -48 -90 -110 -90 -187h-26zM182 -4c-9 0 -17 3 -23 10c-7 7 -10 14 -10 23s3 16 10 23c6 7 14 10 23 10s17 -3 24 -10c6 -7 9 -14 9 -23s-3 -16 -9 -23c-7 -7 -15 -10 -24 -10z"></glyph><glyph glyph-name="at" unicode="@" d="M358 -10c-57 0 -107 10 -150 30s-77 47 -101 82c-25 34 -42 73 -51 117c-10 43 -12 90 -7 139c13 110 56 199 129 266s162 100 268 100c58 0 109 -11 154 -32c45 -22 80 -51 106 -86c25 -35 44 -75 55 -118s13 -88 8 -134c-7 -59 -24 -106 -53 -143s-64 -55 -103 -55 c-37 0 -65 15 -83 46c-7 12 -11 25 -13 38c-53 -57 -107 -85 -161 -85c-47 0 -85 19 -115 57s-42 88 -36 150c5 62 26 112 62 150s78 57 125 57c48 0 93 -24 136 -72l5 67h41c-15 -179 -22 -284 -19 -315c1 -11 3 -20 6 -26c4 -11 11 -21 22 -30c10 -9 22 -13 36 -13 c26 0 49 15 70 45s34 74 39 133c9 102 -11 184 -62 247s-125 94 -223 94c-97 0 -178 -31 -241 -93c-64 -62 -101 -145 -111 -248c-10 -101 10 -183 59 -247s120 -96 215 -96c45 0 87 7 127 20c39 13 69 28 89 44l9 -22c-27 -21 -62 -38 -104 -49c-42 -12 -85 -18 -128 -18z M364 177c53 0 103 29 149 86c-2 25 -1 58 3 99l9 107c-37 52 -79 78 -128 78c-47 0 -84 -21 -111 -62c-28 -42 -42 -91 -42 -148c0 -49 11 -87 32 -116s50 -44 88 -44z"></glyph><glyph glyph-name="A" unicode="A" d="M581 0l-106 266h-323l-106 -266h-28l285 714h38l285 -714h-45zM162 292h303l-151 381z"></glyph><glyph glyph-name="B" unicode="B" d="M446 375c49 -12 86 -34 109 -66c23 -33 34 -71 34 -114c0 -58 -19 -105 -58 -141s-91 -54 -156 -54h-280v714h254c67 0 120 -16 159 -49s59 -77 59 -132c0 -45 -12 -80 -36 -106c-25 -26 -53 -43 -85 -52zM137 688v-302h224c44 0 82 12 115 36c32 23 48 61 48 113 c0 51 -16 90 -48 115c-33 25 -71 38 -115 38h-224zM371 26c47 0 88 15 123 44s52 71 52 126s-17 96 -51 124c-35 27 -76 41 -124 41l-234 -1v-334h234z"></glyph><glyph glyph-name="C" unicode="C" d="M390 -9c-99 0 -181 37 -246 110s-98 159 -98 260c0 103 34 190 103 259s149 104 242 104c56 0 109 -14 158 -41s87 -64 112 -109l-19 -10c-63 89 -146 134 -248 134c-89 0 -162 -32 -219 -97s-86 -146 -86 -242c0 -95 28 -176 85 -243s130 -100 220 -100 c103 0 189 45 260 134l19 -10c-31 -47 -71 -83 -121 -109c-50 -27 -104 -40 -162 -40z"></glyph><glyph glyph-name="D" unicode="D" d="M95 0v714h241c93 0 172 -35 236 -105c63 -71 95 -154 95 -251s-32 -181 -96 -252s-141 -106 -230 -106h-246zM137 26h203c85 0 154 32 207 97c52 65 78 143 78 234c0 92 -26 170 -79 235c-53 64 -121 96 -203 96h-206v-662z"></glyph><glyph glyph-name="E" unicode="E" d="M137 26h405v-26h-447v714h446v-26h-404v-309h348v-26h-348v-327z"></glyph><glyph glyph-name="F" unicode="F" d="M541 688h-404v-309h348v-26h-348v-353h-42v714h446v-26z"></glyph><glyph glyph-name="G" unicode="G" d="M407 -9c-52 0 -99 8 -141 25c-43 16 -77 37 -104 63c-27 25 -49 55 -67 89c-18 33 -31 66 -38 99c-7 32 -11 64 -11 96c0 99 34 184 102 255s149 106 242 106c54 0 106 -13 156 -38c49 -26 88 -63 116 -112l-18 -10c-65 89 -151 134 -257 134c-58 0 -110 -16 -156 -48 s-81 -73 -105 -124c-25 -51 -37 -105 -37 -164c0 -38 5 -76 16 -113s28 -74 51 -110c23 -37 56 -66 100 -89c43 -23 94 -34 153 -34c43 0 85 6 128 18c42 11 74 28 97 49v204h-148v26h188v-229c-26 -31 -64 -55 -114 -70c-51 -15 -102 -23 -153 -23z"></glyph><glyph glyph-name="H" unicode="H" d="M572 714h42v-714h-42v353h-435v-353h-42v714h42v-335h435v335z"></glyph><glyph glyph-name="I" unicode="I" d="M95 714h42v-714h-42v714z"></glyph><glyph glyph-name="J" unicode="J" d="M201 -10c-41 0 -78 8 -111 23s-58 35 -73 62l17 11c36 -47 87 -70 154 -70c21 0 40 2 59 7s36 12 53 22c17 9 30 23 40 42c9 19 14 41 14 66v561h41v-555c0 -53 -17 -95 -52 -124c-35 -30 -83 -45 -142 -45z"></glyph><glyph glyph-name="K" unicode="K" d="M254 420l335 -420h-53l-313 391l-86 -76v-315h-42v714h42v-365l409 365h37z"></glyph><glyph glyph-name="L" unicode="L" d="M137 26h400v-26h-442v714h42v-688z"></glyph><glyph glyph-name="M" unicode="M" d="M95 0v714h51l267 -393l266 393h42v-714h-42v670l-276 -409l-282 416v-677h-26z"></glyph><glyph glyph-name="N" unicode="N" d="M95 714h32l491 -654v654h25v-714h-32l-490 654v-654h-26v714z"></glyph><glyph glyph-name="O" unicode="O" d="M391 724c95 0 176 -36 243 -107c67 -72 101 -159 101 -260s-34 -187 -101 -259s-148 -108 -243 -108s-176 36 -243 108c-68 71 -102 158 -102 259s34 188 101 260c67 71 149 107 244 107zM391 16c83 0 154 33 213 100c59 66 88 146 88 241s-29 175 -88 242 c-59 66 -130 99 -213 99c-85 0 -156 -33 -214 -99c-59 -66 -88 -147 -88 -242s29 -176 88 -242c58 -66 129 -99 214 -99z"></glyph><glyph glyph-name="P" unicode="P" d="M95 0v714h252c63 0 113 -18 152 -55c38 -37 57 -85 57 -146s-20 -108 -59 -141c-40 -33 -92 -49 -157 -49h-203v-323h-42zM137 348h210c50 0 90 14 121 43s46 69 46 122s-16 95 -47 127c-32 32 -74 48 -125 48h-205v-340z"></glyph><glyph glyph-name="Q" unicode="Q" d="M735 357c0 -95 -30 -178 -90 -247l87 -94l-28 -26l-86 92c-65 -61 -140 -92 -227 -92c-95 0 -176 36 -243 108c-68 71 -102 158 -102 259s34 188 101 260c67 71 149 107 244 107s176 -36 243 -107c67 -72 101 -159 101 -260zM391 16c79 0 147 30 205 90l-110 119l27 27 l108 -116c47 63 71 137 71 221c0 95 -29 175 -88 242c-59 66 -130 99 -213 99c-85 0 -156 -33 -214 -99c-59 -66 -88 -147 -88 -242s29 -176 88 -242c58 -66 129 -99 214 -99z"></glyph><glyph glyph-name="R" unicode="R" d="M95 0v714h252c63 0 113 -18 152 -55c38 -37 57 -86 57 -146c0 -48 -13 -88 -39 -120c-27 -32 -64 -53 -113 -63l178 -330h-47l-175 324c-6 -1 -15 -1 -28 -1h-195v-323h-42zM137 348h210c50 0 90 14 121 43s46 69 46 122s-16 95 -47 127c-32 32 -74 48 -125 48h-205v-340 z"></glyph><glyph glyph-name="S" unicode="S" d="M299 -10c-62 0 -117 13 -165 40c-49 26 -81 69 -98 128l19 10c41 -101 121 -152 240 -152c67 0 117 15 152 45c34 29 51 70 51 123c0 14 -1 27 -4 39c-3 11 -6 22 -9 31c-4 9 -10 17 -17 25l-20 20c-7 5 -16 11 -27 16s-21 10 -29 13s-19 6 -34 10s-26 7 -35 9 s-22 5 -39 9c-17 3 -31 6 -40 8c-18 4 -33 8 -46 12c-13 3 -28 10 -46 19c-19 9 -34 20 -45 33c-11 12 -21 28 -30 49s-13 44 -13 71c0 59 19 104 56 133s88 43 153 43c63 0 113 -13 151 -39s68 -63 91 -110l-19 -10c-48 89 -121 133 -220 133c-113 0 -169 -48 -169 -145 c0 -23 4 -43 12 -60c7 -17 16 -31 26 -41s26 -19 47 -27c21 -9 38 -15 53 -18c15 -4 36 -9 65 -15s54 -12 73 -17s40 -13 62 -23c21 -11 38 -22 51 -35s23 -30 32 -51c8 -21 12 -44 12 -71c0 -64 -21 -114 -64 -150c-43 -37 -102 -55 -177 -55z"></glyph><glyph glyph-name="T" unicode="T" d="M581 714v-26h-261v-688h-42v688h-260v26h563z"></glyph><glyph glyph-name="U" unicode="U" d="M610 714h25v-464c0 -71 -27 -132 -80 -183c-54 -51 -119 -77 -195 -77s-141 26 -194 77c-54 51 -81 112 -81 183v464h41v-464c0 -65 24 -120 71 -165c47 -46 104 -69 171 -69s124 23 171 68s70 101 70 166z"></glyph><glyph glyph-name="V" unicode="V" d="M296 0l-278 714h45l261 -673l260 673h27l-277 -714h-38z"></glyph><glyph glyph-name="W" unicode="W" d="M858 714h26l-202 -714h-40l-191 656l-191 -656h-40l-202 714h44l187 -662l192 662h37l193 -662z"></glyph><glyph glyph-name="X" unicode="X" d="M42 714h51l210 -317l230 317h32l-246 -336l252 -378h-51l-228 345l-250 -345h-32l265 364z"></glyph><glyph glyph-name="Y" unicode="Y" d="M552 714h31l-265 -408v-306h-42v306l-257 408h49l237 -381z"></glyph><glyph glyph-name="Z" unicode="Z" d="M61 714h483v-25l-463 -663h472v-26h-523v25l462 663h-431v26z"></glyph><glyph glyph-name="bracketleft" unicode="[" d="M94 -158v872h195v-25h-154v-822h154v-25h-195z"></glyph><glyph glyph-name="backslash" unicode="\" d="M293 0l-266 714h35l266 -714h-35z"></glyph><glyph glyph-name="bracketright" unicode="]" d="M252 714v-872h-195v25h154v822h-154v25h195z"></glyph><glyph glyph-name="asciicircum" unicode="^" d="M45 269l211 445h36l211 -445h-36l-193 408l-193 -408h-36z"></glyph><glyph glyph-name="underscore" unicode="_" d="M447 -133v21h-447v-21h447z"></glyph><glyph glyph-name="quoteleft" unicode="‘" d="M161 756c-38 -37 -57 -73 -57 -109c0 -11 2 -21 6 -30h11c7 -1 14 -4 19 -10c5 -7 7 -14 7 -22c0 -9 -3 -16 -9 -23c-7 -7 -15 -10 -24 -10c-13 0 -24 8 -32 23s-12 32 -12 51c0 25 7 50 21 77c14 26 33 48 58 67l7 -7c2 -3 4 -6 5 -7z"></glyph><glyph glyph-name="a" unicode="a" d="M225 -10c-29 0 -57 5 -84 14s-51 27 -72 53c-21 25 -32 57 -32 95c0 53 18 94 55 123c36 29 79 43 130 43c28 0 57 -5 87 -14c30 -10 53 -20 69 -30l23 -14v133c0 85 -43 127 -128 127c-25 0 -48 -3 -70 -10s-40 -16 -53 -26c-14 -11 -26 -21 -36 -31 c-10 -11 -17 -20 -22 -27l-6 -10l-18 12c20 35 49 63 86 85s81 33 130 33c57 0 98 -14 122 -43s36 -66 36 -111v-392h-41v53c-65 -42 -124 -63 -176 -63zM234 16c26 0 53 5 81 15s49 20 64 29l22 15v166l-22 12c-15 8 -35 17 -62 26s-54 14 -79 14c-43 0 -80 -12 -112 -35 s-48 -58 -48 -104s16 -80 48 -103c31 -23 67 -35 108 -35z"></glyph><glyph glyph-name="b" unicode="b" d="M299 545c63 0 117 -26 162 -79s67 -120 67 -199s-22 -145 -67 -198s-99 -79 -162 -79s-123 34 -180 102v-92h-41v760h41v-318c58 69 118 103 180 103zM293 15c53 0 99 25 137 74c37 49 56 108 56 178c0 71 -19 131 -56 180c-38 49 -84 73 -138 73 c-61 0 -119 -36 -173 -108v-289c53 -72 111 -108 174 -108z"></glyph><glyph glyph-name="c" unicode="c" d="M484 421c-45 66 -105 99 -178 99c-66 0 -119 -25 -160 -75s-61 -109 -61 -178c0 -67 20 -126 61 -176c40 -51 93 -76 160 -76c75 0 137 33 184 99l17 -11c-18 -31 -45 -58 -81 -80c-37 -22 -78 -33 -123 -33c-73 0 -134 27 -184 80c-51 53 -76 120 -76 199s26 145 77 198 c51 52 112 78 183 78c44 0 83 -10 118 -31s62 -49 81 -82z"></glyph><glyph glyph-name="d" unicode="d" d="M452 760h41v-760h-41v93c-58 -69 -118 -103 -180 -103c-63 0 -116 27 -161 80s-68 119 -68 198s23 145 68 198s98 79 161 79s123 -34 180 -102v317zM279 15c61 0 119 36 173 108v289c-53 72 -111 108 -174 108c-53 0 -99 -24 -136 -73c-38 -49 -57 -109 -57 -179 c0 -71 19 -130 57 -179c37 -49 83 -74 137 -74z"></glyph><glyph glyph-name="e" unicode="e" d="M313 15c70 0 130 31 181 94l17 -11c-22 -32 -51 -58 -87 -78s-76 -30 -120 -30c-73 0 -135 27 -185 81c-51 53 -76 118 -76 195c0 75 25 141 74 196s109 83 180 83c68 0 123 -26 166 -77c42 -52 63 -116 63 -191h-441v-9c0 -67 21 -126 62 -177s97 -76 166 -76zM296 520 c-51 0 -97 -21 -137 -63c-41 -42 -65 -94 -72 -155h398c-1 57 -19 108 -55 152s-81 66 -134 66z"></glyph><glyph glyph-name="f" unicode="f" d="M235 770c51 0 89 -21 114 -62l-15 -14c-24 33 -54 50 -90 50c-62 0 -93 -41 -93 -122v-87h143v-25h-143v-510h-41v510h-81v25h81v96c0 41 11 75 33 101c21 25 52 38 92 38z"></glyph><glyph glyph-name="g" unicode="g" d="M452 535h41v-592c0 -58 -16 -105 -48 -140c-33 -36 -84 -54 -153 -54c-93 0 -165 32 -218 97l16 12c49 -56 114 -84 193 -84c54 0 96 14 125 43s44 70 44 125v151c-58 -69 -118 -103 -180 -103c-63 0 -116 27 -161 80s-68 119 -68 198s23 145 68 198s98 79 161 79 s123 -34 180 -102v92zM279 15c61 0 119 36 173 108v289c-53 72 -111 108 -174 108c-53 0 -99 -24 -136 -73c-38 -49 -57 -109 -57 -179c0 -71 19 -130 57 -179c37 -49 83 -74 137 -74z"></glyph><glyph glyph-name="h" unicode="h" d="M333 545c28 0 53 -4 76 -11c23 -8 43 -24 60 -47s26 -54 26 -91v-396h-41v395c0 40 -12 71 -35 93c-24 22 -58 33 -101 33c-75 0 -142 -36 -199 -107v-414h-41v760h41v-321c53 71 124 106 214 106z"></glyph><glyph glyph-name="i" unicode="i" d="M99 640c-7 0 -14 3 -19 8c-6 5 -9 12 -9 20c0 7 3 14 9 19c5 5 12 8 19 8s14 -3 19 -8s8 -12 8 -19c0 -8 -3 -15 -8 -20s-12 -8 -19 -8zM78 0v535h41v-535h-41z"></glyph><glyph glyph-name="j" unicode="j" d="M99 640c-8 0 -15 3 -20 8s-8 12 -8 20c0 7 3 14 8 19s12 8 20 8c7 0 14 -3 19 -8s8 -12 8 -19c0 -8 -3 -15 -8 -20s-12 -8 -19 -8zM-6 -250c-51 0 -89 20 -114 61l15 14c25 -33 55 -50 90 -50c62 0 93 41 93 123v637h41v-647c0 -41 -11 -75 -32 -100 c-22 -25 -53 -38 -93 -38z"></glyph><glyph glyph-name="k" unicode="k" d="M235 310l255 -310h-52l-233 282l-86 -79v-203h-41v760h41v-524l324 299h37z"></glyph><glyph glyph-name="l" unicode="l" d="M194 -10c-28 0 -53 10 -75 31s-33 54 -33 100v639h41v-634c0 -39 8 -66 24 -82c16 -17 35 -25 57 -25c16 0 29 3 38 10l9 -19c-13 -13 -34 -20 -61 -20z"></glyph><glyph glyph-name="m" unicode="m" d="M667 545c42 0 78 -11 107 -34s43 -61 43 -115v-396h-41v395c0 40 -11 71 -32 93c-22 22 -52 33 -91 33c-69 0 -131 -36 -186 -108c1 -4 1 -10 1 -17v-396h-41v395c0 40 -11 71 -32 93c-22 22 -52 33 -91 33c-67 0 -129 -35 -185 -106v-415h-41v535h41v-94 c52 69 118 104 199 104c36 0 68 -8 95 -25s45 -45 52 -84c51 73 119 109 202 109z"></glyph><glyph glyph-name="n" unicode="n" d="M333 545c28 0 53 -4 76 -11c23 -8 43 -24 60 -47s26 -54 26 -91v-396h-41v395c0 40 -12 71 -35 93c-24 22 -58 33 -101 33c-75 0 -142 -36 -199 -107v-414h-41v535h41v-96c53 71 124 106 214 106z"></glyph><glyph glyph-name="o" unicode="o" d="M302 -10c-73 0 -135 27 -184 80c-50 53 -75 119 -75 198c0 78 25 144 75 197s111 80 184 80c72 0 133 -27 183 -80c49 -53 74 -119 74 -197c0 -79 -25 -145 -74 -198c-50 -53 -111 -80 -183 -80zM302 15c59 0 110 25 152 75c42 49 63 109 63 178s-21 129 -63 178 s-93 74 -152 74s-110 -25 -152 -74c-43 -49 -64 -109 -65 -178c1 -69 22 -129 65 -178c42 -50 93 -75 152 -75z"></glyph><glyph glyph-name="p" unicode="p" d="M299 545c63 0 117 -26 162 -79s67 -120 67 -199s-22 -145 -67 -198s-99 -79 -162 -79s-123 34 -180 102v-333h-41v776h41v-93c58 69 118 103 180 103zM293 15c53 0 99 25 137 74c37 49 56 108 56 178c0 71 -19 131 -56 180c-38 49 -84 73 -138 73 c-61 0 -119 -36 -173 -108v-289c53 -72 111 -108 174 -108z"></glyph><glyph glyph-name="q" unicode="q" d="M452 535h41v-776h-41v334c-58 -69 -118 -103 -180 -103c-63 0 -116 27 -161 80s-68 119 -68 198s23 145 68 198s98 79 161 79s123 -34 180 -102v92zM279 15c61 0 119 36 173 108v289c-53 72 -111 108 -174 108c-53 0 -99 -24 -136 -73c-38 -49 -57 -109 -57 -179 c0 -71 19 -130 57 -179c37 -49 83 -74 137 -74z"></glyph><glyph glyph-name="r" unicode="r" d="M78 0v535h41v-94c58 69 120 104 185 104c41 0 76 -13 104 -40l-18 -26c-27 25 -59 38 -95 38c-35 0 -68 -10 -99 -31s-56 -46 -77 -75v-411h-41z"></glyph><glyph glyph-name="s" unicode="s" d="M245 -10c-53 0 -99 11 -140 34c-41 22 -66 53 -75 94l19 10c9 -35 33 -63 71 -83c37 -20 79 -30 125 -30c49 0 86 11 111 33c25 21 38 51 38 89c0 15 -2 29 -5 41c-4 11 -10 21 -18 30c-9 8 -17 15 -25 21c-9 5 -20 10 -34 15c-15 4 -27 7 -37 10c-10 2 -23 5 -40 9 c-17 3 -31 6 -40 8c-97 23 -145 70 -145 141c0 43 16 76 47 99s72 34 124 34c37 0 70 -6 97 -19s47 -26 60 -41s25 -34 36 -56l-19 -10c-22 37 -46 64 -71 79s-56 22 -93 22c-46 0 -81 -9 -104 -26c-23 -18 -35 -43 -35 -75c0 -14 2 -27 6 -38s11 -21 20 -28 c9 -8 18 -15 26 -20c8 -6 19 -11 34 -15c15 -5 26 -8 34 -10s20 -4 37 -7c16 -3 26 -5 30 -6c52 -11 91 -28 118 -51c26 -23 39 -55 39 -98c0 -50 -17 -88 -51 -115c-35 -27 -81 -41 -140 -41z"></glyph><glyph glyph-name="t" unicode="t" d="M26 510v25h81v143h41v-143h143v-25h-143v-379c0 -77 27 -115 82 -115c25 0 53 12 82 36l11 -18c-27 -29 -61 -44 -102 -44c-38 0 -66 13 -85 38s-29 60 -29 103v379h-81z"></glyph><glyph glyph-name="u" unicode="u" d="M454 535h41v-535h-41v96c-53 -71 -125 -106 -214 -106c-28 0 -53 4 -76 12c-23 7 -43 23 -60 46s-26 54 -26 91v396h41v-395c0 -40 12 -71 36 -93c23 -22 57 -33 100 -33c75 0 142 36 199 107v414z"></glyph><glyph glyph-name="v" unicode="v" d="M237 0l-214 535h45l197 -494l197 494h28l-214 -535h-39z"></glyph><glyph glyph-name="w" unicode="w" d="M23 535h43l156 -487l155 487h36l154 -486l155 486h27l-171 -535h-39l-152 480l-154 -480h-39z"></glyph><glyph glyph-name="x" unicode="x" d="M19 0l207 268l-199 267h50l176 -235l185 235h32l-200 -255l206 -280h-49l-184 248l-193 -248h-31z"></glyph><glyph glyph-name="y" unicode="y" d="M157 -241l91 226l-225 550h44l201 -498l198 498h27l-308 -776h-28z"></glyph><glyph glyph-name="z" unicode="z" d="M36 0v24l347 486h-324v25h376v-24l-349 -486h354v-25h-404z"></glyph><glyph glyph-name="braceleft" unicode="{" d="M306 -159c-24 0 -48 9 -73 27c-25 17 -45 45 -60 83c-18 43 -26 101 -24 175c1 73 -3 112 -13 116c-14 16 -38 27 -73 33v7c36 6 60 17 73 33c11 21 16 44 14 68c-3 24 -3 59 -1 105c2 45 10 85 24 118c15 38 35 66 60 84c25 17 49 26 73 26h9c3 -1 5 -1 6 -1v-13 c-39 -1 -70 -19 -92 -52c-27 -43 -42 -113 -44 -210c-1 -70 -7 -114 -20 -133c-3 -4 -7 -8 -10 -11c-4 -4 -8 -7 -12 -9s-7 -3 -10 -4l-9 -3l-4 -2c19 -3 34 -13 45 -29c13 -18 19 -62 20 -132c2 -99 17 -170 44 -211c23 -33 53 -51 92 -52v-12c-1 -1 -6 -1 -15 -1z"></glyph><glyph glyph-name="bar" unicode="|" d="M92 760h31v-1001h-31v1001z"></glyph><glyph glyph-name="braceright" unicode="}" d="M69 716c24 0 48 -9 73 -26c25 -18 45 -46 60 -84c18 -43 26 -101 25 -174c-2 -74 2 -113 12 -117c14 -16 38 -27 73 -33v-7c-36 -6 -60 -17 -73 -33c-11 -21 -16 -44 -13 -68c2 -24 2 -59 0 -104c-2 -46 -10 -86 -24 -119c-15 -38 -35 -66 -60 -83 c-25 -18 -49 -27 -73 -27c-2 0 -5 0 -8 1h-7v13c39 1 70 19 92 52c27 43 42 113 44 210c1 70 7 114 20 133c3 4 7 8 11 12c3 3 7 6 11 8s7 4 10 5s5 2 8 3l5 1c-19 3 -34 13 -45 29c-13 18 -19 62 -20 132c-2 99 -17 170 -44 211c-23 33 -53 51 -92 52v12c1 1 6 1 15 1z"></glyph><glyph glyph-name="asciitilde" unicode="~" d="M405 310c-27 0 -65 10 -113 29c-49 19 -84 28 -107 28c-45 0 -84 -19 -116 -57v14c11 19 27 35 49 50c21 14 47 21 77 21c28 0 66 -9 115 -28c48 -19 83 -29 106 -29c44 0 83 19 116 57v-14c-29 -47 -72 -71 -127 -71z"></glyph><glyph glyph-name="exclamdown" unicode="¡" d="M121 539c9 0 16 -3 23 -9c7 -7 10 -15 10 -24s-3 -17 -10 -23c-7 -7 -14 -10 -23 -10s-16 3 -23 10c-7 6 -10 14 -10 23s3 17 10 24c7 6 14 9 23 9zM134 381l8 -560h-42l8 560h26z"></glyph><glyph glyph-name="cent" unicode="¢" d="M507 103c-17 -31 -44 -57 -79 -79s-75 -33 -119 -34v-113h-26v114c-68 5 -125 34 -171 87c-46 52 -69 116 -69 191s23 139 70 190c46 51 103 80 170 85v116h26v-115c43 -1 81 -12 115 -33c33 -21 59 -48 78 -80l-18 -11c-45 65 -103 98 -175 99v-505c37 1 72 10 103 28 s57 42 78 71zM85 267c0 -63 18 -119 54 -168s84 -77 144 -83v503c-60 -6 -108 -33 -144 -82s-54 -106 -54 -170z"></glyph><glyph glyph-name="sterling" unicode="£" d="M96 26h440v-26h-487v26c94 9 136 115 125 319h-121v26h119c-7 97 -10 157 -10 179c0 57 14 100 42 130c27 29 66 44 116 44c36 0 71 -7 105 -22s61 -38 81 -68l-19 -10c-16 22 -38 40 -67 54c-29 13 -59 20 -92 20c-43 0 -74 -12 -94 -37s-30 -64 -30 -117 c0 -45 2 -103 6 -173h215v-26h-213c1 -45 -1 -87 -6 -124c-5 -38 -12 -69 -21 -92s-19 -43 -30 -59s-22 -27 -32 -34s-19 -10 -27 -10z"></glyph><glyph glyph-name="fraction" unicode="⁄" d="M-119 -12h-41l403 674h41z"></glyph><glyph glyph-name="yen" unicode="¥" d="M589 714l-249 -384h159v-26h-175v-106h175v-25h-175v-173h-42v173h-165v25h165v106h-165v26h150l-242 384h49l237 -381l247 381h31z"></glyph><glyph glyph-name="fhook" unicode="ƒ" d="M235 770c51 0 89 -21 114 -62l-15 -14c-24 33 -54 50 -90 50c-62 0 -93 -41 -93 -122v-87h143v-25h-143v-622c0 -41 -11 -75 -32 -100c-22 -25 -53 -38 -93 -38c-51 0 -89 20 -114 61l15 14c25 -33 55 -50 90 -50c62 0 93 41 93 123v612h-81v25h81v96c0 41 11 75 33 101 c21 25 52 38 92 38z"></glyph><glyph glyph-name="section" unicode="§" d="M347 196c47 -25 70 -66 70 -123c0 -50 -15 -88 -46 -115s-74 -41 -127 -41c-48 0 -90 11 -126 33c-37 21 -60 53 -69 94l18 9c12 -39 34 -67 67 -84c33 -18 69 -27 108 -27c45 0 78 11 100 32s33 51 33 89c0 18 -3 34 -8 47c-6 13 -12 24 -19 32s-17 15 -32 22 c-15 6 -26 10 -35 13s-24 6 -43 11c-19 4 -33 7 -40 9c-87 22 -130 69 -130 142c0 65 31 107 92 125c-59 25 -89 67 -89 127c0 43 14 76 42 99s66 34 114 34c82 0 140 -38 173 -115l-17 -10c-20 37 -41 62 -63 77c-23 15 -51 22 -84 22c-41 0 -71 -9 -92 -26 c-21 -18 -32 -43 -32 -74c0 -16 3 -30 10 -43c6 -13 12 -24 19 -31s18 -14 34 -21s27 -11 34 -13c6 -2 19 -5 39 -9s31 -6 32 -7c46 -11 81 -28 105 -50c23 -23 35 -55 35 -98c0 -62 -24 -105 -73 -130zM109 346c0 -16 3 -30 10 -43c6 -13 12 -24 19 -31s18 -14 33 -21 s27 -11 34 -13s20 -5 39 -9c19 -5 29 -7 32 -8c9 -2 23 -6 40 -11c42 19 63 54 63 106c0 10 -1 19 -3 28s-4 16 -6 23c-2 6 -6 12 -11 18c-6 6 -11 11 -14 15s-9 8 -18 13c-9 4 -15 7 -18 9c-4 1 -11 4 -22 7s-19 5 -22 6s-11 3 -23 6c-13 3 -20 4 -23 5 c-37 -3 -64 -13 -82 -30c-19 -17 -28 -41 -28 -70z"></glyph><glyph glyph-name="currency" unicode="¤" d="M90 139l-30 30l83 73c-27 33 -41 70 -41 111c0 43 14 80 42 112l-83 73l29 30l73 -84c32 28 69 42 112 42s80 -14 112 -42l73 83l29 -29l-83 -73c28 -32 42 -69 42 -112s-14 -80 -42 -112l83 -73l-30 -30l-73 84c-31 -27 -68 -41 -111 -41s-81 14 -112 42zM275 208 c40 0 74 14 103 43c29 28 43 62 43 102c0 41 -14 75 -43 104c-29 28 -63 42 -103 42c-41 0 -75 -14 -103 -42c-29 -29 -43 -63 -43 -104c0 -40 14 -74 43 -102c28 -29 62 -43 103 -43z"></glyph><glyph glyph-name="quotesingle" unicode="'" d="M78 550l-8 215h41l-8 -215h-25z"></glyph><glyph glyph-name="quotedblleft" unicode="“" d="M160 756c-38 -37 -57 -73 -57 -109c0 -11 2 -21 6 -30h11c7 -1 14 -4 19 -10c5 -7 7 -14 7 -22c0 -9 -3 -16 -10 -23s-14 -10 -23 -10c-13 0 -24 8 -32 23s-12 32 -12 51c0 25 7 50 21 77c14 26 33 48 58 67l7 -7c2 -3 4 -6 5 -7zM301 756c-38 -37 -57 -73 -57 -109 c0 -11 2 -21 6 -30h11c7 -1 14 -4 19 -10c5 -7 7 -14 7 -22c0 -9 -3 -16 -9 -23c-7 -7 -15 -10 -24 -10c-13 0 -24 8 -32 23s-12 32 -12 51c0 25 7 50 21 77c14 26 33 48 58 67l7 -7c2 -3 4 -6 5 -7z"></glyph><glyph glyph-name="guillemotleft" unicode="«" d="M235 67l-195 196l195 195l17 -16l-153 -179l153 -180zM405 67l-195 196l195 195l16 -16l-152 -179l152 -180z"></glyph><glyph glyph-name="guilsinglleft" unicode="‹" d="M235 67l-195 196l195 195l17 -16l-153 -179l153 -180z"></glyph><glyph glyph-name="guilsinglright" unicode="›" d="M84 458l195 -196l-195 -195l-17 16l153 179l-153 180z"></glyph><glyph glyph-name="fi" unicode="ﬁ" d="M431 535v-535h-41v510h-239v-510h-41v510h-81v25h81v96c0 41 11 75 33 101c21 25 52 38 92 38c51 0 89 -21 114 -62l-15 -14c-24 33 -54 50 -90 50c-62 0 -93 -41 -93 -122v-87h280z"></glyph><glyph glyph-name="fl" unicode="ﬂ" d="M594 22l9 -11c-12 -14 -32 -21 -61 -21c-28 0 -53 10 -75 31s-33 54 -33 100v599c-39 17 -85 26 -138 26c-97 0 -145 -41 -145 -122v-89h143v-25h-143v-510h-41v510h-81v25h81v66c0 47 8 82 23 104c29 43 83 65 162 65c23 0 46 -2 69 -6c23 -5 40 -9 51 -12 c11 -4 31 -11 60 -22v-612c0 -39 8 -66 24 -82c15 -16 34 -24 57 -24c19 0 31 3 38 10z"></glyph><glyph glyph-name="endash" unicode="–" d="M78 256v25h417v-25h-417z"></glyph><glyph glyph-name="dagger" unicode="†" d="M412 592v-45l-173 10l11 -557h-46l11 557l-173 -10v45l173 -10l-11 178h46l-10 -178z"></glyph><glyph glyph-name="daggerdbl" unicode="‡" d="M207 760h46l-10 -178l172 10v-45l-172 10l10 -177l-10 -177l172 10v-45l-172 9l10 -177h-46l11 177l-173 -9v45l173 -10l-11 177l11 177l-173 -10v45l173 -10z"></glyph><glyph glyph-name="periodcentered" unicode="·" d="M146 353c0 -11 -4 -21 -11 -28c-8 -8 -17 -12 -28 -12s-20 4 -27 12c-8 7 -12 17 -12 28s4 21 12 29c7 7 16 11 27 11s20 -4 28 -11c7 -8 11 -18 11 -29z"></glyph><glyph glyph-name="paragraph" unicode="¶" d="M218 -127v517c-51 0 -95 18 -131 54s-54 80 -54 131s18 95 54 131s80 54 131 54h186v-887h-31v862h-126v-862h-29z"></glyph><glyph glyph-name="bullet" unicode="•" d="M242 365c0 -21 -7 -38 -22 -53s-34 -23 -55 -23s-38 8 -53 23s-23 32 -23 53s8 39 23 54s32 22 53 22s40 -7 55 -22s22 -33 22 -54z"></glyph><glyph glyph-name="quotesinglbase" unicode="‚" d="M51 -142c38 37 57 73 57 109c0 11 -2 21 -6 30h-11c-7 1 -13 4 -18 11c-5 6 -8 13 -8 21c0 9 3 16 10 23c6 7 14 10 23 10c13 0 24 -8 32 -23s12 -32 12 -51c0 -25 -7 -50 -21 -76c-14 -27 -33 -49 -58 -68c-2 2 -4 5 -6 8z"></glyph><glyph glyph-name="quotedblbase" unicode="„" d="M51 -142c38 37 57 73 57 109c0 11 -2 21 -6 30h-11c-7 1 -13 4 -18 11c-5 6 -8 13 -8 21c0 9 3 16 10 23c6 7 14 10 23 10c13 0 24 -8 32 -23s12 -32 12 -51c0 -25 -7 -50 -21 -76c-14 -27 -33 -49 -58 -68c-2 2 -4 5 -6 8zM192 -142c38 37 57 73 57 109 c0 11 -2 21 -6 30h-11c-7 1 -13 4 -18 11c-5 6 -8 13 -8 21c0 9 3 16 10 23s14 10 23 10c13 0 24 -8 32 -23s12 -32 12 -51c0 -25 -7 -50 -21 -76c-14 -27 -33 -49 -58 -68c-2 2 -4 5 -6 8z"></glyph><glyph glyph-name="quotedblright" unicode="”" d="M70 567c38 37 57 73 57 109c0 11 -2 21 -6 30h-11c-7 1 -13 4 -18 11c-5 6 -8 13 -8 21c0 9 3 17 10 24c7 6 14 9 23 9c13 0 24 -8 32 -23s12 -32 12 -51c0 -25 -7 -50 -21 -76c-14 -27 -33 -49 -58 -68c-2 2 -4 5 -6 8zM211 567c38 37 57 73 57 109c0 11 -2 21 -6 30 h-11c-7 1 -13 4 -18 11c-5 6 -8 13 -8 21c0 9 3 17 10 24c6 6 14 9 23 9c13 0 24 -8 32 -23s12 -32 12 -51c0 -25 -7 -50 -21 -76c-14 -27 -33 -49 -58 -68c-2 2 -4 5 -6 8z"></glyph><glyph glyph-name="guillemotright" unicode="»" d="M84 458l195 -196l-195 -195l-16 16l152 179l-152 180zM254 458l195 -196l-195 -195l-17 16l153 179l-153 180z"></glyph><glyph glyph-name="ellipsis" unicode="…" d="M84 -4c-9 0 -17 3 -23 10c-7 7 -10 14 -10 23s3 16 10 23c6 7 14 10 23 10s17 -3 24 -10c6 -7 9 -14 9 -23s-3 -16 -9 -23c-7 -7 -15 -10 -24 -10zM307 -4c-9 0 -16 3 -23 10s-10 14 -10 23s3 16 10 23s14 10 23 10s16 -3 23 -10s10 -14 10 -23s-3 -16 -10 -23 s-14 -10 -23 -10zM530 -4c-9 0 -17 3 -23 10c-7 7 -10 14 -10 23s3 16 10 23c6 7 14 10 23 10s17 -3 24 -10c6 -7 9 -14 9 -23s-3 -16 -9 -23c-7 -7 -15 -10 -24 -10z"></glyph><glyph glyph-name="perthousand" unicode="‰" d="M202 720c49 0 88 -21 116 -62c27 -42 41 -95 41 -158c0 -64 -14 -117 -41 -158c-28 -41 -67 -62 -116 -62s-88 21 -115 62c-28 41 -42 94 -42 158c0 63 14 116 42 158c27 41 66 62 115 62zM636 714h30l-401 -714h-30zM202 304c39 0 69 18 88 55c19 36 29 83 29 141 s-10 105 -29 142c-19 36 -49 54 -88 54c-40 0 -69 -18 -88 -54c-19 -37 -29 -84 -29 -142s10 -105 29 -141c19 -37 48 -55 88 -55zM699 434c49 0 88 -21 116 -62c27 -42 41 -95 41 -158c0 -64 -14 -117 -41 -158c-28 -41 -67 -62 -116 -62s-88 21 -115 62 c-28 41 -42 94 -42 158c0 63 14 116 42 158c27 41 66 62 115 62zM1103 434c49 0 88 -21 116 -62c27 -42 41 -95 41 -158c0 -64 -14 -117 -41 -158c-28 -41 -67 -62 -116 -62s-88 21 -115 62c-28 41 -42 94 -42 158c0 63 14 116 42 158c27 41 66 62 115 62zM699 18 c39 0 69 18 88 55c19 36 29 83 29 141s-10 105 -29 142c-19 36 -49 54 -88 54c-40 0 -69 -18 -88 -54c-19 -37 -29 -84 -29 -142s10 -105 29 -141c19 -37 48 -55 88 -55zM1103 18c39 0 69 18 88 55c19 36 29 83 29 141s-10 105 -29 142c-19 36 -49 54 -88 54 c-40 0 -69 -18 -88 -54c-19 -37 -29 -84 -29 -142s10 -105 29 -141c19 -37 48 -55 88 -55z"></glyph><glyph glyph-name="questiondown" unicode="¿" d="M270 539c9 0 17 -3 24 -9c6 -7 9 -15 9 -24s-3 -17 -9 -23c-7 -7 -15 -10 -24 -10s-17 3 -23 10c-7 6 -10 14 -10 23s3 17 10 24c6 6 14 9 23 9zM282 380c3 -47 -4 -88 -19 -121s-40 -66 -74 -97c-4 -4 -15 -14 -32 -29c-18 -16 -29 -27 -34 -32s-12 -15 -22 -29 s-16 -28 -19 -42c-3 -15 -5 -31 -5 -50c0 -97 50 -145 149 -145c89 0 146 38 171 113l21 -7c-28 -87 -94 -130 -198 -130c-124 0 -186 59 -186 176c0 24 3 45 8 63s14 36 28 53c13 17 26 31 39 42c12 11 31 27 57 48c60 48 90 110 90 187h26z"></glyph><glyph glyph-name="grave" unicode="`" d="M183 605l-137 156h54l116 -156h-33z"></glyph><glyph glyph-name="acute" unicode="´" d="M46 605l116 156h54l-137 -156h-33z"></glyph><glyph glyph-name="circumflexmod" unicode="ˆ" d="M46 606l116 154h60l115 -154h-32l-113 127l-113 -127h-33z"></glyph><glyph glyph-name="tildemod" unicode="˜" d="M46 643v19c18 38 45 57 80 57c18 0 42 -8 73 -25c30 -17 52 -25 66 -25c29 0 53 16 74 49v-19c-19 -37 -45 -56 -80 -56c-18 0 -42 8 -72 25c-31 16 -53 24 -68 24s-29 -5 -42 -15c-13 -11 -24 -22 -31 -34z"></glyph><glyph glyph-name="macron" unicode="¯" d="M46 644v23h279v-23h-279z"></glyph><glyph glyph-name="brevemod" unicode="˘" d="M310 754h26c-1 -37 -13 -70 -37 -100c-25 -30 -61 -45 -109 -45c-47 0 -83 15 -107 45s-36 63 -37 100h26c0 -28 11 -53 32 -76s49 -35 86 -35s67 12 88 35s32 49 32 76z"></glyph><glyph glyph-name="dotaccentmod" unicode="˙" d="M67 640c-8 0 -15 3 -20 8s-8 12 -8 20c0 7 3 14 8 19s12 8 20 8c7 0 14 -3 19 -8s8 -12 8 -19c0 -8 -3 -15 -8 -20s-12 -8 -19 -8z"></glyph><glyph glyph-name="dieresis" unicode="¨" d="M71 660c-8 0 -15 3 -20 8c-6 5 -9 12 -9 19c0 8 3 15 9 20c5 5 12 8 20 8c7 0 14 -3 19 -8s8 -12 8 -20c0 -7 -3 -14 -8 -19s-12 -8 -19 -8zM204 660c-8 0 -15 3 -20 8s-8 12 -8 19c0 8 3 15 8 20s12 8 20 8c7 0 14 -3 19 -8s8 -12 8 -20c0 -7 -3 -14 -8 -19 s-12 -8 -19 -8z"></glyph><glyph glyph-name="ringmod" unicode="˚" d="M141 797c27 0 49 -10 68 -29s28 -43 28 -70s-9 -51 -28 -70c-19 -20 -41 -30 -68 -30c-26 0 -48 10 -67 30c-19 19 -28 43 -28 70s9 51 28 70s41 29 67 29zM141 619c20 0 37 7 50 22s20 34 20 57s-7 42 -20 57s-30 22 -50 22c-19 0 -36 -7 -49 -22s-20 -34 -20 -57 s7 -42 20 -57s30 -22 49 -22z"></glyph><glyph glyph-name="cedilla" unicode="¸" d="M126 -236c-32 0 -59 7 -80 20l8 14c15 -11 37 -16 66 -16c23 0 42 5 58 16c16 10 24 25 24 44c0 38 -33 62 -100 73l42 93h26l-32 -69c23 -4 44 -14 63 -30c18 -16 27 -37 27 -64c0 -29 -10 -49 -31 -62s-44 -19 -71 -19z"></glyph><glyph glyph-name="doubleacutemod" unicode="˝" d="M46 605l115 156h55l-137 -156h-33zM172 605l115 156h55l-137 -156h-33z"></glyph><glyph glyph-name="ogonekmod" unicode="˛" d="M137 -198c-24 0 -45 9 -63 26c-19 17 -28 38 -28 63c0 22 8 44 23 66c15 21 31 38 49 51h26v-3c-15 -9 -31 -24 -48 -45c-18 -21 -26 -44 -24 -68c1 -18 7 -32 19 -42c12 -11 26 -16 42 -16c19 0 35 6 50 17l21 -29c-19 -13 -42 -20 -67 -20z"></glyph><glyph glyph-name="caronmod" unicode="ˇ" d="M162 606l-116 154h33l113 -128l113 128h32l-115 -154h-60z"></glyph><glyph glyph-name="emdash" unicode="—" d="M78 256v25h739v-25h-739z"></glyph><glyph glyph-name="AE" unicode="Æ" d="M447 26h405v-26h-447v266h-231l-145 -266h-29l389 714h462v-26h-404v-309h348v-26h-348v-327zM188 292h217v397z"></glyph><glyph glyph-name="ordfeminine" unicode="ª" d="M138 394c-30 0 -56 8 -78 25c-23 17 -34 41 -34 73c0 31 11 56 32 73s47 26 78 26c17 0 34 -3 52 -8c17 -6 31 -12 40 -17l13 -9v73c0 50 -24 75 -73 75c-13 0 -26 -2 -38 -6c-13 -4 -23 -9 -30 -14c-8 -6 -15 -12 -21 -18s-10 -11 -13 -15l-3 -6l-18 9 c26 48 70 72 132 72c37 0 63 -9 79 -27c16 -19 24 -42 24 -71v-229h-39v30c-37 -24 -71 -36 -103 -36zM151 417c13 0 28 3 43 8s26 10 34 15l13 8v92l-12 6c-8 5 -19 10 -34 15s-29 7 -43 7c-23 0 -43 -6 -60 -19c-18 -13 -27 -32 -27 -57s9 -44 27 -56 c17 -13 37 -19 59 -19z"></glyph><glyph glyph-name="Lslash" unicode="Ł" d="M471 0h-383v298l-94 -65v44l94 64v333h49v-302l147 99v-44l-147 -99v-287h334v-41z"></glyph><glyph glyph-name="Oslash" unicode="Ø" d="M600 648c42 -34 75 -76 99 -127s36 -105 36 -164c0 -101 -34 -187 -101 -259s-148 -108 -243 -108c-67 0 -130 20 -187 59l-32 -49h-35l44 66c-42 35 -75 77 -99 128s-36 105 -36 163c0 101 34 188 101 260c67 71 149 107 244 107c68 0 130 -19 185 -58l32 48h35zM89 357 c0 -53 10 -102 29 -148s46 -85 80 -116l361 547c-50 39 -106 58 -168 58c-85 0 -156 -33 -214 -99c-59 -66 -88 -147 -88 -242zM391 16c83 0 154 33 213 100c59 66 88 146 88 241c0 53 -10 102 -29 148c-20 46 -47 85 -81 116l-361 -547c50 -39 107 -58 170 -58z"></glyph><glyph glyph-name="OE" unicode="Œ" d="M683 26h405v-26h-447v99c-67 -72 -150 -108 -251 -108c-99 0 -181 37 -246 110s-98 159 -98 260c0 103 34 190 103 259s149 104 242 104c49 0 96 -11 141 -32s81 -51 109 -88v110h446v-26h-404v-309h348v-26h-348v-327zM394 16c96 0 178 39 247 118v431 c-64 89 -146 133 -247 133c-89 0 -162 -32 -219 -97s-86 -146 -86 -242c0 -95 28 -176 85 -243s130 -100 220 -100z"></glyph><glyph glyph-name="ordmasculine" unicode="º" d="M189 395c-44 0 -81 16 -112 49c-31 32 -47 71 -47 118c0 46 16 85 47 118c31 32 68 48 112 48s81 -16 112 -48c31 -33 46 -72 46 -118c0 -47 -15 -86 -46 -118c-31 -33 -68 -49 -112 -49zM189 417c33 0 61 14 84 43c23 28 34 62 34 102s-11 74 -34 102s-51 42 -84 42 c-34 0 -62 -14 -85 -42s-34 -62 -34 -102s12 -74 35 -102c23 -29 51 -43 84 -43z"></glyph><glyph glyph-name="ae" unicode="æ" d="M671 15c70 0 130 31 181 94l17 -11c-22 -32 -51 -58 -87 -78s-76 -30 -120 -30c-43 0 -82 10 -118 29c-37 19 -67 46 -91 80c-29 -33 -65 -60 -106 -79c-42 -19 -82 -29 -121 -29c-21 0 -41 3 -61 8c-21 5 -41 14 -61 26c-20 11 -36 28 -48 51c-13 22 -19 48 -19 77 c0 54 19 95 56 123s81 42 131 42c35 0 69 -6 103 -19s59 -26 74 -39v110c0 100 -42 150 -127 150c-43 0 -81 -10 -113 -29c-32 -20 -57 -45 -75 -75l-18 12c23 41 55 71 94 90s80 28 124 28c46 0 81 -11 105 -34s39 -58 44 -107c22 42 53 76 92 102c39 25 81 38 128 38 c68 0 123 -26 166 -77c42 -52 63 -116 63 -191h-441v-9c0 -67 21 -126 62 -177s97 -76 166 -76zM654 520c-51 0 -97 -21 -137 -63c-41 -42 -65 -94 -72 -155h398c-1 57 -19 108 -55 152s-81 66 -134 66zM232 15c34 0 72 10 114 29c41 19 74 42 98 69c-24 39 -38 82 -42 129 c-17 12 -41 24 -72 35c-32 11 -63 16 -92 16c-41 0 -77 -11 -110 -33c-33 -23 -50 -58 -50 -106c0 -26 5 -48 16 -67s24 -34 41 -43c16 -10 32 -17 49 -22c16 -5 32 -7 48 -7z"></glyph><glyph glyph-name="idotless" unicode="ı" d="M137 0h-49v480h49v-480z"></glyph><glyph glyph-name="lslash" unicode="ł" d="M137 0h-49v330l-72 -59v45l72 59v341h49v-304l72 59v-46l-72 -59v-366z"></glyph><glyph glyph-name="oslash" unicode="ø" d="M462 486c65 -54 97 -127 97 -218c0 -79 -25 -145 -74 -198c-50 -53 -111 -80 -183 -80c-51 0 -98 14 -139 42l-21 -32h-34l32 49c-65 54 -97 127 -97 219c0 78 25 144 75 197s111 80 184 80c49 0 95 -14 137 -41l21 32h35zM85 268c1 -76 26 -139 74 -190l263 399 c-37 29 -77 43 -120 43c-59 0 -110 -25 -152 -74c-43 -49 -64 -109 -65 -178zM302 15c59 0 110 25 152 75c42 49 63 109 63 178c0 77 -25 141 -74 190l-262 -399c35 -29 76 -44 121 -44z"></glyph><glyph glyph-name="oe" unicode="œ" d="M788 15c70 0 130 31 181 94l17 -11c-22 -32 -51 -58 -87 -78s-76 -30 -120 -30c-54 0 -102 15 -145 46s-75 71 -95 121c-20 -51 -51 -91 -93 -121c-43 -31 -91 -46 -144 -46c-73 0 -135 27 -184 80c-50 53 -75 119 -75 198c0 78 25 144 75 197s111 80 184 80 c53 0 101 -15 144 -46s74 -71 93 -122c20 50 51 91 93 122c41 31 88 46 140 46c68 0 123 -26 166 -77c42 -52 63 -116 63 -191h-441v-9c0 -67 21 -126 62 -177s97 -76 166 -76zM302 15c59 0 110 25 152 75c42 49 63 109 63 178s-21 129 -63 178s-93 74 -152 74 s-110 -25 -152 -74c-43 -49 -64 -109 -65 -178c1 -69 22 -129 65 -178c42 -50 93 -75 152 -75zM771 520c-51 0 -97 -21 -137 -63c-41 -42 -65 -94 -72 -155h398c-1 57 -19 108 -55 152s-81 66 -134 66z"></glyph><glyph glyph-name="germandbls" unicode="ß" d="M243 -10v25c73 10 133 32 178 66s67 81 67 142c0 60 -21 108 -63 144c-43 36 -96 57 -159 63v22c45 -2 83 12 116 41c32 29 48 64 48 106c0 39 -14 74 -43 103s-71 43 -127 43c-49 0 -85 -13 -108 -39s-34 -66 -34 -121v-109c0 -68 0 -148 1 -240v-236h-41v594 c0 55 15 99 46 130s76 46 137 46c67 0 118 -17 155 -51c37 -35 55 -75 55 -120c0 -37 -13 -70 -39 -99c-27 -29 -57 -49 -91 -58c47 -8 90 -31 129 -69s58 -88 58 -149c0 -72 -27 -128 -82 -169s-123 -63 -203 -65z"></glyph><glyph glyph-name="onesuperior" unicode="¹" d="M192 764h39v-405h94v-23h-229v23h96v374l-97 -91l-15 17z"></glyph><glyph glyph-name="logicalnot" unicode="¬" d="M82 369h461v-239h-30v215h-431v24z"></glyph><glyph glyph-name="mu" unicode="µ" d="M454 535h41v-535h-41v96c-53 -71 -125 -106 -214 -106c-53 0 -94 14 -122 41v-272h-40v776h41v-395c0 -40 12 -71 36 -93c23 -22 57 -33 100 -33c75 0 142 36 199 107v414z"></glyph><glyph glyph-name="trademark" unicode="™" d="M184 362v334h-124v18h278v-18h-123v-334h-31zM393 362v352h36l129 -185l129 185h30v-352h-30v318l-135 -196l-141 203v-325h-18z"></glyph><glyph glyph-name="Eth" unicode="Ð" d="M353 714c93 0 172 -35 236 -105c63 -71 95 -154 95 -251s-32 -181 -96 -252s-141 -106 -230 -106h-246v342h-77v25h77v347h241zM357 26c85 0 154 32 207 97c52 65 78 143 78 234c0 92 -26 170 -79 235c-53 64 -121 96 -203 96h-206v-321h210v-25h-210v-316h203z"></glyph><glyph glyph-name="onehalf" unicode="½" d="M192 714h39v-405h94v-23h-229v23h96v374l-97 -91l-15 17zM636 714h30l-401 -714h-30zM558 0v23l158 182c1 1 3 4 8 9c4 5 7 10 10 13s7 8 12 15s9 13 12 19s6 13 9 20s6 15 8 23c1 8 2 16 2 24c0 25 -8 45 -24 60s-39 22 -69 22c-45 0 -77 -14 -97 -43l-15 11 c9 16 25 29 47 40s47 16 76 16c39 0 69 -10 90 -30s31 -45 31 -76c0 -35 -18 -73 -53 -114l-164 -185h235v-29h-276z"></glyph><glyph glyph-name="plusminus" unicode="±" d="M541 373v-32h-214v-223h-35v223h-214v32h214v223h35v-223h214zM78 32h464v-32h-464v32z"></glyph><glyph glyph-name="Thorn" unicode="Þ" d="M83 -1454v0h2c0 -1 1 -1 3 -1c1 0 2 0 4 1h1h1v0v0v1v0c-1 0 -1 1 -1 1c-1 0 -1 1 -2 1h-1v0v0v-1c-1 0 -1 0 -2 -1h-1h-1v0v0v0v0v0v0c2 0 3 1 4 2c0 0 1 1 1 2h1v1c0 1 1 1 1 1v0v1v0h-2c0 0 -1 0 -2 -1c-1 0 -1 0 -1 -1v0v0v0v0c0 -2 -1 -3 -1 -3c0 -1 -1 -1 -1 -1 c0 -1 0 -1 -1 -1v0v0v0v1c1 0 2 1 2 1v3v3s0 1 -1 1v0v1v1v0v0s-1 0 -1 -1v0l-1 -1v-3v-1v-1v-1v0v0c1 0 1 -1 1 -1s0 -1 -1 -1v0v0v0v0v0v0v0v0v0c1 0 1 1 1 1v1h-2h-1v-1s0 -1 1 -1v0v0v0v0v0h-1v0v0v0l-1 1l1 1v0h1v1v1v1s0 2 -1 3c0 1 -1 1 -1 1v0v0v1v0h-1v-1v-1v0v-1 s-1 -2 -1 -3s0 -2 1 -3l1 -1c0 -1 1 -1 1 -1v0v0h-1v1c0 0 -1 0 -1 1c-1 0 -1 1 -1 3v0v0v0c0 1 -1 1 -1 1c-1 1 -2 1 -3 1h-1v0v-1v0l1 -1v-1v0c1 -1 1 -2 2 -2c1 -1 2 -2 4 -2v0v0v0v0h-1v0h-1c-1 1 -2 1 -2 1v1v0v0h-1c-1 0 -1 -1 -2 -1l-1 -1v0v-1v0v0h1h1 c1 -1 3 -1 4 -1s2 0 3 1h1v0zM83 -1454v0h2c0 -1 1 -1 3 -1c1 0 2 0 4 1h1h1v0v0v1v0c-1 0 -1 1 -1 1c-1 0 -1 1 -2 1h-1v0v0v-1c-1 0 -1 0 -2 -1h-1h-1v0v0v0v0v0v0c2 0 3 1 4 2c0 0 1 1 1 2h1v1c0 1 1 1 1 1v0v1v0h-2c0 0 -1 0 -2 -1c-1 0 -1 0 -1 -1v0v0v0v0 c0 -2 -1 -3 -1 -3c0 -1 -1 -1 -1 -1c0 -1 0 -1 -1 -1v0v0v0v1c1 0 2 1 2 1v3v3s0 1 -1 1v0v1v1v0v0s-1 0 -1 -1v0l-1 -1v-3v-1v-1v-1v0v0c1 0 1 -1 1 -1s0 -1 -1 -1v0v0v0v0v0v0v0v0v0c1 0 1 1 1 1v1h-2h-1v-1s0 -1 1 -1v0v0v0v0v0h-1v0v0v0l-1 1l1 1v0h1v1v1v1s0 2 -1 3 c0 1 -1 1 -1 1v0v0v1v0h-1v-1v-1v0v-1s-1 -2 -1 -3s0 -2 1 -3l1 -1c0 -1 1 -1 1 -1v0v0h-1v1c0 0 -1 0 -1 1c-1 0 -1 1 -1 3v0v0v0c0 1 -1 1 -1 1c-1 1 -2 1 -3 1h-1v0v-1v0l1 -1v-1v0c1 -1 1 -2 2 -2c1 -1 2 -2 4 -2v0v0v0v0h-1v0h-1c-1 1 -2 1 -2 1v1v0v0h-1 c-1 0 -1 -1 -2 -1l-1 -1v0v-1v0v0h1h1c1 -1 3 -1 4 -1s2 0 3 1h1v0zM642 68c1 -1 3 -2 5 -4c5 -4 14 -9 25 -16c12 -7 26 -13 44 -20c18 -8 39 -14 64 -19c24 -5 52 -7 83 -7c25 0 50 2 74 7c25 4 49 9 71 15c23 7 44 13 63 19c36 11 62 18 78 18c14 0 25 -2 34 -6 c8 -3 15 -3 20 1c4 3 6 7 6 13c-1 4 -5 11 -10 18l-15 21c-13 17 -30 32 -51 47c-29 18 -55 29 -79 33c-23 4 -41 4 -53 2h-1c-2 0 -5 -1 -10 -3s-11 -7 -18 -14c-21 -19 -46 -38 -75 -57c-30 -18 -59 -30 -86 -36h-11c-4 -1 -9 -1 -13 0s-6 2 -6 4s0 3 1 3c1 1 2 2 4 2 c1 1 2 1 3 1v0c42 11 77 25 106 44c28 18 53 39 76 60c38 37 68 77 90 121c3 6 6 12 9 20c8 18 19 37 31 57s27 35 46 45c3 2 5 5 6 8c1 4 0 8 -3 12c-2 3 -7 6 -14 8c-5 1 -17 2 -36 2c-20 0 -44 -3 -73 -9c-29 -7 -61 -19 -97 -38c-20 -11 -34 -22 -42 -32 s-13 -17 -13 -21v0s-1 0 -1 -1c0 0 0 -1 -1 -2c0 -1 0 -2 -1 -3v-6c-3 -49 -10 -89 -22 -119c-13 -30 -27 -53 -42 -69s-28 -28 -39 -35c-7 -5 -14 -8 -20 -10c-7 -2 -11 -2 -14 0v3c1 1 2 3 3 4s3 2 4 3c44 30 74 64 90 103c15 38 23 78 24 121c2 35 -2 69 -11 101 c-9 31 -19 61 -31 88c-4 9 -7 19 -11 28c-2 5 -5 15 -8 30c-3 16 -2 32 2 49c3 11 3 19 1 23c-3 4 -7 6 -14 7c-6 0 -12 -4 -19 -11s-12 -13 -16 -19c-1 0 -2 -1 -2 -2c-3 -3 -8 -10 -16 -21s-18 -29 -31 -54c-16 -33 -27 -65 -34 -97c-7 -31 -12 -58 -13 -80 c-2 -22 -2 -35 -2 -40c0 -23 2 -39 5 -50c3 -12 8 -20 14 -25c7 -5 15 -10 25 -15c1 0 2 -1 3 -1c14 -6 25 -13 32 -23c8 -10 11 -21 11 -32s-4 -21 -12 -29c-7 -8 -19 -16 -34 -22h-1c-1 -1 -2 -1 -3 -2h-3c-7 -2 -13 -2 -17 -1c-5 1 -7 3 -8 5c0 1 1 2 2 3c2 1 3 2 5 2 c2 1 3 1 4 1c2 0 2 1 2 1c34 9 50 23 50 42c0 13 -8 25 -24 36s-35 16 -58 16h-2h-3c-23 0 -42 -5 -58 -16s-24 -23 -24 -36c0 -19 17 -33 50 -42c0 0 0 -1 2 -1c1 0 3 0 4 -1c2 0 3 -1 5 -2c1 -1 2 -2 2 -3c0 -2 -3 -4 -7 -5c-5 -1 -11 -1 -18 1h-2c-1 1 -2 1 -3 1 c0 0 -1 1 -2 1c-15 6 -26 14 -34 22s-12 18 -12 29s3 21 11 31c7 11 18 18 32 24c1 1 2 1 3 1c10 5 19 10 25 15c7 5 11 14 14 25s5 27 5 50c0 4 0 17 -2 40c-1 22 -5 49 -12 80c-7 32 -19 64 -35 97c-12 24 -22 42 -30 53s-13 18 -16 21v1l-3 3c-4 6 -10 12 -16 19 c-7 6 -13 10 -19 10c-6 -1 -11 -3 -13 -7c-3 -4 -3 -12 0 -23c4 -17 5 -33 2 -49c-3 -15 -6 -25 -8 -30c-4 -9 -7 -18 -11 -28c-11 -27 -22 -56 -31 -88s-13 -65 -11 -101c1 -43 9 -83 24 -121c16 -39 46 -73 90 -103c2 -1 3 -2 4 -3s2 -3 3 -4s1 -2 0 -3c-2 -2 -7 -2 -14 0 c-6 2 -13 5 -19 10c-12 7 -25 19 -40 35s-29 39 -42 69c-12 30 -19 70 -22 119v5s-1 2 -1 3v2c-1 1 -1 1 -1 2h-1v0c0 4 -5 11 -13 21s-22 21 -42 32c-35 19 -67 31 -97 38c-29 6 -53 9 -72 9c-20 0 -32 -1 -37 -2c-7 -2 -11 -5 -14 -8c-3 -4 -4 -8 -3 -12c1 -3 3 -6 7 -8 c18 -10 33 -25 45 -45c12 -19 23 -39 31 -57c3 -8 6 -14 9 -20c22 -44 52 -84 90 -121c23 -21 48 -42 76 -60c29 -19 64 -34 106 -44c1 0 2 0 3 -1c2 0 3 -1 4 -2c1 0 2 -1 2 -3c-1 -2 -3 -3 -7 -4s-9 -1 -13 0h-11c-27 6 -56 18 -86 36c-29 19 -54 38 -74 57 c-8 7 -14 12 -19 14s-8 3 -10 3h-1c-12 2 -30 2 -53 -2c-24 -4 -50 -15 -79 -33c-21 -15 -38 -31 -51 -47l-15 -21s-9 -14 -10 -18c0 -6 2 -10 7 -13c4 -4 11 -4 19 -1c9 4 20 6 34 6c16 0 42 -6 78 -18c19 -6 40 -12 63 -19c22 -6 46 -11 71 -15c24 -5 49 -7 74 -7 c31 0 59 2 84 7c24 5 45 12 63 19s33 14 44 20c12 7 20 12 25 16c3 2 4 3 6 4z"></glyph><glyph glyph-name="onequarter" unicode="¼" d="M192 714h39v-405h94v-23h-229v23h96v374l-97 -91l-15 17zM636 714h30l-401 -714h-30zM754 145h67v-23h-67v-122h-39v122h-210v23l210 285h39v-285zM715 145v244l-179 -244h179z"></glyph><glyph glyph-name="divide" unicode="÷" d="M301 472c-8 0 -15 3 -20 9c-6 5 -9 12 -9 19c0 8 3 15 9 21c5 5 12 8 20 8c7 0 14 -3 20 -8c5 -6 8 -13 8 -21c0 -7 -3 -14 -8 -19c-6 -6 -13 -9 -20 -9zM69 341v24h464v-24h-464zM301 177c-8 0 -15 3 -20 9c-6 5 -9 12 -9 20c0 7 3 14 9 20c5 5 12 8 20 8 c7 0 14 -3 20 -8c5 -6 8 -13 8 -20c0 -8 -3 -15 -8 -20c-6 -6 -13 -9 -20 -9z"></glyph><glyph glyph-name="brokenbar" unicode="¦" d="M125 337h-32v423h32v-423zM93 183h32v-424h-32v424z"></glyph><glyph glyph-name="degree" unicode="°" d="M189 395c-44 0 -81 16 -112 49c-31 32 -47 71 -47 118c0 46 16 85 47 118c31 32 68 48 112 48s81 -16 112 -48c31 -33 46 -72 46 -118c0 -47 -15 -86 -46 -118c-31 -33 -68 -49 -112 -49zM189 417c33 0 61 14 84 43c23 28 34 62 34 102s-11 74 -34 102s-51 42 -84 42 c-34 0 -62 -14 -85 -42s-34 -62 -34 -102s12 -74 35 -102c23 -29 51 -43 84 -43z"></glyph><glyph glyph-name="thorn" unicode="þ" d="M83 -1454v0h2c0 -1 1 -1 3 -1c1 0 2 0 4 1h1h1v0v0v1v0c-1 0 -1 1 -1 1c-1 0 -1 1 -2 1h-1v0v0v-1c-1 0 -1 0 -2 -1h-1h-1v0v0v0v0v0v0c2 0 3 1 4 2c0 0 1 1 1 2h1v1c0 1 1 1 1 1v0v1v0h-2c0 0 -1 0 -2 -1c-1 0 -1 0 -1 -1v0v0v0v0c0 -2 -1 -3 -1 -3c0 -1 -1 -1 -1 -1 c0 -1 0 -1 -1 -1v0v0v0v1c1 0 2 1 2 1v3v3s0 1 -1 1v0v1v1v0v0s-1 0 -1 -1v0l-1 -1v-3v-1v-1v-1v0v0c1 0 1 -1 1 -1s0 -1 -1 -1v0v0v0v0v0v0v0v0v0c1 0 1 1 1 1v1h-2h-1v-1s0 -1 1 -1v0v0v0v0v0h-1v0v0v0l-1 1l1 1v0h1v1v1v1s0 2 -1 3c0 1 -1 1 -1 1v0v0v1v0h-1v-1v-1v0v-1 s-1 -2 -1 -3s0 -2 1 -3l1 -1c0 -1 1 -1 1 -1v0v0h-1v1c0 0 -1 0 -1 1c-1 0 -1 1 -1 3v0v0v0c0 1 -1 1 -1 1c-1 1 -2 1 -3 1h-1v0v-1v0l1 -1v-1v0c1 -1 1 -2 2 -2c1 -1 2 -2 4 -2v0v0v0v0h-1v0h-1c-1 1 -2 1 -2 1v1v0v0h-1c-1 0 -1 -1 -2 -1l-1 -1v0v-1v0v0h1h1 c1 -1 3 -1 4 -1s2 0 3 1h1v0zM83 -1454v0h2c0 -1 1 -1 3 -1c1 0 2 0 4 1h1h1v0v0v1v0c-1 0 -1 1 -1 1c-1 0 -1 1 -2 1h-1v0v0v-1c-1 0 -1 0 -2 -1h-1h-1v0v0v0v0v0v0c2 0 3 1 4 2c0 0 1 1 1 2h1v1c0 1 1 1 1 1v0v1v0h-2c0 0 -1 0 -2 -1c-1 0 -1 0 -1 -1v0v0v0v0 c0 -2 -1 -3 -1 -3c0 -1 -1 -1 -1 -1c0 -1 0 -1 -1 -1v0v0v0v1c1 0 2 1 2 1v3v3s0 1 -1 1v0v1v1v0v0s-1 0 -1 -1v0l-1 -1v-3v-1v-1v-1v0v0c1 0 1 -1 1 -1s0 -1 -1 -1v0v0v0v0v0v0v0v0v0c1 0 1 1 1 1v1h-2h-1v-1s0 -1 1 -1v0v0v0v0v0h-1v0v0v0l-1 1l1 1v0h1v1v1v1s0 2 -1 3 c0 1 -1 1 -1 1v0v0v1v0h-1v-1v-1v0v-1s-1 -2 -1 -3s0 -2 1 -3l1 -1c0 -1 1 -1 1 -1v0v0h-1v1c0 0 -1 0 -1 1c-1 0 -1 1 -1 3v0v0v0c0 1 -1 1 -1 1c-1 1 -2 1 -3 1h-1v0v-1v0l1 -1v-1v0c1 -1 1 -2 2 -2c1 -1 2 -2 4 -2v0v0v0v0h-1v0h-1c-1 1 -2 1 -2 1v1v0v0h-1 c-1 0 -1 -1 -2 -1l-1 -1v0v-1v0v0h1h1c1 -1 3 -1 4 -1s2 0 3 1h1v0zM642 68c1 -1 3 -2 5 -4c5 -4 14 -9 25 -16c12 -7 26 -13 44 -20c18 -8 39 -14 64 -19c24 -5 52 -7 83 -7c25 0 50 2 74 7c25 4 49 9 71 15c23 7 44 13 63 19c36 11 62 18 78 18c14 0 25 -2 34 -6 c8 -3 15 -3 20 1c4 3 6 7 6 13c-1 4 -5 11 -10 18l-15 21c-13 17 -30 32 -51 47c-29 18 -55 29 -79 33c-23 4 -41 4 -53 2h-1c-2 0 -5 -1 -10 -3s-11 -7 -18 -14c-21 -19 -46 -38 -75 -57c-30 -18 -59 -30 -86 -36h-11c-4 -1 -9 -1 -13 0s-6 2 -6 4s0 3 1 3c1 1 2 2 4 2 c1 1 2 1 3 1v0c42 11 77 25 106 44c28 18 53 39 76 60c38 37 68 77 90 121c3 6 6 12 9 20c8 18 19 37 31 57s27 35 46 45c3 2 5 5 6 8c1 4 0 8 -3 12c-2 3 -7 6 -14 8c-5 1 -17 2 -36 2c-20 0 -44 -3 -73 -9c-29 -7 -61 -19 -97 -38c-20 -11 -34 -22 -42 -32 s-13 -17 -13 -21v0s-1 0 -1 -1c0 0 0 -1 -1 -2c0 -1 0 -2 -1 -3v-6c-3 -49 -10 -89 -22 -119c-13 -30 -27 -53 -42 -69s-28 -28 -39 -35c-7 -5 -14 -8 -20 -10c-7 -2 -11 -2 -14 0v3c1 1 2 3 3 4s3 2 4 3c44 30 74 64 90 103c15 38 23 78 24 121c2 35 -2 69 -11 101 c-9 31 -19 61 -31 88c-4 9 -7 19 -11 28c-2 5 -5 15 -8 30c-3 16 -2 32 2 49c3 11 3 19 1 23c-3 4 -7 6 -14 7c-6 0 -12 -4 -19 -11s-12 -13 -16 -19c-1 0 -2 -1 -2 -2c-3 -3 -8 -10 -16 -21s-18 -29 -31 -54c-16 -33 -27 -65 -34 -97c-7 -31 -12 -58 -13 -80 c-2 -22 -2 -35 -2 -40c0 -23 2 -39 5 -50c3 -12 8 -20 14 -25c7 -5 15 -10 25 -15c1 0 2 -1 3 -1c14 -6 25 -13 32 -23c8 -10 11 -21 11 -32s-4 -21 -12 -29c-7 -8 -19 -16 -34 -22h-1c-1 -1 -2 -1 -3 -2h-3c-7 -2 -13 -2 -17 -1c-5 1 -7 3 -8 5c0 1 1 2 2 3c2 1 3 2 5 2 c2 1 3 1 4 1c2 0 2 1 2 1c34 9 50 23 50 42c0 13 -8 25 -24 36s-35 16 -58 16h-2h-3c-23 0 -42 -5 -58 -16s-24 -23 -24 -36c0 -19 17 -33 50 -42c0 0 0 -1 2 -1c1 0 3 0 4 -1c2 0 3 -1 5 -2c1 -1 2 -2 2 -3c0 -2 -3 -4 -7 -5c-5 -1 -11 -1 -18 1h-2c-1 1 -2 1 -3 1 c0 0 -1 1 -2 1c-15 6 -26 14 -34 22s-12 18 -12 29s3 21 11 31c7 11 18 18 32 24c1 1 2 1 3 1c10 5 19 10 25 15c7 5 11 14 14 25s5 27 5 50c0 4 0 17 -2 40c-1 22 -5 49 -12 80c-7 32 -19 64 -35 97c-12 24 -22 42 -30 53s-13 18 -16 21v1l-3 3c-4 6 -10 12 -16 19 c-7 6 -13 10 -19 10c-6 -1 -11 -3 -13 -7c-3 -4 -3 -12 0 -23c4 -17 5 -33 2 -49c-3 -15 -6 -25 -8 -30c-4 -9 -7 -18 -11 -28c-11 -27 -22 -56 -31 -88s-13 -65 -11 -101c1 -43 9 -83 24 -121c16 -39 46 -73 90 -103c2 -1 3 -2 4 -3s2 -3 3 -4s1 -2 0 -3c-2 -2 -7 -2 -14 0 c-6 2 -13 5 -19 10c-12 7 -25 19 -40 35s-29 39 -42 69c-12 30 -19 70 -22 119v5s-1 2 -1 3v2c-1 1 -1 1 -1 2h-1v0c0 4 -5 11 -13 21s-22 21 -42 32c-35 19 -67 31 -97 38c-29 6 -53 9 -72 9c-20 0 -32 -1 -37 -2c-7 -2 -11 -5 -14 -8c-3 -4 -4 -8 -3 -12c1 -3 3 -6 7 -8 c18 -10 33 -25 45 -45c12 -19 23 -39 31 -57c3 -8 6 -14 9 -20c22 -44 52 -84 90 -121c23 -21 48 -42 76 -60c29 -19 64 -34 106 -44c1 0 2 0 3 -1c2 0 3 -1 4 -2c1 0 2 -1 2 -3c-1 -2 -3 -3 -7 -4s-9 -1 -13 0h-11c-27 6 -56 18 -86 36c-29 19 -54 38 -74 57 c-8 7 -14 12 -19 14s-8 3 -10 3h-1c-12 2 -30 2 -53 -2c-24 -4 -50 -15 -79 -33c-21 -15 -38 -31 -51 -47l-15 -21s-9 -14 -10 -18c0 -6 2 -10 7 -13c4 -4 11 -4 19 -1c9 4 20 6 34 6c16 0 42 -6 78 -18c19 -6 40 -12 63 -19c22 -6 46 -11 71 -15c24 -5 49 -7 74 -7 c31 0 59 2 84 7c24 5 45 12 63 19s33 14 44 20c12 7 20 12 25 16c3 2 4 3 6 4z"></glyph><glyph glyph-name="threequarters" unicode="¾" d="M80 354c27 -33 64 -50 111 -50c35 0 61 10 79 29s27 43 27 72c0 65 -49 97 -148 97v22c87 0 131 31 131 94c0 52 -29 78 -87 78c-45 0 -77 -14 -98 -43l-15 11c9 15 25 29 46 40s46 16 76 16c32 0 59 -7 82 -22s34 -40 34 -73c0 -32 -10 -57 -31 -76s-45 -31 -72 -34 c33 -2 61 -12 85 -31s36 -45 36 -80c0 -33 -11 -62 -33 -87c-23 -25 -57 -37 -104 -37c-33 0 -60 6 -83 19c-23 12 -39 27 -50 45zM636 714h30l-401 -714h-30zM754 145h67v-23h-67v-122h-39v122h-210v23l210 285h39v-285zM715 145v244l-179 -244h179z"></glyph><glyph glyph-name="twosuperior" unicode="²" d="M61 336v23l158 182c1 1 3 4 8 9c4 5 7 10 10 13s7 8 12 15s9 13 12 19s6 13 9 20s6 15 8 23c1 8 2 16 2 24c0 25 -8 45 -24 60s-39 22 -69 22c-45 0 -77 -14 -97 -43l-15 11c9 16 25 29 47 40s47 16 76 16c39 0 69 -10 90 -30s31 -45 31 -76c0 -35 -18 -73 -53 -114 l-164 -185h235v-29h-276z"></glyph><glyph glyph-name="registered" unicode="®" d="M413 -10c-101 0 -188 36 -259 107c-72 71 -108 158 -108 259s36 188 108 260c71 71 158 107 259 107s188 -36 259 -107c71 -72 107 -159 107 -260s-36 -188 -107 -259c-72 -71 -158 -107 -259 -107zM413 13c95 0 176 34 243 101s101 147 101 242s-34 177 -101 244 s-148 101 -243 101s-176 -34 -243 -101s-101 -149 -101 -244s34 -175 101 -242s148 -101 243 -101zM273 144v428h160c38 0 69 -11 93 -34c23 -23 35 -52 35 -88c0 -28 -7 -51 -22 -70s-36 -33 -63 -40l104 -196h-47l-100 189h-16h-103v-189h-41zM314 358h114 c28 0 50 8 67 24c16 15 24 38 24 67c0 30 -8 54 -25 72c-17 17 -40 26 -68 26h-112v-189z"></glyph><glyph glyph-name="minus" unicode="−" d="M69 369h464v-32h-464v32z"></glyph><glyph glyph-name="eth" unicode="ð" d="M424 656c90 -83 135 -197 135 -343c0 -110 -24 -191 -71 -244s-107 -79 -180 -79c-75 0 -138 25 -189 76s-76 114 -76 190s25 140 76 192c50 51 111 77 183 77c51 0 95 -13 132 -39c37 -27 64 -56 79 -89c-13 107 -50 189 -113 247l-113 -56l-11 23l102 50 c-43 34 -102 63 -177 87l7 22c78 -22 143 -54 195 -96l107 52l11 -22zM302 15c62 0 114 23 155 69s61 104 61 174c0 71 -21 129 -62 174s-93 68 -154 68c-63 0 -114 -23 -155 -68s-61 -103 -62 -174c1 -71 22 -130 63 -175s92 -68 154 -68z"></glyph><glyph glyph-name="multiply" unicode="×" d="M407 545l23 -23l-156 -157l157 -157l-25 -25l-158 157l-156 -157l-23 23l156 157l-157 158l25 25l158 -157z"></glyph><glyph glyph-name="threesuperior" unicode="³" d="M80 404c27 -33 64 -50 111 -50c35 0 61 10 79 29s27 43 27 72c0 65 -49 97 -148 97v22c87 0 131 31 131 94c0 52 -29 78 -87 78c-45 0 -77 -14 -98 -43l-15 11c9 15 25 29 46 40s46 16 76 16c32 0 59 -7 82 -22s34 -40 34 -73c0 -32 -10 -57 -31 -76s-45 -31 -72 -34 c33 -2 61 -12 85 -31s36 -45 36 -80c0 -33 -11 -62 -33 -87c-23 -25 -57 -37 -104 -37c-33 0 -60 6 -83 19c-23 12 -39 27 -50 45z"></glyph><glyph glyph-name="copyright" unicode="©" d="M413 723c101 0 188 -36 259 -107c71 -72 107 -159 107 -260s-36 -188 -107 -259c-72 -71 -158 -107 -259 -107s-188 36 -259 107c-72 71 -108 158 -108 259s36 188 108 260c71 71 158 107 259 107zM413 13c95 0 176 34 243 101s101 147 101 242s-34 177 -101 244 s-148 101 -243 101s-176 -34 -243 -101s-101 -149 -101 -244s34 -175 101 -242s148 -101 243 -101zM418 139c-61 0 -111 22 -150 66c-40 43 -60 95 -60 156c0 62 21 114 63 156c41 41 90 62 147 62c35 0 67 -8 97 -24c29 -17 52 -39 67 -67l-17 -10c-37 51 -84 76 -141 76 c-51 0 -93 -18 -125 -55c-33 -37 -49 -83 -49 -138s16 -102 49 -139c33 -38 75 -57 126 -57c57 0 106 25 147 76l16 -10c-17 -29 -41 -51 -71 -67c-31 -17 -64 -25 -99 -25z"></glyph><glyph glyph-name="Aacute" unicode="Á" d="M469 940l-137 -156h-33l116 156h54zM581 0l-106 266h-323l-106 -266h-28l285 714h38l285 -714h-45zM162 292h303l-151 381z"></glyph><glyph glyph-name="Acircumflex" unicode="Â" d="M322 912l-113 -127h-33l116 154h60l115 -154h-32zM581 0l-106 266h-323l-106 -266h-28l285 714h38l285 -714h-45zM162 292h303l-151 381z"></glyph><glyph glyph-name="Adieresis" unicode="Ä" d="M256 839c-8 0 -15 3 -20 8c-6 5 -9 12 -9 19c0 8 3 15 9 20c5 5 12 8 20 8c7 0 14 -3 19 -8s8 -12 8 -20c0 -7 -3 -14 -8 -19s-12 -8 -19 -8zM389 839c-8 0 -15 3 -20 8s-8 12 -8 19c0 8 3 15 8 20s12 8 20 8c7 0 14 -3 19 -8s8 -12 8 -20c0 -7 -3 -14 -8 -19 s-12 -8 -19 -8zM581 0l-106 266h-323l-106 -266h-28l285 714h38l285 -714h-45zM162 292h303l-151 381z"></glyph><glyph glyph-name="Agrave" unicode="À" d="M344 784h-33l-137 156h54zM581 0l-106 266h-323l-106 -266h-28l285 714h38l285 -714h-45zM162 292h303l-151 381z"></glyph><glyph glyph-name="Aring" unicode="Å" d="M321 777c-26 0 -48 10 -67 30c-19 19 -28 43 -28 70s9 51 28 70s41 29 67 29c27 0 49 -10 68 -29s28 -43 28 -70s-9 -51 -28 -70c-19 -20 -41 -30 -68 -30zM321 956c-19 0 -36 -7 -49 -22s-20 -34 -20 -57s7 -42 20 -57s30 -22 49 -22c20 0 37 7 50 22s20 34 20 57 s-7 42 -20 57s-30 22 -50 22zM581 0l-106 266h-323l-106 -266h-28l285 714h38l285 -714h-45zM162 292h303l-151 381z"></glyph><glyph glyph-name="Atilde" unicode="Ã" d="M248 871c-15 0 -29 -5 -42 -15c-13 -11 -24 -22 -31 -34v19c18 38 45 57 80 57c18 0 42 -8 73 -25c30 -17 52 -25 66 -25c29 0 53 16 74 49v-19c-19 -37 -45 -56 -80 -56c-18 0 -42 8 -72 25c-31 16 -53 24 -68 24zM581 0l-106 266h-323l-106 -266h-28l285 714h38 l285 -714h-45zM162 292h303l-151 381z"></glyph><glyph glyph-name="Ccedilla" unicode="Ç" d="M673 140c-30 -46 -69 -82 -118 -108s-103 -40 -160 -41l-27 -58c23 -4 44 -14 63 -30c18 -16 27 -37 27 -64c0 -29 -10 -49 -31 -62s-44 -19 -71 -19c-32 0 -59 7 -80 20l8 14c15 -11 37 -16 66 -16c23 0 42 5 58 16c16 10 24 25 24 44c0 38 -33 62 -100 73l37 83 c-94 5 -171 44 -232 116s-91 156 -91 253c0 103 34 190 103 259s149 104 242 104c56 0 109 -14 158 -41s87 -64 112 -109l-19 -10c-63 89 -146 134 -248 134c-89 0 -162 -32 -219 -97s-86 -146 -86 -242c0 -95 28 -176 85 -243s130 -100 220 -100c103 0 189 45 260 134z"></glyph><glyph glyph-name="Eacute" unicode="É" d="M306 784l116 156h54l-137 -156h-33zM137 26h405v-26h-447v714h446v-26h-404v-309h348v-26h-348v-327z"></glyph><glyph glyph-name="Ecircumflex" unicode="Ê" d="M176 785l116 154h60l115 -154h-32l-113 127l-113 -127h-33zM137 26h405v-26h-447v714h446v-26h-404v-309h348v-26h-348v-327z"></glyph><glyph glyph-name="Edieresis" unicode="Ë" d="M246 839c-8 0 -15 3 -20 8c-6 5 -9 12 -9 19c0 8 3 15 9 20c5 5 12 8 20 8c7 0 14 -3 19 -8s8 -12 8 -20c0 -7 -3 -14 -8 -19s-12 -8 -19 -8zM379 839c-8 0 -15 3 -20 8s-8 12 -8 19c0 8 3 15 8 20s12 8 20 8c7 0 14 -3 19 -8s8 -12 8 -20c0 -7 -3 -14 -8 -19 s-12 -8 -19 -8zM137 26h405v-26h-447v714h446v-26h-404v-309h348v-26h-348v-327z"></glyph><glyph glyph-name="Egrave" unicode="È" d="M322 784l-137 156h54l116 -156h-33zM137 26h405v-26h-447v714h446v-26h-404v-309h348v-26h-348v-327z"></glyph><glyph glyph-name="Iacute" unicode="Í" d="M87 784l116 156h54l-137 -156h-33zM95 714h42v-714h-42v714z"></glyph><glyph glyph-name="Icircumflex" unicode="Î" d="M-30 785l116 154h60l115 -154h-32l-113 127l-113 -127h-33zM95 714h42v-714h-42v714z"></glyph><glyph glyph-name="Idieresis" unicode="Ï" d="M50 839c-8 0 -15 3 -20 8c-6 5 -9 12 -9 19c0 8 3 15 9 20c5 5 12 8 20 8c7 0 14 -3 19 -8s8 -12 8 -20c0 -7 -3 -14 -8 -19s-12 -8 -19 -8zM183 839c-8 0 -15 3 -20 8s-8 12 -8 19c0 8 3 15 8 20s12 8 20 8c7 0 14 -3 19 -8s8 -12 8 -20c0 -7 -3 -14 -8 -19 s-12 -8 -19 -8zM95 714h42v-714h-42v714z"></glyph><glyph glyph-name="Igrave" unicode="Ì" d="M108 784l-137 156h54l116 -156h-33zM95 714h42v-714h-42v714z"></glyph><glyph glyph-name="Ntilde" unicode="Ñ" d="M233 822v19c18 38 45 57 80 57c18 0 42 -8 73 -25c30 -17 52 -25 66 -25c29 0 53 16 74 49v-19c-19 -37 -45 -56 -80 -56c-18 0 -42 8 -72 25c-31 16 -53 24 -68 24s-29 -5 -42 -15c-13 -11 -24 -22 -31 -34zM95 714h32l491 -654v654h25v-714h-32l-490 654v-654h-26v714z "></glyph><glyph glyph-name="Oacute" unicode="Ó" d="M363 785l116 156h54l-137 -156h-33zM391 724c95 0 176 -36 243 -107c67 -72 101 -159 101 -260s-34 -187 -101 -259s-148 -108 -243 -108s-176 36 -243 108c-68 71 -102 158 -102 259s34 188 101 260c67 71 149 107 244 107zM391 16c83 0 154 33 213 100 c59 66 88 146 88 241s-29 175 -88 242c-59 66 -130 99 -213 99c-85 0 -156 -33 -214 -99c-59 -66 -88 -147 -88 -242s29 -176 88 -242c58 -66 129 -99 214 -99z"></glyph><glyph glyph-name="Ocircumflex" unicode="Ô" d="M245 786l116 154h60l115 -154h-32l-113 127l-113 -127h-33zM391 724c95 0 176 -36 243 -107c67 -72 101 -159 101 -260s-34 -187 -101 -259s-148 -108 -243 -108s-176 36 -243 108c-68 71 -102 158 -102 259s34 188 101 260c67 71 149 107 244 107zM391 16 c83 0 154 33 213 100c59 66 88 146 88 241s-29 175 -88 242c-59 66 -130 99 -213 99c-85 0 -156 -33 -214 -99c-59 -66 -88 -147 -88 -242s29 -176 88 -242c58 -66 129 -99 214 -99z"></glyph><glyph glyph-name="Odieresis" unicode="Ö" d="M325 840c-8 0 -15 3 -20 8c-6 5 -9 12 -9 19c0 8 3 15 9 20c5 5 12 8 20 8c7 0 14 -3 19 -8s8 -12 8 -20c0 -7 -3 -14 -8 -19s-12 -8 -19 -8zM458 840c-8 0 -15 3 -20 8s-8 12 -8 19c0 8 3 15 8 20s12 8 20 8c7 0 14 -3 19 -8s8 -12 8 -20c0 -7 -3 -14 -8 -19 s-12 -8 -19 -8zM391 724c95 0 176 -36 243 -107c67 -72 101 -159 101 -260s-34 -187 -101 -259s-148 -108 -243 -108s-176 36 -243 108c-68 71 -102 158 -102 259s34 188 101 260c67 71 149 107 244 107zM391 16c83 0 154 33 213 100c59 66 88 146 88 241s-29 175 -88 242 c-59 66 -130 99 -213 99c-85 0 -156 -33 -214 -99c-59 -66 -88 -147 -88 -242s29 -176 88 -242c58 -66 129 -99 214 -99z"></glyph><glyph glyph-name="Ograve" unicode="Ò" d="M383 785l-137 156h54l116 -156h-33zM391 724c95 0 176 -36 243 -107c67 -72 101 -159 101 -260s-34 -187 -101 -259s-148 -108 -243 -108s-176 36 -243 108c-68 71 -102 158 -102 259s34 188 101 260c67 71 149 107 244 107zM391 16c83 0 154 33 213 100 c59 66 88 146 88 241s-29 175 -88 242c-59 66 -130 99 -213 99c-85 0 -156 -33 -214 -99c-59 -66 -88 -147 -88 -242s29 -176 88 -242c58 -66 129 -99 214 -99z"></glyph><glyph glyph-name="Otilde" unicode="Õ" d="M244 823v19c18 38 45 57 80 57c18 0 42 -8 73 -25c30 -17 52 -25 66 -25c29 0 53 16 74 49v-19c-19 -37 -45 -56 -80 -56c-18 0 -42 8 -72 25c-31 16 -53 24 -68 24s-29 -5 -42 -15c-13 -11 -24 -22 -31 -34zM391 724c95 0 176 -36 243 -107c67 -72 101 -159 101 -260 s-34 -187 -101 -259s-148 -108 -243 -108s-176 36 -243 108c-68 71 -102 158 -102 259s34 188 101 260c67 71 149 107 244 107zM391 16c83 0 154 33 213 100c59 66 88 146 88 241s-29 175 -88 242c-59 66 -130 99 -213 99c-85 0 -156 -33 -214 -99 c-59 -66 -88 -147 -88 -242s29 -176 88 -242c58 -66 129 -99 214 -99z"></glyph><glyph glyph-name="Scaron" unicode="Š" d="M46 38l19 41c44 -30 102 -50 167 -50c109 0 175 58 175 141c0 77 -39 121 -152 157c-135 43 -189 98 -189 186c0 99 85 173 209 173c71 0 124 -17 150 -34l-19 -41c-19 13 -67 35 -133 35c-121 0 -159 -73 -159 -126c0 -72 43 -113 152 -148c123 -40 189 -88 189 -197 c0 -93 -68 -187 -229 -187c-64 0 -139 20 -180 50zM282 715h-36l-113 115h54l77 -78h2l75 78h50z"></glyph><glyph glyph-name="Uacute" unicode="Ú" d="M352 784l116 156h54l-137 -156h-33zM610 714h25v-464c0 -71 -27 -132 -80 -183c-54 -51 -119 -77 -195 -77s-141 26 -194 77c-54 51 -81 112 -81 183v464h41v-464c0 -65 24 -120 71 -165c47 -46 104 -69 171 -69s124 23 171 68s70 101 70 166z"></glyph><glyph glyph-name="Ucircumflex" unicode="Û" d="M221 785l116 154h60l115 -154h-32l-113 127l-113 -127h-33zM610 714h25v-464c0 -71 -27 -132 -80 -183c-54 -51 -119 -77 -195 -77s-141 26 -194 77c-54 51 -81 112 -81 183v464h41v-464c0 -65 24 -120 71 -165c47 -46 104 -69 171 -69s124 23 171 68s70 101 70 166z"></glyph><glyph glyph-name="Udieresis" unicode="Ü" d="M301 839c-8 0 -15 3 -20 8c-6 5 -9 12 -9 19c0 8 3 15 9 20c5 5 12 8 20 8c7 0 14 -3 19 -8s8 -12 8 -20c0 -7 -3 -14 -8 -19s-12 -8 -19 -8zM434 839c-8 0 -15 3 -20 8s-8 12 -8 19c0 8 3 15 8 20s12 8 20 8c7 0 14 -3 19 -8s8 -12 8 -20c0 -7 -3 -14 -8 -19 s-12 -8 -19 -8zM610 714h25v-464c0 -71 -27 -132 -80 -183c-54 -51 -119 -77 -195 -77s-141 26 -194 77c-54 51 -81 112 -81 183v464h41v-464c0 -65 24 -120 71 -165c47 -46 104 -69 171 -69s124 23 171 68s70 101 70 166z"></glyph><glyph glyph-name="Ugrave" unicode="Ù" d="M367 784l-137 156h54l116 -156h-33zM610 714h25v-464c0 -71 -27 -132 -80 -183c-54 -51 -119 -77 -195 -77s-141 26 -194 77c-54 51 -81 112 -81 183v464h41v-464c0 -65 24 -120 71 -165c47 -46 104 -69 171 -69s124 23 171 68s70 101 70 166z"></glyph><glyph glyph-name="Yacute" unicode="Ý" d="M287 784l116 156h54l-137 -156h-33zM552 714h31l-265 -408v-306h-42v306l-257 408h49l237 -381z"></glyph><glyph glyph-name="Ydieresis" unicode="Ÿ" d="M297 0h-49v288l-236 386h56l125 -210c32 -54 57 -94 82 -141h2c22 43 51 88 84 141l131 210h56l-251 -388v-286zM189 714c-23 0 -37 20 -37 41s17 41 39 41s38 -19 38 -41c0 -21 -14 -41 -40 -41zM369 714c-23 0 -37 20 -37 41s17 41 39 41s38 -19 38 -41 c0 -21 -14 -41 -40 -41z"></glyph><glyph glyph-name="Zcaron" unicode="Ž" d="M37 0v33l461 597v3h-423v41h488v-34l-462 -596v-3h469v-41h-533zM334 710h-36l-113 115h54l77 -78h2l75 78h50z"></glyph><glyph glyph-name="aacute" unicode="á" d="M241 605l116 156h54l-137 -156h-33zM225 -10c-29 0 -57 5 -84 14s-51 27 -72 53c-21 25 -32 57 -32 95c0 53 18 94 55 123c36 29 79 43 130 43c28 0 57 -5 87 -14c30 -10 53 -20 69 -30l23 -14v133c0 85 -43 127 -128 127c-25 0 -48 -3 -70 -10s-40 -16 -53 -26 c-14 -11 -26 -21 -36 -31c-10 -11 -17 -20 -22 -27l-6 -10l-18 12c20 35 49 63 86 85s81 33 130 33c57 0 98 -14 122 -43s36 -66 36 -111v-392h-41v53c-65 -42 -124 -63 -176 -63zM234 16c26 0 53 5 81 15s49 20 64 29l22 15v166l-22 12c-15 8 -35 17 -62 26s-54 14 -79 14 c-43 0 -80 -12 -112 -35s-48 -58 -48 -104s16 -80 48 -103c31 -23 67 -35 108 -35z"></glyph><glyph glyph-name="acircumflex" unicode="â" d="M118 606l116 154h60l115 -154h-32l-113 127l-113 -127h-33zM225 -10c-29 0 -57 5 -84 14s-51 27 -72 53c-21 25 -32 57 -32 95c0 53 18 94 55 123c36 29 79 43 130 43c28 0 57 -5 87 -14c30 -10 53 -20 69 -30l23 -14v133c0 85 -43 127 -128 127c-25 0 -48 -3 -70 -10 s-40 -16 -53 -26c-14 -11 -26 -21 -36 -31c-10 -11 -17 -20 -22 -27l-6 -10l-18 12c20 35 49 63 86 85s81 33 130 33c57 0 98 -14 122 -43s36 -66 36 -111v-392h-41v53c-65 -42 -124 -63 -176 -63zM234 16c26 0 53 5 81 15s49 20 64 29l22 15v166l-22 12 c-15 8 -35 17 -62 26s-54 14 -79 14c-43 0 -80 -12 -112 -35s-48 -58 -48 -104s16 -80 48 -103c31 -23 67 -35 108 -35z"></glyph><glyph glyph-name="adieresis" unicode="ä" d="M198 660c-8 0 -15 3 -20 8c-6 5 -9 12 -9 19c0 8 3 15 9 20c5 5 12 8 20 8c7 0 14 -3 19 -8s8 -12 8 -20c0 -7 -3 -14 -8 -19s-12 -8 -19 -8zM331 660c-8 0 -15 3 -20 8s-8 12 -8 19c0 8 3 15 8 20s12 8 20 8c7 0 14 -3 19 -8s8 -12 8 -20c0 -7 -3 -14 -8 -19 s-12 -8 -19 -8zM225 -10c-29 0 -57 5 -84 14s-51 27 -72 53c-21 25 -32 57 -32 95c0 53 18 94 55 123c36 29 79 43 130 43c28 0 57 -5 87 -14c30 -10 53 -20 69 -30l23 -14v133c0 85 -43 127 -128 127c-25 0 -48 -3 -70 -10s-40 -16 -53 -26c-14 -11 -26 -21 -36 -31 c-10 -11 -17 -20 -22 -27l-6 -10l-18 12c20 35 49 63 86 85s81 33 130 33c57 0 98 -14 122 -43s36 -66 36 -111v-392h-41v53c-65 -42 -124 -63 -176 -63zM234 16c26 0 53 5 81 15s49 20 64 29l22 15v166l-22 12c-15 8 -35 17 -62 26s-54 14 -79 14c-43 0 -80 -12 -112 -35 s-48 -58 -48 -104s16 -80 48 -103c31 -23 67 -35 108 -35z"></glyph><glyph glyph-name="agrave" unicode="à" d="M270 605l-137 156h54l116 -156h-33zM225 -10c-29 0 -57 5 -84 14s-51 27 -72 53c-21 25 -32 57 -32 95c0 53 18 94 55 123c36 29 79 43 130 43c28 0 57 -5 87 -14c30 -10 53 -20 69 -30l23 -14v133c0 85 -43 127 -128 127c-25 0 -48 -3 -70 -10s-40 -16 -53 -26 c-14 -11 -26 -21 -36 -31c-10 -11 -17 -20 -22 -27l-6 -10l-18 12c20 35 49 63 86 85s81 33 130 33c57 0 98 -14 122 -43s36 -66 36 -111v-392h-41v53c-65 -42 -124 -63 -176 -63zM234 16c26 0 53 5 81 15s49 20 64 29l22 15v166l-22 12c-15 8 -35 17 -62 26s-54 14 -79 14 c-43 0 -80 -12 -112 -35s-48 -58 -48 -104s16 -80 48 -103c31 -23 67 -35 108 -35z"></glyph><glyph glyph-name="aring" unicode="å" d="M263 797c27 0 49 -10 68 -29s28 -43 28 -70s-9 -51 -28 -70c-19 -20 -41 -30 -68 -30c-26 0 -48 10 -67 30c-19 19 -28 43 -28 70s9 51 28 70s41 29 67 29zM263 619c20 0 37 7 50 22s20 34 20 57s-7 42 -20 57s-30 22 -50 22c-19 0 -36 -7 -49 -22s-20 -34 -20 -57 s7 -42 20 -57s30 -22 49 -22zM225 -10c-29 0 -57 5 -84 14s-51 27 -72 53c-21 25 -32 57 -32 95c0 53 18 94 55 123c36 29 79 43 130 43c28 0 57 -5 87 -14c30 -10 53 -20 69 -30l23 -14v133c0 85 -43 127 -128 127c-25 0 -48 -3 -70 -10s-40 -16 -53 -26 c-14 -11 -26 -21 -36 -31c-10 -11 -17 -20 -22 -27l-6 -10l-18 12c20 35 49 63 86 85s81 33 130 33c57 0 98 -14 122 -43s36 -66 36 -111v-392h-41v53c-65 -42 -124 -63 -176 -63zM234 16c26 0 53 5 81 15s49 20 64 29l22 15v166l-22 12c-15 8 -35 17 -62 26s-54 14 -79 14 c-43 0 -80 -12 -112 -35s-48 -58 -48 -104s16 -80 48 -103c31 -23 67 -35 108 -35z"></glyph><glyph glyph-name="atilde" unicode="ã" d="M117 643v19c18 38 45 57 80 57c18 0 42 -8 73 -25c30 -17 52 -25 66 -25c29 0 53 16 74 49v-19c-19 -37 -45 -56 -80 -56c-18 0 -42 8 -72 25c-31 16 -53 24 -68 24s-29 -5 -42 -15c-13 -11 -24 -22 -31 -34zM225 -10c-29 0 -57 5 -84 14s-51 27 -72 53 c-21 25 -32 57 -32 95c0 53 18 94 55 123c36 29 79 43 130 43c28 0 57 -5 87 -14c30 -10 53 -20 69 -30l23 -14v133c0 85 -43 127 -128 127c-25 0 -48 -3 -70 -10s-40 -16 -53 -26c-14 -11 -26 -21 -36 -31c-10 -11 -17 -20 -22 -27l-6 -10l-18 12c20 35 49 63 86 85 s81 33 130 33c57 0 98 -14 122 -43s36 -66 36 -111v-392h-41v53c-65 -42 -124 -63 -176 -63zM234 16c26 0 53 5 81 15s49 20 64 29l22 15v166l-22 12c-15 8 -35 17 -62 26s-54 14 -79 14c-43 0 -80 -12 -112 -35s-48 -58 -48 -104s16 -80 48 -103c31 -23 67 -35 108 -35z "></glyph><glyph glyph-name="ccedilla" unicode="ç" d="M303 -10h-9l-26 -57c23 -4 44 -14 63 -30c18 -16 27 -37 27 -64c0 -29 -10 -49 -31 -62s-44 -19 -71 -19c-32 0 -59 7 -80 20l8 14c15 -11 37 -16 66 -16c23 0 42 5 58 16c16 10 24 25 24 44c0 38 -33 62 -100 73l38 83c-65 9 -119 39 -162 91c-43 51 -65 113 -65 186 c0 79 26 145 77 198c51 52 112 78 183 78c44 0 83 -10 118 -31s62 -49 81 -82l-18 -11c-45 66 -105 99 -178 99c-66 0 -119 -25 -160 -75s-61 -109 -61 -178c0 -67 20 -126 61 -176c40 -51 93 -76 160 -76c75 0 137 33 184 99l17 -11c-18 -31 -45 -58 -81 -80 c-37 -22 -78 -33 -123 -33z"></glyph><glyph glyph-name="eacute" unicode="é" d="M435 761l-137 -156h-33l116 156h54zM313 15c70 0 130 31 181 94l17 -11c-22 -32 -51 -58 -87 -78s-76 -30 -120 -30c-73 0 -135 27 -185 81c-51 53 -76 118 -76 195c0 75 25 141 74 196s109 83 180 83c68 0 123 -26 166 -77c42 -52 63 -116 63 -191h-441v-9 c0 -67 21 -126 62 -177s97 -76 166 -76zM296 520c-51 0 -97 -21 -137 -63c-41 -42 -65 -94 -72 -155h398c-1 57 -19 108 -55 152s-81 66 -134 66z"></glyph><glyph glyph-name="ecircumflex" unicode="ê" d="M283 733l-113 -127h-33l116 154h60l115 -154h-32zM313 15c70 0 130 31 181 94l17 -11c-22 -32 -51 -58 -87 -78s-76 -30 -120 -30c-73 0 -135 27 -185 81c-51 53 -76 118 -76 195c0 75 25 141 74 196s109 83 180 83c68 0 123 -26 166 -77c42 -52 63 -116 63 -191h-441v-9 c0 -67 21 -126 62 -177s97 -76 166 -76zM296 520c-51 0 -97 -21 -137 -63c-41 -42 -65 -94 -72 -155h398c-1 57 -19 108 -55 152s-81 66 -134 66z"></glyph><glyph glyph-name="edieresis" unicode="ë" d="M217 660c-8 0 -15 3 -20 8c-6 5 -9 12 -9 19c0 8 3 15 9 20c5 5 12 8 20 8c7 0 14 -3 19 -8s8 -12 8 -20c0 -7 -3 -14 -8 -19s-12 -8 -19 -8zM350 660c-8 0 -15 3 -20 8s-8 12 -8 19c0 8 3 15 8 20s12 8 20 8c7 0 14 -3 19 -8s8 -12 8 -20c0 -7 -3 -14 -8 -19 s-12 -8 -19 -8zM313 15c70 0 130 31 181 94l17 -11c-22 -32 -51 -58 -87 -78s-76 -30 -120 -30c-73 0 -135 27 -185 81c-51 53 -76 118 -76 195c0 75 25 141 74 196s109 83 180 83c68 0 123 -26 166 -77c42 -52 63 -116 63 -191h-441v-9c0 -67 21 -126 62 -177 s97 -76 166 -76zM296 520c-51 0 -97 -21 -137 -63c-41 -42 -65 -94 -72 -155h398c-1 57 -19 108 -55 152s-81 66 -134 66z"></glyph><glyph glyph-name="egrave" unicode="è" d="M321 605h-33l-137 156h54zM313 15c70 0 130 31 181 94l17 -11c-22 -32 -51 -58 -87 -78s-76 -30 -120 -30c-73 0 -135 27 -185 81c-51 53 -76 118 -76 195c0 75 25 141 74 196s109 83 180 83c68 0 123 -26 166 -77c42 -52 63 -116 63 -191h-441v-9c0 -67 21 -126 62 -177 s97 -76 166 -76zM296 520c-51 0 -97 -21 -137 -63c-41 -42 -65 -94 -72 -155h398c-1 57 -19 108 -55 152s-81 66 -134 66z"></glyph><glyph glyph-name="iacute" unicode="í" d="M70 605l116 156h54l-137 -156h-33zM78 0v535h41v-535h-41z"></glyph><glyph glyph-name="icircumflex" unicode="î" d="M-47 606l116 154h60l115 -154h-32l-113 127l-113 -127h-33zM78 0v535h41v-535h-41z"></glyph><glyph glyph-name="idieresis" unicode="ï" d="M33 660c-8 0 -15 3 -20 8c-6 5 -9 12 -9 19c0 8 3 15 9 20c5 5 12 8 20 8c7 0 14 -3 19 -8s8 -12 8 -20c0 -7 -3 -14 -8 -19s-12 -8 -19 -8zM166 660c-8 0 -15 3 -20 8s-8 12 -8 19c0 8 3 15 8 20s12 8 20 8c7 0 14 -3 19 -8s8 -12 8 -20c0 -7 -3 -14 -8 -19 s-12 -8 -19 -8zM78 0v535h41v-535h-41z"></glyph><glyph glyph-name="igrave" unicode="ì" d="M88 605l-137 156h54l116 -156h-33zM78 0v535h41v-535h-41z"></glyph><glyph glyph-name="ntilde" unicode="ñ" d="M211 692c-15 0 -29 -5 -42 -15c-13 -11 -24 -22 -31 -34v19c18 38 45 57 80 57c18 0 42 -8 73 -25c30 -17 52 -25 66 -25c29 0 53 16 74 49v-19c-19 -37 -45 -56 -80 -56c-18 0 -42 8 -72 25c-31 16 -53 24 -68 24zM333 545c28 0 53 -4 76 -11c23 -8 43 -24 60 -47 s26 -54 26 -91v-396h-41v395c0 40 -12 71 -35 93c-24 22 -58 33 -101 33c-75 0 -142 -36 -199 -107v-414h-41v535h41v-96c53 71 124 106 214 106z"></glyph><glyph glyph-name="oacute" unicode="ó" d="M267 604l116 156h54l-137 -156h-33zM302 -10c-73 0 -135 27 -184 80c-50 53 -75 119 -75 198c0 78 25 144 75 197s111 80 184 80c72 0 133 -27 183 -80c49 -53 74 -119 74 -197c0 -79 -25 -145 -74 -198c-50 -53 -111 -80 -183 -80zM302 15c59 0 110 25 152 75 c42 49 63 109 63 178s-21 129 -63 178s-93 74 -152 74s-110 -25 -152 -74c-43 -49 -64 -109 -65 -178c1 -69 22 -129 65 -178c42 -50 93 -75 152 -75z"></glyph><glyph glyph-name="ocircumflex" unicode="ô" d="M156 605l116 154h60l115 -154h-32l-113 127l-113 -127h-33zM302 -10c-73 0 -135 27 -184 80c-50 53 -75 119 -75 198c0 78 25 144 75 197s111 80 184 80c72 0 133 -27 183 -80c49 -53 74 -119 74 -197c0 -79 -25 -145 -74 -198c-50 -53 -111 -80 -183 -80zM302 15 c59 0 110 25 152 75c42 49 63 109 63 178s-21 129 -63 178s-93 74 -152 74s-110 -25 -152 -74c-43 -49 -64 -109 -65 -178c1 -69 22 -129 65 -178c42 -50 93 -75 152 -75z"></glyph><glyph glyph-name="odieresis" unicode="ö" d="M236 659c-8 0 -15 3 -20 8c-6 5 -9 12 -9 19c0 8 3 15 9 20c5 5 12 8 20 8c7 0 14 -3 19 -8s8 -12 8 -20c0 -7 -3 -14 -8 -19s-12 -8 -19 -8zM369 659c-8 0 -15 3 -20 8s-8 12 -8 19c0 8 3 15 8 20s12 8 20 8c7 0 14 -3 19 -8s8 -12 8 -20c0 -7 -3 -14 -8 -19 s-12 -8 -19 -8zM302 -10c-73 0 -135 27 -184 80c-50 53 -75 119 -75 198c0 78 25 144 75 197s111 80 184 80c72 0 133 -27 183 -80c49 -53 74 -119 74 -197c0 -79 -25 -145 -74 -198c-50 -53 -111 -80 -183 -80zM302 15c59 0 110 25 152 75c42 49 63 109 63 178 s-21 129 -63 178s-93 74 -152 74s-110 -25 -152 -74c-43 -49 -64 -109 -65 -178c1 -69 22 -129 65 -178c42 -50 93 -75 152 -75z"></glyph><glyph glyph-name="ograve" unicode="ò" d="M284 604l-137 156h54l116 -156h-33zM302 -10c-73 0 -135 27 -184 80c-50 53 -75 119 -75 198c0 78 25 144 75 197s111 80 184 80c72 0 133 -27 183 -80c49 -53 74 -119 74 -197c0 -79 -25 -145 -74 -198c-50 -53 -111 -80 -183 -80zM302 15c59 0 110 25 152 75 c42 49 63 109 63 178s-21 129 -63 178s-93 74 -152 74s-110 -25 -152 -74c-43 -49 -64 -109 -65 -178c1 -69 22 -129 65 -178c42 -50 93 -75 152 -75z"></glyph><glyph glyph-name="otilde" unicode="õ" d="M155 642v19c18 38 45 57 80 57c18 0 42 -8 73 -25c30 -17 52 -25 66 -25c29 0 53 16 74 49v-19c-19 -37 -45 -56 -80 -56c-18 0 -42 8 -72 25c-31 16 -53 24 -68 24s-29 -5 -42 -15c-13 -11 -24 -22 -31 -34zM302 -10c-73 0 -135 27 -184 80c-50 53 -75 119 -75 198 c0 78 25 144 75 197s111 80 184 80c72 0 133 -27 183 -80c49 -53 74 -119 74 -197c0 -79 -25 -145 -74 -198c-50 -53 -111 -80 -183 -80zM302 15c59 0 110 25 152 75c42 49 63 109 63 178s-21 129 -63 178s-93 74 -152 74s-110 -25 -152 -74c-43 -49 -64 -109 -65 -178 c1 -69 22 -129 65 -178c42 -50 93 -75 152 -75z"></glyph><glyph glyph-name="scaron" unicode="š" d="M50 23l18 42c29 -18 72 -36 120 -36c84 0 121 44 121 93c0 56 -38 83 -113 107c-87 28 -130 73 -130 130c0 68 54 133 158 133c47 0 88 -13 116 -32l-19 -40c-16 11 -51 31 -106 31c-66 0 -101 -40 -101 -86c0 -54 41 -75 112 -99c88 -30 131 -68 131 -140 c0 -78 -64 -138 -173 -138c-51 0 -98 14 -134 35zM232 552h-42l-100 140h51l69 -103h2l69 103h47z"></glyph><glyph glyph-name="uacute" unicode="ú" d="M437 761l-137 -156h-33l116 156h54zM454 535h41v-535h-41v96c-53 -71 -125 -106 -214 -106c-28 0 -53 4 -76 12c-23 7 -43 23 -60 46s-26 54 -26 91v396h41v-395c0 -40 12 -71 36 -93c23 -22 57 -33 100 -33c75 0 142 36 199 107v414z"></glyph><glyph glyph-name="ucircumflex" unicode="û" d="M283 733l-113 -127h-33l116 154h60l115 -154h-32zM454 535h41v-535h-41v96c-53 -71 -125 -106 -214 -106c-28 0 -53 4 -76 12c-23 7 -43 23 -60 46s-26 54 -26 91v396h41v-395c0 -40 12 -71 36 -93c23 -22 57 -33 100 -33c75 0 142 36 199 107v414z"></glyph><glyph glyph-name="udieresis" unicode="ü" d="M217 660c-8 0 -15 3 -20 8c-6 5 -9 12 -9 19c0 8 3 15 9 20c5 5 12 8 20 8c7 0 14 -3 19 -8s8 -12 8 -20c0 -7 -3 -14 -8 -19s-12 -8 -19 -8zM350 660c-8 0 -15 3 -20 8s-8 12 -8 19c0 8 3 15 8 20s12 8 20 8c7 0 14 -3 19 -8s8 -12 8 -20c0 -7 -3 -14 -8 -19 s-12 -8 -19 -8zM454 535h41v-535h-41v96c-53 -71 -125 -106 -214 -106c-28 0 -53 4 -76 12c-23 7 -43 23 -60 46s-26 54 -26 91v396h41v-395c0 -40 12 -71 36 -93c23 -22 57 -33 100 -33c75 0 142 36 199 107v414z"></glyph><glyph glyph-name="ugrave" unicode="ù" d="M313 605h-33l-137 156h54zM454 535h41v-535h-41v96c-53 -71 -125 -106 -214 -106c-28 0 -53 4 -76 12c-23 7 -43 23 -60 46s-26 54 -26 91v396h41v-395c0 -40 12 -71 36 -93c23 -22 57 -33 100 -33c75 0 142 36 199 107v414z"></glyph><glyph glyph-name="yacute" unicode="ý" d="M252 605l116 156h54l-137 -156h-33zM157 -241l91 226l-225 550h44l201 -498l198 498h27l-308 -776h-28z"></glyph><glyph glyph-name="ydieresis" unicode="ÿ" d="M211 660c-8 0 -15 3 -20 8c-6 5 -9 12 -9 19c0 8 3 15 9 20c5 5 12 8 20 8c7 0 14 -3 19 -8s8 -12 8 -20c0 -7 -3 -14 -8 -19s-12 -8 -19 -8zM344 660c-8 0 -15 3 -20 8s-8 12 -8 19c0 8 3 15 8 20s12 8 20 8c7 0 14 -3 19 -8s8 -12 8 -20c0 -7 -3 -14 -8 -19 s-12 -8 -19 -8zM157 -241l91 226l-225 550h44l201 -498l198 498h27l-308 -776h-28z"></glyph><glyph glyph-name="zcaron" unicode="ž" d="M16 0v30l287 338c20 24 40 46 62 70v2h-328v40h388l-1 -34l-287 -338c-19 -23 -37 -44 -57 -66v-2h348v-40h-412zM263 552h-42l-100 140h51l69 -103h2l69 103h47z"></glyph><glyph glyph-name="Dcroat" unicode="Đ" d="M353 714c93 0 172 -35 236 -105c63 -71 95 -154 95 -251s-32 -181 -96 -252s-141 -106 -230 -106h-246v342h-77v25h77v347h241zM357 26c85 0 154 32 207 97c52 65 78 143 78 234c0 92 -26 170 -79 235c-53 64 -121 96 -203 96h-206v-321h210v-25h-210v-316h203z"></glyph><glyph glyph-name="Eng" unicode="Ŋ" d="M522 -214c-27 0 -50 6 -70 19c-20 12 -35 26 -46 43l15 13c28 -35 60 -52 95 -52c33 0 58 11 75 33c17 21 26 52 26 91v67l-496 654v-654h-26v714h32l490 -654v654h26v-790c0 -40 -11 -73 -33 -99s-51 -39 -88 -39z"></glyph><glyph glyph-name="Hbar" unicode="Ħ" d="M662 482h-54v-482h-49v330h-422v-330h-49v482h-54v39h54v153h49v-153h422v153h49v-153h54v-39zM559 371v111h-422v-111h422z"></glyph><glyph glyph-name="Tbar" unicode="Ŧ" d="M531 633h-251v-255h145v-39h-145v-339h-49v339h-145v39h145v255h-251v41h551v-41z"></glyph><glyph glyph-name="Yogh" unicode="Ȝ" d="M64 -112l-9 41c226 36 344 140 344 259c0 88 -69 158 -183 156c-21 0 -62 -8 -102 -20l-8 38c144 35 231 101 231 176c0 66 -58 106 -136 106c-64 0 -139 -29 -161 -42l-12 33c24 17 105 51 177 51c109 0 182 -56 182 -144c0 -76 -65 -131 -138 -161v-3 c116 -5 200 -76 200 -186c0 -136 -120 -259 -385 -304z"></glyph><glyph glyph-name="dcroat" unicode="đ" d="M611 651v-24h-118v-627h-41v93c-58 -69 -118 -103 -180 -103c-63 0 -116 27 -161 80s-68 119 -68 198s23 145 68 198s98 79 161 79s123 -34 180 -102v184h-187v24h187v109h41v-109h118zM279 15c61 0 119 36 173 108v289c-53 72 -111 108 -174 108c-53 0 -99 -24 -136 -73 c-38 -49 -57 -109 -57 -179c0 -71 19 -130 57 -179c37 -49 83 -74 137 -74z"></glyph><glyph glyph-name="eng" unicode="ŋ" d="M333 545c28 0 53 -4 76 -11c23 -8 43 -24 60 -47s26 -54 26 -91v-394v-2v-76c0 -41 -11 -75 -33 -100c-22 -26 -53 -39 -92 -39c-51 0 -89 21 -114 62l15 14c24 -33 54 -50 90 -50c62 0 93 41 93 122v462c0 40 -12 71 -35 93c-24 22 -58 33 -101 33 c-75 0 -142 -36 -199 -107v-414h-41v535h41v-96c53 71 124 106 214 106z"></glyph><glyph glyph-name="hbar" unicode="ħ" d="M508 0h-49v272c0 93 -40 177 -151 177c-76 0 -140 -54 -163 -113c-6 -15 -8 -29 -8 -51v-285h-49v562h-82v39h82v115h49v-115h223v-39h-223v-179h2c15 30 41 59 74 78c31 19 69 31 108 31c46 0 187 -20 187 -218v-274z"></glyph><glyph glyph-name="kra" unicode="ĸ" d="M137 480v-231h2c13 15 36 39 53 55l187 176h62l-214 -198l245 -282h-61l-219 254l-55 -53v-201h-49v480h49z"></glyph><glyph glyph-name="napostrophe" unicode="ŉ" d="M88 0v364c0 39 -1 77 -4 116h46l4 -96h2c29 59 97 108 185 108c44 0 187 -20 187 -219v-273h-49v273c0 94 -41 177 -151 177c-77 0 -141 -53 -163 -114c-4 -11 -8 -28 -8 -43v-293h-49zM41 547l-18 25c18 12 45 33 45 78c0 23 -17 47 -38 61l43 12c18 -10 39 -37 39 -71 c0 -70 -57 -98 -71 -105z"></glyph><glyph glyph-name="tbar" unicode="ŧ" d="M309 441h-152v-142h120v-39h-120v-126c0 -59 18 -104 77 -104c29 0 49 4 63 9l6 -38c-17 -7 -42 -13 -74 -13c-38 0 -69 12 -89 36c-24 27 -32 71 -32 116v120h-74v39h74v142h-88v39h88v91l49 15v-106h152v-39z"></glyph><glyph glyph-name="yogh" unicode="ȝ" d="M48 -212l-4 39c0 1 317 23 317 220c0 75 -55 129 -156 129c-34 0 -71 -9 -102 -18l-8 38c132 34 212 77 212 159c0 60 -49 97 -127 97c-60 0 -121 -33 -143 -46l-13 33c36 22 97 53 166 53c95 0 166 -49 166 -132c0 -69 -52 -123 -116 -144v-3c101 -8 170 -67 170 -159 c0 -97 -71 -234 -362 -266z"></glyph><glyph glyph-name="IJ" unicode="Ĳ" d="M88 674h49v-674h-49v674zM474 233v441h49v-454c0 -188 -100 -232 -196 -232c-36 0 -78 10 -96 19l12 40c19 -9 48 -17 84 -17c93 0 147 44 147 203z"></glyph><glyph glyph-name="ij" unicode="ĳ" d="M137 0h-49v480h49v-480zM113 665c23 0 40 -20 40 -43c0 -22 -16 -43 -42 -43c-23 0 -39 21 -39 43s18 43 41 43zM172 -212l-5 40c48 1 87 14 111 39c28 30 40 68 40 204v409h49v-445c0 -83 -10 -146 -55 -194c-38 -40 -105 -53 -140 -53zM344 665c23 0 39 -21 39 -43 c0 -21 -15 -43 -42 -43c-24 0 -39 22 -39 43c0 22 18 43 42 43z"></glyph><glyph glyph-name="zero.slash" unicode="" d="M130 123l253 440c-28 38 -66 59 -118 59c-101 0 -171 -116 -173 -292c-1 -86 13 -156 38 -207zM406 523l-252 -439c28 -36 66 -56 108 -56c121 0 176 120 176 302c0 77 -10 143 -32 193zM488 652l-53 -80c34 -54 54 -132 54 -235c0 -231 -88 -349 -231 -349 c-46 0 -91 17 -128 54l-39 -67l-38 25l50 76c-37 54 -61 135 -62 245c-2 236 115 341 232 341c53 0 99 -18 135 -55l42 70z"></glyph><glyph glyph-name="euro" unicode="€" d="M675 150l19 -10c-31 -47 -71 -83 -121 -109c-50 -27 -104 -40 -162 -40c-85 0 -157 27 -218 81s-100 122 -117 204h-73v23h69c-3 22 -5 43 -5 62c0 22 1 41 4 58h-68v23h72c18 83 59 150 123 203c63 53 135 79 214 79c56 0 109 -14 158 -41s87 -64 112 -109l-19 -10 c-63 89 -146 134 -248 134c-75 0 -139 -24 -192 -71c-54 -47 -89 -109 -105 -185h355v-23h-359c-3 -17 -4 -37 -4 -60c0 -22 1 -42 4 -60h359v-23h-355c16 -76 51 -138 104 -187s117 -73 193 -73c103 0 189 45 260 134z"></glyph><glyph glyph-name="Aringacute" unicode="Ǻ" d="M331 692c-49 0 -82 31 -82 71s32 73 83 73c47 0 80 -33 80 -73c0 -41 -35 -71 -81 -71zM330 721c27 0 46 17 46 43c0 25 -19 44 -47 44c-27 0 -44 -21 -44 -45c0 -23 19 -42 45 -42zM395 939h84l-142 -84h-48zM474 237h-300l-93 -237h-51l272 674h48l270 -674h-51z M191 278h267l-95 237c-18 45 -27 74 -37 107h-2c-10 -34 -21 -64 -37 -104z"></glyph><glyph glyph-name="estimated" unicode="℮" d="M782 316h-605c-3 0 -5 -1 -5 -4v-183c0 -8 4 -15 9 -21c57 -61 139 -99 229 -99c96 0 182 43 240 111h55c-68 -79 -176 -131 -296 -131c-206 0 -374 150 -374 336s168 336 374 336s373 -150 373 -336v-9zM646 340v184c0 9 -4 16 -10 22c-58 58 -138 95 -226 95 c-90 0 -170 -38 -228 -98c-6 -6 -10 -14 -10 -23v-180c0 -3 2 -5 5 -5h464c3 0 5 2 5 5z"></glyph><glyph glyph-name="zero.oldstyle" unicode="" d="M280 -12c-110 0 -230 80 -230 252c0 166 119 252 231 252c111 0 231 -80 231 -252c0 -166 -119 -252 -232 -252zM282 28c108 0 181 85 181 212s-73 212 -182 212s-182 -85 -182 -212s73 -212 183 -212z"></glyph><glyph glyph-name="one.oldstyle" unicode="" d="M245 0h-47v439h-2l-155 -68l-11 37l169 72h46v-480z"></glyph><glyph glyph-name="two.oldstyle" unicode="" d="M439 0h-411v28l41 25c196 120 280 193 280 285c0 78 -58 118 -130 118c-65 0 -125 -32 -166 -64l-17 33c41 32 107 71 191 71c96 0 171 -55 171 -157c0 -99 -82 -171 -220 -259l-58 -37v-3c18 1 40 1 68 1h251v-41z"></glyph><glyph glyph-name="three.oldstyle" unicode="" d="M16 -90l7 38c27 -10 76 -20 121 -20c120 0 205 59 205 146c0 74 -73 118 -184 118c-28 0 -50 -2 -61 -3l-2 40l15 1c117 8 198 53 198 126c0 67 -51 96 -129 96c-60 0 -114 -27 -136 -40l-13 33c24 17 87 47 159 47c95 0 168 -45 168 -128c0 -69 -49 -117 -123 -139v-3 c84 -11 157 -57 157 -146c0 -109 -112 -188 -252 -188c-50 0 -109 12 -130 22z"></glyph><glyph glyph-name="four.oldstyle" unicode="" d="M499 60h-108v-172h-46v172h-327v33l335 399h38v-391h108v-41zM345 101v259c0 24 -1 45 1 68l-3 1c-14 -21 -33 -48 -47 -65l-220 -261l1 -2h268z"></glyph><glyph glyph-name="five.oldstyle" unicode="" d="M48 -93l8 38c28 -10 75 -17 116 -17c102 0 196 54 196 156c0 32 -14 60 -36 83c-50 50 -151 60 -264 48l52 265h289l-9 -41h-244l-38 -181c89 6 190 -1 252 -60c32 -30 47 -74 47 -110c0 -127 -113 -200 -252 -200c-43 0 -89 7 -117 19z"></glyph><glyph glyph-name="six.oldstyle" unicode="" d="M451 600l4 -39c-197 -7 -316 -121 -342 -267h4c28 43 90 94 179 94c109 0 199 -76 199 -192c0 -137 -112 -208 -203 -208c-131 0 -230 95 -230 243c0 205 151 356 389 369zM290 28c76 0 156 56 156 166c0 93 -62 154 -159 154c-60 0 -110 -33 -130 -53 c-34 -34 -42 -58 -42 -99c0 -77 66 -168 175 -168z"></glyph><glyph glyph-name="seven.oldstyle" unicode="" d="M407 480v-36c-71 -174 -208 -401 -316 -556l-43 16c81 105 248 380 308 533v2h-343v41h394z"></glyph><glyph glyph-name="eight.oldstyle" unicode="" d="M335 315v-2c97 -30 147 -88 147 -153c0 -107 -105 -172 -216 -172c-121 0 -216 61 -216 164c0 72 55 127 141 162v2c-58 18 -114 60 -114 129c0 91 91 155 194 155c104 0 186 -63 186 -147c0 -53 -29 -100 -122 -138zM269 561c-75 0 -144 -40 -144 -111 c0 -64 57 -101 151 -120c73 15 131 54 131 123s-66 108 -138 108zM265 28c95 0 167 53 167 126c0 69 -59 116 -184 145c-87 -24 -147 -76 -147 -142c0 -77 61 -129 164 -129z"></glyph><glyph glyph-name="nine.oldstyle" unicode="" d="M96 -112l-4 40c189 4 311 109 340 253h-2c-21 -42 -88 -89 -174 -89c-104 0 -200 67 -200 192c0 113 95 208 218 208c105 0 215 -65 215 -234c0 -199 -148 -362 -393 -370zM263 132c75 0 143 46 166 95c6 13 11 30 11 52c0 109 -83 173 -169 173 c-77 0 -166 -53 -166 -164c0 -105 74 -156 158 -156z"></glyph><glyph glyph-name="percent.oldstyle" unicode="" d="M181 593c83 0 140 -63 140 -193c0 -139 -65 -207 -148 -207c-74 0 -142 60 -143 195c-1 140 75 205 151 205zM175 559c-59 0 -101 -63 -102 -166c-2 -103 41 -166 102 -166c69 0 103 64 103 169c0 98 -30 163 -103 163zM241 -12h-41l366 612h41zM638 395 c83 0 140 -63 140 -193c0 -139 -65 -207 -148 -207c-74 0 -142 60 -143 195c-1 140 75 205 151 205zM632 361c-59 0 -101 -63 -102 -166c-2 -103 41 -166 102 -166c69 0 103 64 103 169c0 98 -30 163 -103 163z"></glyph><glyph glyph-name="zero.fitted" unicode="" d="M273 662c127 0 216 -105 216 -325c0 -231 -88 -349 -232 -349c-110 0 -212 101 -216 333c0 236 115 341 232 341zM265 622c-94 0 -173 -100 -173 -302c0 -189 72 -292 171 -292c120 0 175 120 175 302c0 174 -51 292 -173 292z"></glyph><glyph glyph-name="one.fitted" unicode="" d="M157 0v602h-2l-106 -61l-12 39l121 70h47v-650h-48z"></glyph><glyph glyph-name="two.fitted" unicode="" d="M424 0h-420v31l64 59c216 200 287 275 287 377c0 71 -31 152 -156 152c-65 0 -120 -33 -153 -62l-20 33c50 45 113 72 183 72c151 0 196 -113 196 -182c0 -130 -96 -223 -285 -396l-46 -41v-2h350v-41z"></glyph><glyph glyph-name="three.fitted" unicode="" d="M7 36l20 39c26 -18 88 -45 156 -45c154 0 180 105 179 150c-2 113 -110 152 -209 152h-49v41h52c81 0 177 40 177 130c0 55 -33 117 -137 117c-56 0 -109 -24 -141 -49l-20 36c34 27 100 55 166 55c137 0 183 -83 183 -153c0 -67 -45 -125 -128 -154v-2 c90 -17 157 -83 157 -171c0 -93 -71 -194 -237 -194c-76 0 -140 27 -169 48z"></glyph><glyph glyph-name="four.fitted" unicode="" d="M396 0h-47v190h-343v33l352 427h38v-419h108v-41h-108v-190zM65 231h284v279c0 24 0 50 2 73l-3 1c-18 -28 -33 -47 -47 -64l-236 -287v-2z"></glyph><glyph glyph-name="five.fitted" unicode="" d="M407 650v-43h-267l-31 -209c17 2 35 5 70 5c45 0 81 -6 120 -21c57 -22 117 -84 117 -176c0 -130 -105 -218 -232 -218c-77 0 -137 25 -166 46l20 39c28 -19 82 -43 150 -43c103 0 180 74 179 166c-1 88 -58 165 -201 165c-43 0 -79 -4 -105 -8l41 297h305z"></glyph><glyph glyph-name="six.fitted" unicode="" d="M425 662l1 -45c-22 0 -51 -1 -81 -7c-146 -28 -239 -146 -251 -279h2c31 50 98 98 186 98c133 0 213 -92 213 -212c0 -108 -76 -229 -222 -229c-120 0 -231 87 -231 276c0 136 53 238 119 298c50 46 116 78 190 92c28 6 55 8 74 8zM277 29c103 0 167 85 167 186 c0 110 -74 172 -174 172c-68 0 -133 -41 -165 -96c-7 -13 -13 -27 -13 -42c0 -120 62 -220 185 -220z"></glyph><glyph glyph-name="seven.fitted" unicode="" d="M0 650h410v-39l-319 -611h-48l316 607v2h-359v41z"></glyph><glyph glyph-name="eight.fitted" unicode="" d="M187 342v4c-87 33 -117 90 -117 146c0 98 86 170 203 170c114 0 189 -68 189 -158c0 -51 -23 -116 -123 -156v-4c102 -33 148 -95 148 -168c0 -118 -109 -188 -222 -188c-120 0 -222 66 -222 177c0 79 49 141 144 177zM264 28c110 0 173 66 173 139 c0 95 -68 135 -189 161c-101 -22 -154 -80 -154 -154c-5 -75 59 -146 170 -146zM268 623c-99 0 -150 -61 -150 -124c-1 -78 57 -119 161 -139c76 20 133 65 133 141c0 53 -37 122 -144 122z"></glyph><glyph glyph-name="nine.fitted" unicode="" d="M113 -12v45c21 -2 49 0 84 5c59 8 113 35 157 82c43 46 76 111 89 202l-3 -1c-46 -59 -110 -91 -186 -91c-135 0 -202 102 -202 199c0 118 88 233 229 233c113 0 211 -86 211 -276c0 -157 -61 -258 -124 -313c-44 -39 -105 -67 -155 -76c-40 -7 -75 -10 -100 -9zM269 621 c-104 0 -168 -91 -168 -190c0 -90 65 -159 160 -159c79 0 142 39 173 88c4 7 9 17 9 30c0 127 -52 231 -174 231z"></glyph><glyph glyph-name="zero.slashfitted" unicode="" d="M130 123l253 440c-28 38 -66 59 -118 59c-101 0 -171 -116 -173 -292c-1 -86 13 -156 38 -207zM406 523l-252 -439c28 -36 66 -56 108 -56c121 0 176 120 176 302c0 77 -10 143 -32 193zM488 652l-53 -80c34 -54 54 -132 54 -235c0 -231 -88 -349 -231 -349 c-46 0 -91 17 -128 54l-39 -67l-38 25l50 76c-37 54 -61 135 -62 245c-2 236 115 341 232 341c53 0 99 -18 135 -55l42 70z"></glyph><glyph glyph-name="zero.taboldstyle" unicode="" d="M280 -12c-110 0 -230 80 -230 252c0 166 119 252 231 252c111 0 231 -80 231 -252c0 -166 -119 -252 -232 -252zM282 28c108 0 181 85 181 212s-73 212 -182 212s-182 -85 -182 -212s73 -212 183 -212z"></glyph><glyph glyph-name="one.taboldstyle" unicode="" d="M368 0h-47v439h-2l-209 -100l-14 36l226 105h46v-480z"></glyph><glyph glyph-name="two.taboldstyle" unicode="" d="M490 0h-411v28l41 25c196 120 280 193 280 285c0 78 -58 118 -130 118c-65 0 -125 -32 -166 -64l-17 33c41 32 107 71 191 71c96 0 171 -55 171 -157c0 -99 -82 -171 -220 -259l-58 -37v-3c18 1 40 1 68 1h251v-41z"></glyph><glyph glyph-name="three.taboldstyle" unicode="" d="M71 -90l7 38c27 -10 76 -20 121 -20c120 0 205 59 205 146c0 74 -73 118 -184 118c-28 0 -50 -2 -61 -3l-2 40l15 1c117 8 198 53 198 126c0 67 -51 96 -129 96c-60 0 -114 -27 -136 -40l-13 33c24 17 87 47 159 47c95 0 168 -45 168 -128c0 -69 -49 -117 -123 -139v-3 c84 -11 157 -57 157 -146c0 -109 -112 -188 -252 -188c-50 0 -109 12 -130 22z"></glyph><glyph glyph-name="four.taboldstyle" unicode="" d="M521 60h-108v-172h-46v172h-327v33l335 399h38v-391h108v-41zM367 101v259c0 24 -1 45 1 68l-3 1c-14 -21 -33 -48 -47 -65l-220 -261l1 -2h268z"></glyph><glyph glyph-name="five.taboldstyle" unicode="" d="M93 -93l8 38c28 -10 75 -17 116 -17c102 0 196 54 196 156c0 32 -14 60 -36 83c-50 50 -151 60 -264 48l52 265h289l-9 -41h-244l-38 -181c89 6 190 -1 252 -60c32 -30 47 -74 47 -110c0 -127 -113 -200 -252 -200c-43 0 -89 7 -117 19z"></glyph><glyph glyph-name="six.taboldstyle" unicode="" d="M464 600l4 -39c-197 -7 -316 -121 -342 -267h4c28 43 90 94 179 94c109 0 199 -76 199 -192c0 -137 -112 -208 -203 -208c-131 0 -230 95 -230 243c0 205 151 356 389 369zM303 28c76 0 156 56 156 166c0 93 -62 154 -159 154c-60 0 -110 -33 -130 -53 c-34 -34 -42 -58 -42 -99c0 -77 66 -168 175 -168z"></glyph><glyph glyph-name="seven.taboldstyle" unicode="" d="M469 480v-36c-71 -174 -208 -401 -316 -556l-43 16c81 105 248 380 308 533v2h-343v41h394z"></glyph><glyph glyph-name="eight.taboldstyle" unicode="" d="M347 315v-2c97 -30 147 -88 147 -153c0 -107 -105 -172 -216 -172c-121 0 -216 61 -216 164c0 72 55 127 141 162v2c-58 18 -114 60 -114 129c0 91 91 155 194 155c104 0 186 -63 186 -147c0 -53 -29 -100 -122 -138zM281 561c-75 0 -144 -40 -144 -111 c0 -64 57 -101 151 -120c73 15 131 54 131 123s-66 108 -138 108zM277 28c95 0 167 53 167 126c0 69 -59 116 -184 145c-87 -24 -147 -76 -147 -142c0 -77 61 -129 164 -129z"></glyph><glyph glyph-name="nine.taboldstyle" unicode="" d="M106 -112l-4 40c189 4 311 109 340 253h-2c-21 -42 -88 -89 -174 -89c-104 0 -200 67 -200 192c0 113 95 208 218 208c105 0 215 -65 215 -234c0 -199 -148 -362 -393 -370zM273 132c75 0 143 46 166 95c6 13 11 30 11 52c0 109 -83 173 -169 173 c-77 0 -166 -53 -166 -164c0 -105 74 -156 158 -156z"></glyph><glyph glyph-name="dollar.taboldstyle" unicode="" d="M304 -81h-38v81c-50 0 -112 13 -146 36l20 36c27 -20 84 -33 134 -33c67 0 132 34 132 89c0 52 -40 73 -117 98c-106 35 -158 67 -158 132s60 113 144 120v83h39v-83c55 -2 99 -18 123 -31l-19 -38c-25 14 -72 30 -122 30c-63 0 -116 -31 -116 -76c0 -43 25 -65 126 -97 c98 -31 148 -71 148 -135c0 -56 -51 -119 -150 -131v-81z"></glyph><glyph glyph-name="cent.taboldstyle" unicode="" d="M426 115l11 -39c-14 -8 -58 -27 -114 -29v-71h-36v70c-112 9 -195 76 -195 194c0 116 84 193 195 205v65h36v-65c52 0 97 -15 117 -26l-14 -38c-24 14 -63 24 -116 24c-95 0 -169 -62 -169 -160c0 -102 75 -157 161 -157c63 0 102 16 124 27z"></glyph><glyph glyph-name="euro.taboldstyle" unicode="" d="M491 61l10 -36c-22 -15 -80 -37 -148 -37c-66 0 -136 21 -188 73c-30 30 -52 73 -60 116h-68v37h63c-1 14 -2 21 -2 28c0 12 1 23 3 41h-64v37h69c11 42 33 82 63 112c56 56 128 80 199 80c68 0 103 -18 132 -34l-15 -37c-30 17 -67 31 -127 31c-54 0 -107 -17 -151 -59 c-26 -25 -46 -59 -51 -93h304v-37h-310c-2 -15 -3 -24 -3 -33c0 -10 0 -20 2 -36h311v-37h-306c9 -32 26 -64 48 -85c47 -44 92 -62 155 -62c61 0 106 17 134 31z"></glyph><glyph glyph-name="fhook.taboldstyle" unicode="" d="M154 290v39h110l6 52c15 129 74 221 188 219c31 0 52 -9 63 -15l-12 -38c-18 6 -36 12 -59 12c-87 0 -124 -88 -133 -179l-5 -51h145v-39h-150l-20 -178c-15 -137 -60 -224 -168 -224c-29 0 -54 6 -72 16l12 37c21 -10 40 -13 65 -13c75 0 104 78 113 161l22 201h-105z "></glyph><glyph glyph-name="sterling.taboldstyle" unicode="" d="M497 0h-419v31c75 33 113 82 113 134c0 19 -2 36 -5 52h-106v39h99c-4 21 -8 42 -8 65c0 112 75 191 182 191c56 0 91 -13 113 -26l-16 -38c-19 11 -52 23 -102 23c-89 0 -130 -58 -130 -151c0 -24 4 -45 8 -64h166v-39h-158c2 -12 3 -25 3 -38c0 -58 -25 -105 -71 -135 v-2h331v-42z"></glyph><glyph glyph-name="yen.taboldstyle" unicode="" d="M305 0h-47v120h-165v37h165v66h-165v37h143l-161 240h56l113 -173c16 -24 29 -45 38 -61h4c9 19 27 43 42 64l120 170h55l-174 -240h141v-37h-165v-66h165v-37h-165v-120z"></glyph><glyph glyph-name="numbersign.taboldstyle" unicode="" d="M210 216h122l20 161h-122zM183 0h-43l22 177h-91v39h96l20 161h-95v39h100l22 172h42l-21 -172h122l22 172h42l-21 -172h91v-39h-96l-20 -161h96v-39h-101l-22 -177h-43l22 177h-122z"></glyph><glyph glyph-name="zerosuperior" unicode="⁰" d="M202 770c49 0 88 -21 116 -62c27 -42 41 -95 41 -158c0 -64 -14 -117 -41 -158c-28 -41 -67 -62 -116 -62s-88 21 -115 62c-28 41 -42 94 -42 158c0 63 14 116 42 158c27 41 66 62 115 62zM202 354c39 0 69 18 88 55c19 36 29 83 29 141s-10 105 -29 142 c-19 36 -49 54 -88 54c-40 0 -69 -18 -88 -54c-19 -37 -29 -84 -29 -142s10 -105 29 -141c19 -37 48 -55 88 -55z"></glyph><glyph glyph-name="one.superior" d="M143 451h-41v350h-2l-65 -32l-9 33l79 39h38v-390z"></glyph><glyph glyph-name="two.superior" d="M14 451v29l73 65c99 88 134 131 134 180c0 42 -24 86 -93 86c-39 0 -70 -21 -88 -34l-15 26c25 24 68 43 113 43c100 0 128 -70 128 -109c0 -80 -58 -134 -158 -219l-34 -29v-2h198v-36h-258z"></glyph><glyph glyph-name="three.superior" d="M50 782l-16 32c22 14 60 32 105 32c88 0 115 -50 115 -92c0 -39 -28 -74 -77 -92v-2c61 -9 95 -52 95 -99c0 -54 -47 -115 -150 -115c-50 0 -92 15 -110 29l16 33c14 -11 56 -28 96 -28c84 0 105 54 104 81c-1 62 -69 82 -125 82h-32v33h34c43 0 104 20 105 77 c0 24 -19 59 -74 59c-38 0 -73 -19 -86 -30z"></glyph><glyph glyph-name="foursuperior" unicode="⁴" d="M287 480h67v-23h-67v-122h-39v122h-210v23l210 285h39v-285zM248 480v244l-179 -244h179z"></glyph><glyph glyph-name="fivesuperior" unicode="⁵" d="M198 330c-31 0 -58 6 -81 19s-39 28 -48 46l14 10c25 -34 59 -51 104 -51c28 0 53 9 76 26c22 17 33 45 33 84c0 41 -12 69 -36 86s-52 25 -84 25s-56 -6 -73 -19l-15 11v197h216v-29h-193v-152c20 10 45 15 74 15c51 0 88 -13 113 -39s37 -58 37 -96 c0 -37 -12 -68 -35 -94s-57 -39 -102 -39z"></glyph><glyph glyph-name="sixsuperior" unicode="⁶" d="M227 596c33 0 61 -11 85 -33s36 -52 36 -91c0 -42 -14 -76 -41 -102c-28 -27 -62 -40 -103 -40c-40 0 -74 15 -102 45c-29 29 -43 77 -43 144c0 73 17 134 52 181c34 47 75 70 122 70c42 0 73 -14 93 -41l-14 -12c-20 21 -45 32 -74 32c-40 0 -73 -20 -98 -60 c-26 -41 -40 -94 -41 -159c14 19 33 34 56 47s47 19 72 19zM202 354c31 0 56 10 77 31c20 21 30 49 30 86c0 32 -8 57 -24 75s-38 27 -66 27c-25 0 -49 -7 -70 -20s-38 -28 -50 -45c3 -103 37 -154 103 -154z"></glyph><glyph glyph-name="sevensuperior" unicode="⁷" d="M110 336c11 57 35 120 70 191c35 70 79 139 133 208h-251v29h287v-23c-45 -56 -86 -122 -125 -198c-39 -77 -64 -146 -75 -207h-39z"></glyph><glyph glyph-name="eightsuperior" unicode="⁸" d="M233 571c40 -19 69 -37 87 -54c17 -17 26 -40 26 -67c0 -37 -14 -66 -41 -87c-28 -22 -63 -33 -104 -33c-22 0 -43 3 -63 9c-20 5 -38 17 -55 36c-17 18 -25 41 -25 69c0 55 32 95 97 120c-53 28 -79 63 -79 105c0 32 12 57 35 75c23 17 55 26 94 26c38 0 68 -8 90 -24 c21 -17 32 -40 32 -69c0 -47 -31 -83 -94 -106zM110 675c0 -13 2 -24 7 -33c4 -9 12 -18 23 -25s21 -13 30 -17c8 -5 21 -11 39 -18c15 8 26 14 32 18c5 3 13 9 24 18c11 8 18 17 22 27c4 9 6 20 6 32c0 21 -8 39 -23 52c-16 13 -38 20 -67 20s-51 -6 -68 -19 s-25 -32 -25 -55zM201 352c34 0 61 9 81 26c19 17 29 38 29 65c0 31 -22 58 -65 79c-7 3 -18 9 -34 16c-17 7 -28 12 -33 14c-58 -27 -87 -63 -87 -108c0 -27 10 -49 29 -66s46 -26 80 -26z"></glyph><glyph glyph-name="ninesuperior" unicode="⁹" d="M200 770c40 0 74 -15 103 -44c28 -30 42 -78 42 -145c0 -73 -17 -133 -51 -180c-35 -47 -76 -71 -123 -71c-42 0 -73 14 -93 41l14 12c20 -21 45 -32 74 -32c40 0 73 20 99 61c25 40 39 93 40 158c-14 -19 -33 -34 -56 -47s-47 -19 -72 -19c-33 0 -61 11 -85 33 s-36 52 -36 91c0 42 14 76 42 103c27 26 61 39 102 39zM185 527c25 0 49 7 70 20s38 28 50 45c-3 103 -37 154 -103 154c-31 0 -56 -10 -76 -31c-21 -21 -31 -49 -31 -86c0 -32 8 -57 24 -75s38 -27 66 -27z"></glyph><glyph glyph-name="period.superior" unicode="" d="M50 444c-18 0 -31 16 -31 34c0 20 14 34 33 34s32 -14 32 -34c0 -18 -13 -34 -34 -34z"></glyph><glyph glyph-name="comma.superior" unicode="" d="M36 381l-33 -4c12 32 28 96 34 137l52 6c-13 -49 -39 -115 -53 -139z"></glyph><glyph glyph-name="dollar.superior" unicode="" d="M171 400h-33v61c-35 0 -73 11 -96 28l15 34c22 -16 54 -28 89 -28c47 0 81 27 81 63c0 35 -27 55 -74 73c-69 26 -104 54 -104 104c0 48 35 86 94 94v62h33v-61c38 -1 63 -12 81 -23l-14 -33c-12 8 -39 22 -80 22c-53 0 -71 -30 -71 -56c0 -31 23 -48 80 -70 c63 -25 98 -54 98 -109c0 -42 -32 -89 -99 -99v-62z"></glyph><glyph glyph-name="cent.superior" unicode="" d="M206 440h-34v62c-46 5 -74 20 -98 45c-21 23 -35 57 -35 97c0 82 54 140 133 150v62h34v-62c34 0 61 -10 76 -18l-12 -34c-13 8 -36 18 -74 18c-66 0 -114 -46 -114 -112c0 -70 50 -111 110 -111c40 0 65 10 80 17l10 -31c-11 -6 -40 -19 -76 -21v-62z"></glyph><glyph glyph-name="hyphenminus.superior" unicode="" d="M18 650h148v-34h-148v34z"></glyph><glyph glyph-name="parenleftsuperior" unicode="⁽" d="M125 875h37c-50 -62 -84 -136 -84 -245c0 -106 36 -179 84 -242h-37c-42 52 -86 126 -86 242c0 117 44 192 86 245z"></glyph><glyph glyph-name="parenrightsuperior" unicode="⁾" d="M44 388h-36c48 62 84 136 84 244c0 107 -35 180 -84 243h36c42 -52 86 -126 86 -243c0 -116 -44 -191 -86 -244z"></glyph><glyph glyph-name="zeroinferior" unicode="₀" d="M202 383c49 0 88 -21 116 -62c27 -42 41 -95 41 -158c0 -64 -14 -117 -41 -158c-28 -41 -67 -62 -116 -62s-88 21 -115 62c-28 41 -42 94 -42 158c0 63 14 116 42 158c27 41 66 62 115 62zM202 -33c39 0 69 18 88 55c19 36 29 83 29 141s-10 105 -29 142 c-19 36 -49 54 -88 54c-40 0 -69 -18 -88 -54c-19 -37 -29 -84 -29 -142s10 -105 29 -141c19 -37 48 -55 88 -55z"></glyph><glyph glyph-name="oneinferior" unicode="₁" d="M192 377h39v-405h94v-23h-229v23h96v374l-97 -91l-15 17z"></glyph><glyph glyph-name="twoinferior" unicode="₂" d="M61 -51v23l158 182c1 1 3 4 8 9c4 5 7 10 10 13s7 8 12 15s9 13 12 19s6 13 9 20s6 15 8 23c1 8 2 16 2 24c0 25 -8 45 -24 60s-39 22 -69 22c-45 0 -77 -14 -97 -43l-15 11c9 16 25 29 47 40s47 16 76 16c39 0 69 -10 90 -30s31 -45 31 -76c0 -35 -18 -73 -53 -114 l-164 -185h235v-29h-276z"></glyph><glyph glyph-name="threeinferior" unicode="₃" d="M80 17c27 -33 64 -50 111 -50c35 0 61 10 79 29s27 43 27 72c0 65 -49 97 -148 97v22c87 0 131 31 131 94c0 52 -29 78 -87 78c-45 0 -77 -14 -98 -43l-15 11c9 15 25 29 46 40s46 16 76 16c32 0 59 -7 82 -22s34 -40 34 -73c0 -32 -10 -57 -31 -76s-45 -31 -72 -34 c33 -2 61 -12 85 -31s36 -45 36 -80c0 -33 -11 -62 -33 -87c-23 -25 -57 -37 -104 -37c-33 0 -60 6 -83 19c-23 12 -39 27 -50 45z"></glyph><glyph glyph-name="fourinferior" unicode="₄" d="M287 93h67v-23h-67v-122h-39v122h-210v23l210 285h39v-285zM248 93v244l-179 -244h179z"></glyph><glyph glyph-name="fiveinferior" unicode="₅" d="M198 -57c-31 0 -58 6 -81 19s-39 28 -48 46l14 10c25 -34 59 -51 104 -51c28 0 53 9 76 26c22 17 33 45 33 84c0 41 -12 69 -36 86s-52 25 -84 25s-56 -6 -73 -19l-15 11v197h216v-29h-193v-152c20 10 45 15 74 15c51 0 88 -13 113 -39s37 -58 37 -96 c0 -37 -12 -68 -35 -94s-57 -39 -102 -39z"></glyph><glyph glyph-name="sixinferior" unicode="₆" d="M227 209c33 0 61 -11 85 -33s36 -52 36 -91c0 -42 -14 -76 -41 -102c-28 -27 -62 -40 -103 -40c-40 0 -74 15 -102 45c-29 29 -43 77 -43 144c0 73 17 134 52 181c34 47 75 70 122 70c42 0 73 -14 93 -41l-14 -12c-20 21 -45 32 -74 32c-40 0 -73 -20 -98 -60 c-26 -41 -40 -94 -41 -159c14 19 33 34 56 47s47 19 72 19zM202 -33c31 0 56 10 77 31c20 21 30 49 30 86c0 32 -8 57 -24 75s-38 27 -66 27c-25 0 -49 -7 -70 -20s-38 -28 -50 -45c3 -103 37 -154 103 -154z"></glyph><glyph glyph-name="seveninferior" unicode="₇" d="M110 -51c11 57 35 120 70 191c35 70 79 139 133 208h-251v29h287v-23c-45 -56 -86 -122 -125 -198c-39 -77 -64 -146 -75 -207h-39z"></glyph><glyph glyph-name="eightinferior" unicode="₈" d="M233 184c40 -19 69 -37 87 -54c17 -17 26 -40 26 -67c0 -37 -14 -66 -41 -87c-28 -22 -63 -33 -104 -33c-22 0 -43 3 -63 9c-20 5 -38 17 -55 36c-17 18 -25 41 -25 69c0 55 32 95 97 120c-53 28 -79 63 -79 105c0 32 12 57 35 75c23 17 55 26 94 26c38 0 68 -8 90 -24 c21 -17 32 -40 32 -69c0 -47 -31 -83 -94 -106zM110 288c0 -13 2 -24 7 -33c4 -9 12 -18 23 -25s21 -13 30 -17c8 -5 21 -11 39 -18c15 8 26 14 32 18c5 3 13 9 24 18c11 8 18 17 22 27c4 9 6 20 6 32c0 21 -8 39 -23 52c-16 13 -38 20 -67 20s-51 -6 -68 -19 s-25 -32 -25 -55zM201 -35c34 0 61 9 81 26c19 17 29 38 29 65c0 16 -5 30 -14 43c-10 12 -27 24 -51 36c-7 3 -18 9 -34 16c-17 7 -28 12 -33 14c-58 -27 -87 -63 -87 -108c0 -27 10 -49 29 -66s46 -26 80 -26z"></glyph><glyph glyph-name="nineinferior" unicode="₉" d="M200 383c40 0 74 -15 103 -44c28 -30 42 -78 42 -145c0 -73 -17 -133 -51 -180c-35 -47 -76 -71 -123 -71c-42 0 -73 14 -93 41l14 12c20 -21 45 -32 74 -32c40 0 73 20 99 61c25 40 39 93 40 158c-14 -19 -33 -34 -56 -47s-47 -19 -72 -19c-33 0 -61 11 -85 33 s-36 52 -36 91c0 42 14 76 42 103c27 26 61 39 102 39zM185 140c25 0 49 7 70 20s38 28 50 45c-3 103 -37 154 -103 154c-31 0 -56 -10 -76 -31c-21 -21 -31 -49 -31 -86c0 -32 8 -57 24 -75s38 -27 66 -27z"></glyph><glyph glyph-name="period.inferior" unicode="" d="M50 -154c-18 0 -31 16 -31 34c0 20 14 34 33 34s32 -14 32 -34c0 -18 -13 -34 -34 -34z"></glyph><glyph glyph-name="comma.inferior" unicode="" d="M36 -217l-33 -4c12 32 28 96 34 137l52 6c-13 -49 -39 -115 -53 -139z"></glyph><glyph glyph-name="dollar.inferior" unicode="" d="M171 -198h-33v61c-35 0 -73 11 -96 28l15 34c22 -16 54 -28 89 -28c47 0 81 27 81 63c0 35 -27 55 -74 73c-69 26 -104 54 -104 104c0 48 35 86 94 94v62h33v-61c38 -1 63 -12 81 -23l-14 -33c-12 8 -39 22 -80 22c-53 0 -71 -30 -71 -56c0 -31 23 -48 80 -70 c63 -25 98 -54 98 -109c0 -42 -32 -89 -99 -99v-62z"></glyph><glyph glyph-name="cent.inferior" unicode="" d="M206 -158h-34v62c-46 5 -74 20 -98 45c-21 23 -35 57 -35 97c0 82 54 140 133 150v62h34v-62c34 0 61 -10 76 -18l-12 -34c-13 8 -36 18 -74 18c-66 0 -114 -46 -114 -112c0 -70 50 -111 110 -111c40 0 65 10 80 17l10 -31c-11 -6 -40 -19 -76 -21v-62z"></glyph><glyph glyph-name="hyphenminus.inferior" unicode="" d="M18 51h148v-34h-148v34z"></glyph><glyph glyph-name="parenleftinferior" unicode="₍" d="M125 277h37c-50 -62 -84 -136 -84 -245c0 -106 36 -179 84 -242h-37c-42 52 -86 126 -86 242c0 117 44 192 86 245z"></glyph><glyph glyph-name="parenrightinferior" unicode="₎" d="M44 -210h-36c48 62 84 136 84 244c0 107 -35 180 -84 243h36c42 -52 86 -126 86 -243c0 -116 -44 -191 -86 -244z"></glyph><glyph glyph-name="zero.numerator" unicode="" d="M161 263c-74 0 -135 66 -135 198c0 133 65 201 143 201c83 0 136 -68 136 -194c0 -130 -52 -205 -144 -205zM165 297c64 0 95 65 95 168c0 100 -29 163 -95 163c-55 0 -94 -62 -94 -163c0 -106 37 -168 94 -168z"></glyph><glyph glyph-name="one.numerator" unicode="" d="M143 267h-41v350h-2l-65 -32l-9 33l79 39h38v-390z"></glyph><glyph glyph-name="two.numerator" unicode="" d="M14 267v29l73 65c99 88 134 131 134 180c0 42 -24 86 -93 86c-39 0 -70 -21 -88 -34l-15 26c25 24 68 43 113 43c100 0 128 -70 128 -109c0 -80 -58 -134 -158 -219l-34 -29v-2h198v-36h-258z"></glyph><glyph glyph-name="three.numerator" unicode="" d="M50 598l-16 32c22 14 60 32 105 32c88 0 115 -50 115 -92c0 -39 -28 -74 -77 -92v-2c61 -9 95 -52 95 -99c0 -53 -47 -114 -150 -114c-50 0 -92 15 -110 29l16 33c14 -11 56 -28 96 -28c84 0 105 54 104 80c-1 62 -69 82 -125 82h-32v33h34c43 0 104 20 105 77 c0 24 -19 59 -74 59c-38 0 -73 -19 -86 -30z"></glyph><glyph glyph-name="four.numerator" unicode="" d="M259 267h-43v108h-201v29l198 249h46v-243h61v-35h-61v-108zM216 410v149c0 16 1 33 2 49l-2 1c-11 -19 -20 -33 -30 -46l-123 -152v-1h153z"></glyph><glyph glyph-name="five.numerator" unicode="" d="M262 653v-37h-162l-16 -106c10 1 20 2 39 2c31 0 56 -4 81 -15c34 -15 66 -50 66 -106c0 -76 -63 -131 -147 -131c-48 0 -85 15 -104 27l13 33c17 -11 51 -24 92 -24c56 0 101 38 101 89s-33 92 -119 92c-26 0 -47 -3 -63 -5l25 181h194z"></glyph><glyph glyph-name="six.numerator" unicode="" d="M265 662l1 -37c-13 0 -29 0 -46 -3c-88 -14 -140 -78 -148 -149h1c19 27 57 53 107 53c77 0 128 -53 128 -127c0 -66 -50 -136 -137 -136c-81 0 -145 58 -145 165c0 78 31 139 71 175c33 30 76 48 126 55c17 2 31 4 42 4zM173 298c55 0 90 46 90 99c0 59 -40 94 -96 94 c-38 0 -73 -23 -90 -53c-4 -7 -7 -14 -7 -23c0 -62 34 -117 103 -117z"></glyph><glyph glyph-name="seven.numerator" unicode="" d="M20 653h257v-31l-187 -355h-46l186 349v1h-210v36z"></glyph><glyph glyph-name="eight.numerator" unicode="" d="M169 662c76 0 118 -44 118 -95c0 -31 -15 -69 -70 -91v-2c56 -18 86 -54 86 -98c0 -70 -64 -113 -139 -113c-80 0 -138 44 -138 106c0 46 28 80 83 101v3c-49 19 -68 52 -68 86c0 60 54 103 128 103zM164 296c59 0 93 35 93 74c0 50 -37 73 -102 87 c-54 -11 -84 -43 -84 -82c0 -40 33 -79 93 -79zM165 630c-53 0 -81 -33 -81 -67c0 -42 32 -64 88 -75c40 10 72 34 72 75c0 29 -20 67 -79 67z"></glyph><glyph glyph-name="nine.numerator" unicode="" d="M63 263v37c12 -1 28 0 49 2c35 4 66 19 92 44c26 24 45 59 53 107h-2c-26 -32 -61 -49 -105 -49c-79 0 -124 57 -124 119c0 72 56 139 142 139c77 0 134 -57 134 -165c0 -90 -34 -149 -73 -183c-30 -26 -72 -42 -110 -47c-22 -3 -42 -5 -56 -4zM161 628 c-56 0 -91 -49 -91 -103c0 -48 36 -86 89 -86c43 0 76 21 93 47c3 4 5 10 5 17c0 66 -28 125 -96 125z"></glyph><glyph glyph-name="period.numerator" unicode="" d="M50 260c-18 0 -31 16 -31 34c0 20 14 34 33 34s32 -14 32 -34c0 -18 -13 -34 -34 -34z"></glyph><glyph glyph-name="comma.numerator" unicode="" d="M36 197l-33 -4c12 32 28 96 34 137l52 6c-13 -49 -39 -115 -53 -139z"></glyph><glyph glyph-name="dollar.numerator" unicode="" d="M171 216h-33v61c-35 0 -73 11 -96 28l15 34c22 -16 54 -28 89 -28c47 0 81 27 81 63c0 35 -27 55 -74 73c-69 26 -104 54 -104 104c0 48 35 86 94 94v62h33v-61c38 -1 63 -12 81 -23l-14 -33c-12 8 -39 22 -80 22c-53 0 -71 -30 -71 -56c0 -31 23 -48 80 -70 c63 -25 98 -54 98 -109c0 -42 -32 -89 -99 -99v-62z"></glyph><glyph glyph-name="cent.numerator" unicode="" d="M206 256h-34v62c-46 5 -74 20 -98 45c-21 23 -35 57 -35 97c0 82 54 140 133 150v62h34v-62c34 0 61 -10 76 -18l-12 -34c-13 8 -36 18 -74 18c-66 0 -114 -46 -114 -112c0 -70 50 -111 110 -111c40 0 65 10 80 17l10 -31c-11 -6 -40 -19 -76 -21v-62z"></glyph><glyph glyph-name="hyphenminus.numerator" unicode="" d="M18 465h148v-34h-148v34z"></glyph><glyph glyph-name="parenleft.numerator" unicode="" d="M125 691h37c-50 -62 -84 -136 -84 -245c0 -106 36 -179 84 -242h-37c-42 52 -86 126 -86 242c0 117 44 192 86 245z"></glyph><glyph glyph-name="parenright.numerator" unicode="" d="M44 204h-36c48 62 84 136 84 244c0 107 -35 180 -84 243h36c42 -52 86 -126 86 -243c0 -116 -44 -191 -86 -244z"></glyph><glyph glyph-name="zero.denominator" unicode="" d="M161 -5c-74 0 -135 66 -135 198c0 134 65 202 143 202c83 0 136 -68 136 -194c0 -131 -52 -206 -144 -206zM165 29c64 0 95 65 95 169c0 100 -29 163 -95 163c-55 0 -94 -62 -94 -163c0 -107 37 -169 94 -169z"></glyph><glyph glyph-name="one.denominator" unicode="" d="M143 0h-41v350h-2l-65 -32l-9 33l79 39h38v-390z"></glyph><glyph glyph-name="two.denominator" unicode="" d="M14 0v29l73 65c99 88 134 131 134 180c0 42 -24 86 -93 86c-39 0 -70 -21 -88 -34l-15 26c25 24 68 43 113 43c100 0 128 -70 128 -109c0 -80 -58 -134 -158 -219l-34 -29v-2h198v-36h-258z"></glyph><glyph glyph-name="three.denominator" unicode="" d="M50 331l-16 32c22 14 60 32 105 32c88 0 115 -50 115 -92c0 -39 -28 -74 -77 -92v-2c61 -9 95 -52 95 -99c0 -54 -47 -115 -150 -115c-50 0 -92 15 -110 29l16 33c14 -11 56 -28 96 -28c84 0 105 54 104 81c-1 62 -69 82 -125 82h-32v33h34c43 0 104 20 105 77 c0 24 -19 59 -74 59c-38 0 -73 -19 -86 -30z"></glyph><glyph glyph-name="four.denominator" unicode="" d="M259 0h-43v108h-201v29l198 249h46v-243h61v-35h-61v-108zM216 143v149c0 16 1 33 2 49l-2 1c-11 -19 -20 -33 -30 -46l-123 -152v-1h153z"></glyph><glyph glyph-name="five.denominator" unicode="" d="M262 386v-37h-162l-16 -106c10 1 20 2 39 2c31 0 56 -4 81 -15c34 -15 66 -50 66 -106c0 -76 -63 -131 -147 -131c-48 0 -85 15 -104 27l13 33c17 -11 51 -24 92 -24c56 0 101 38 101 89s-33 92 -119 92c-26 0 -47 -3 -63 -5l25 181h194z"></glyph><glyph glyph-name="six.denominator" unicode="" d="M265 395l1 -37c-13 0 -29 0 -46 -3c-88 -14 -140 -78 -148 -149h1c19 27 57 53 107 53c77 0 128 -53 128 -127c0 -67 -50 -137 -137 -137c-81 0 -145 58 -145 166c0 78 31 139 71 175c33 30 76 48 126 55c17 2 31 4 42 4zM173 30c55 0 90 46 90 100c0 59 -40 94 -96 94 c-38 0 -73 -23 -90 -53c-4 -7 -7 -14 -7 -23c0 -63 34 -118 103 -118z"></glyph><glyph glyph-name="seven.denominator" unicode="" d="M20 386h257v-31l-187 -355h-46l186 349v1h-210v36z"></glyph><glyph glyph-name="eight.denominator" unicode="" d="M169 395c76 0 118 -44 118 -95c0 -31 -15 -69 -70 -91v-2c56 -18 86 -54 86 -99c0 -70 -64 -113 -139 -113c-80 0 -138 44 -138 106c0 47 28 81 83 102v3c-49 19 -68 52 -68 86c0 60 54 103 128 103zM164 28c59 0 93 35 93 74c0 51 -37 74 -102 88 c-54 -11 -84 -43 -84 -83s33 -79 93 -79zM165 363c-53 0 -81 -33 -81 -67c0 -42 32 -64 88 -75c40 10 72 34 72 75c0 29 -20 67 -79 67z"></glyph><glyph glyph-name="nine.denominator" unicode="" d="M63 -5v37c12 -1 28 0 49 2c35 4 66 19 92 44s45 60 53 108h-2c-26 -32 -61 -49 -105 -49c-79 0 -124 57 -124 119c0 72 56 139 142 139c77 0 134 -57 134 -165c0 -90 -34 -150 -73 -184c-30 -26 -72 -42 -110 -47c-22 -3 -42 -5 -56 -4zM161 361c-56 0 -91 -49 -91 -103 c0 -48 36 -86 89 -86c43 0 76 21 93 47c3 4 5 10 5 17c0 66 -28 125 -96 125z"></glyph><glyph glyph-name="period.denominator" unicode="" d="M50 -7c-18 0 -31 16 -31 34c0 20 14 34 33 34s32 -14 32 -34c0 -18 -13 -34 -34 -34z"></glyph><glyph glyph-name="comma.denominator" unicode="" d="M36 -70l-33 -4c12 32 28 96 34 137l52 6c-13 -49 -39 -115 -53 -139z"></glyph><glyph glyph-name="dollar.denominator" unicode="" d="M171 -51h-33v61c-35 0 -73 11 -96 28l15 34c22 -16 54 -28 89 -28c47 0 81 27 81 63c0 35 -27 55 -74 73c-69 26 -104 54 -104 104c0 48 35 86 94 94v62h33v-61c38 -1 63 -12 81 -23l-14 -33c-12 8 -39 22 -80 22c-53 0 -71 -30 -71 -56c0 -31 23 -48 80 -70 c63 -25 98 -54 98 -109c0 -42 -32 -89 -99 -99v-62z"></glyph><glyph glyph-name="cent.denominator" unicode="" d="M206 -11h-34v62c-46 5 -74 20 -98 45c-21 23 -35 57 -35 97c0 82 54 140 133 150v62h34v-62c34 0 61 -10 76 -18l-12 -34c-13 8 -36 18 -74 18c-66 0 -114 -46 -114 -112c0 -70 50 -111 110 -111c40 0 65 10 80 17l10 -31c-11 -6 -40 -19 -76 -21v-62z"></glyph><glyph glyph-name="hyphenminus.denominator" unicode="" d="M18 198h148v-34h-148v34z"></glyph><glyph glyph-name="parenleft.denominator" unicode="" d="M125 424h37c-50 -62 -84 -136 -84 -245c0 -106 36 -179 84 -242h-37c-42 52 -86 126 -86 242c0 117 44 192 86 245z"></glyph><glyph glyph-name="parenright.denominator" unicode="" d="M44 -63h-36c48 62 84 136 84 244c0 107 -35 180 -84 243h36c42 -52 86 -126 86 -243c0 -116 -44 -191 -86 -244z"></glyph><glyph glyph-name="at.cap" unicode="" d="M486 360l23 113c-13 5 -38 12 -73 12c-104 0 -194 -83 -194 -197c0 -47 28 -90 88 -90c78 0 144 98 156 162zM528 68l16 -36c-56 -31 -118 -44 -186 -44c-173 0 -320 132 -320 322c0 198 139 376 376 376c191 0 314 -135 314 -309c0 -137 -91 -217 -176 -217 c-38 0 -81 29 -74 100h-4c-37 -63 -85 -100 -163 -100c-57 0 -114 51 -114 129c0 133 114 234 245 234c49 0 84 -9 115 -22l-34 -167c-19 -92 -3 -134 38 -135c58 -2 120 64 120 173c0 159 -102 277 -275 277c-177 0 -321 -128 -321 -334c0 -169 124 -288 276 -288 c65 0 124 14 167 41z"></glyph><glyph glyph-name="emdash.cap" unicode="" d="M30 347h940v-40h-940v40z"></glyph><glyph glyph-name="endash.cap" unicode="" d="M30 347h440v-40h-440v40z"></glyph><glyph glyph-name="exclamdown.cap" unicode="" d="M138 0h-61l10 488h41zM109 680c24 0 41 -20 41 -47c0 -24 -17 -46 -43 -46c-25 0 -43 22 -42 46c0 27 18 47 44 47z"></glyph><glyph glyph-name="guillemotleft.cap" unicode="" d="M238 511l-156 -184l157 -184h-52l-157 184l156 184h52zM388 511l-156 -184l157 -184h-52l-157 184l156 184h52z"></glyph><glyph glyph-name="guillemotright.cap" unicode="" d="M178 327l-157 184h52l157 -184l-157 -184h-51zM328 327l-157 184h52l157 -184l-157 -184h-51z"></glyph><glyph glyph-name="guilsinglleft.cap" unicode="" d="M238 511l-156 -184l157 -184h-52l-157 184l156 184h52z"></glyph><glyph glyph-name="guilsinglright.cap" unicode="" d="M178 327l-157 184h52l157 -184l-157 -184h-51z"></glyph><glyph glyph-name="hyphenminus.cap" unicode="" d="M30 379h240v-43h-240v43z"></glyph><glyph glyph-name="questiondown.cap" unicode="" d="M254 680c24 0 41 -20 41 -47c0 -24 -17 -46 -43 -46c-25 0 -43 22 -42 46c0 27 18 47 44 47zM232 492h45l4 -31c7 -54 -18 -115 -74 -176c-58 -62 -80 -105 -80 -152c0 -59 37 -106 118 -106c40 0 84 13 114 37l19 -36c-39 -30 -100 -45 -142 -45 c-112 0 -162 75 -162 147c0 57 28 105 90 172c54 60 73 108 70 154z"></glyph><glyph glyph-name="braceleft.cap" unicode="" d="M22 310v36c78 -2 89 38 89 78c0 29 -5 57 -10 85c-6 28 -11 56 -11 84c0 92 64 133 152 133h13v-38h-19c-75 0 -101 -36 -101 -101c0 -26 5 -53 10 -79s10 -52 10 -79c0 -48 -26 -87 -64 -99v-2c38 -12 64 -54 64 -101c0 -27 -5 -53 -10 -79c-5 -27 -10 -53 -10 -80 c0 -68 33 -102 101 -102h19v-38h-13c-86 0 -152 38 -152 144c0 27 5 54 11 80c5 27 10 53 10 80c0 33 -11 80 -89 78z"></glyph><glyph glyph-name="braceright.cap" unicode="" d="M248 346v-36c-78 2 -89 -45 -89 -78c0 -27 5 -53 11 -80c5 -26 10 -53 10 -80c0 -106 -66 -144 -152 -144h-13v38h19c68 0 101 34 101 102c0 27 -5 53 -10 80c-5 26 -10 52 -10 79c0 47 26 89 64 101v2c-38 12 -64 51 -64 99c0 27 5 53 10 79s10 53 10 79 c0 65 -26 101 -101 101h-19v38h13c88 0 152 -41 152 -133c0 -28 -5 -56 -10 -84c-6 -28 -11 -56 -11 -85c0 -40 11 -80 89 -78z"></glyph><glyph glyph-name="bracketleft.cap" unicode="" d="M275 -72h-185v798h185v-38h-140v-722h140v-38z"></glyph><glyph glyph-name="bracketright.cap" unicode="" d="M-5 726h185v-798h-185v38h140v722h-140v38z"></glyph><glyph glyph-name="parenleft.cap" unicode="" d="M218 738h47c-92 -107 -153 -230 -153 -415c0 -180 65 -298 153 -407h-47c-76 89 -153 212 -153 408c0 198 77 322 153 414z"></glyph><glyph glyph-name="parenright.cap" unicode="" d="M52 -84h-47c88 107 153 229 153 412c0 182 -63 301 -153 410h47c76 -89 153 -213 153 -411c0 -197 -77 -319 -153 -411z"></glyph><glyph glyph-name="periodcentered.cap" unicode="" d="M86 298c-24 0 -42 22 -41 46c0 27 18 47 43 47s42 -20 42 -47c0 -24 -17 -46 -44 -46z"></glyph><glyph glyph-name="lessthanorequalto" unicode="≤" d="M469 173l-398 177v24l398 177v-36l-345 -153l345 -153v-36zM71 0v33h398v-33h-398z"></glyph><glyph glyph-name="greaterthanorequalto" unicode="≥" d="M70 551l398 -177v-24l-398 -177v36l345 153l-345 153v36zM70 0v33h398v-33h-398z"></glyph><glyph glyph-name="almostequalto" unicode="≈" d="M405 383c-27 0 -65 10 -113 29c-49 19 -84 28 -107 28c-45 0 -84 -19 -116 -57v14c11 19 27 35 49 50c21 14 47 21 77 21c28 0 66 -9 115 -28c48 -19 83 -29 106 -29c44 0 83 19 116 57v-14c-29 -47 -72 -71 -127 -71zM405 233c-27 0 -65 10 -113 29 c-49 19 -84 28 -107 28c-45 0 -84 -19 -116 -57v14c11 19 27 35 49 50c21 14 47 21 77 21c28 0 66 -9 115 -28c48 -19 83 -29 106 -29c44 0 83 19 116 57v-14c-29 -47 -72 -71 -127 -71z"></glyph><glyph glyph-name="notequalto" unicode="≠" d="M556 155h-310l-85 -134h-45l87 134h-163v40h188l97 150h-285v40h310l85 134h45l-87 -134h163v-40h-188l-97 -150h285v-40z"></glyph><glyph glyph-name="infinity" unicode="∞" d="M532 128c-74 0 -126 61 -175 108c-52 -52 -106 -108 -184 -108c-77 0 -133 55 -133 135c0 75 62 137 141 137c75 0 127 -61 176 -110c52 54 106 110 184 110c77 0 133 -55 133 -137c0 -73 -62 -135 -142 -135zM536 168c55 0 96 45 96 95c0 56 -39 97 -94 97 c-63 0 -114 -54 -154 -97c43 -40 87 -95 152 -95zM177 168c62 0 113 53 153 95c-43 40 -87 97 -151 97c-56 0 -97 -45 -97 -97c0 -54 39 -95 95 -95z"></glyph><glyph glyph-name="lozenge" unicode="◊" d="M456 325l-184 -358h-44l-184 358l184 358h44zM408 324l-150 301c-3 5 -6 10 -8 17h-2c-2 -7 -5 -12 -8 -17l-148 -299l150 -301c3 -5 6 -10 8 -17h2c2 7 5 12 8 17z"></glyph><glyph glyph-name="integral" unicode="∫" d="M282 780l-10 -35c-8 2 -18 4 -28 4c-16 0 -34 -5 -46 -19c-23 -26 -35 -67 -35 -163c0 -141 12 -347 12 -486c0 -106 -23 -162 -49 -190c-18 -19 -44 -32 -74 -32c-21 0 -41 5 -47 9l9 35c8 -2 19 -6 36 -6c15 0 33 6 46 20c18 20 35 58 35 166c0 139 -12 349 -12 487 c0 96 15 150 48 184c21 23 47 33 76 33c17 0 30 -3 39 -7z"></glyph><glyph glyph-name="partialdifferential" unicode="∂" d="M89 636l-20 33c38 28 91 54 174 54c131 0 262 -124 262 -354c0 -244 -129 -381 -275 -381c-144 0 -205 105 -205 204c0 131 107 240 233 240c101 0 176 -60 200 -107h1c2 17 2 35 2 52c0 211 -124 304 -218 304c-73 0 -122 -21 -154 -45zM233 30c118 0 197 114 218 240 c-25 62 -98 120 -193 120c-99 0 -183 -84 -183 -194c0 -95 59 -166 158 -166z"></glyph><glyph glyph-name="naryproduct" unicode="∏" d="M633 609h-105v-699h-49v699h-317v-699h-49v699h-105v41h625v-41z"></glyph><glyph glyph-name="squareroot" unicode="√" d="M573 819l-240 -923h-42l-169 437l-74 -33l-15 34l116 50l143 -382c6 -13 12 -31 16 -47h1c3 15 8 34 11 47l208 817h45z"></glyph><glyph glyph-name="narysummation" unicode="∑" d="M545 -90h-541v31l296 338l-282 337v34h489v-41h-424v-3l274 -326l-286 -326v-3h474v-41z"></glyph><glyph glyph-name="increment" unicode="∆" d="M566 0h-552v34l253 624h48l251 -624v-34zM515 41l-163 412c-20 50 -46 116 -61 157h-2c-11 -29 -33 -86 -52 -135l-173 -434h451z"></glyph><glyph glyph-name="Ohmsign-grek" unicode="Ω" d="M565 44v-3h172v-41h-250v34c91 50 182 162 182 317c0 133 -96 295 -284 295c-186 0 -291 -148 -291 -299c0 -148 91 -263 182 -313v-34h-250v41h171v3c-81 58 -154 164 -154 301c0 199 151 341 342 341c202 0 335 -149 335 -332c0 -144 -72 -249 -155 -310z"></glyph><glyph glyph-name="pi-grek" unicode="π" d="M541 440h-79v-296c0 -94 8 -121 16 -144h-49c-7 13 -16 41 -16 136v304h-216c-8 -132 -45 -359 -85 -440h-47c42 94 77 299 85 440c-49 0 -89 -3 -119 -11l-10 30c27 12 57 21 125 21h403z"></glyph><glyph glyph-name="aringacute" unicode="ǻ" d="M310 825h74l-147 -101h-38zM416 290v-174c0 -39 2 -77 8 -116h-45l-8 74h-2c-25 -37 -86 -86 -174 -86c-109 0 -153 74 -153 132c0 109 101 180 325 177v11c0 36 -8 144 -136 143c-48 0 -98 -12 -138 -40l-16 35c53 35 112 46 158 46c163 0 181 -126 181 -202zM367 154 v102c-127 4 -273 -16 -273 -127c0 -68 49 -101 105 -101c93 0 143 55 162 98c4 10 6 20 6 28zM247 518c-54 0 -95 40 -95 90c0 51 40 92 96 92c52 0 92 -40 92 -92c0 -51 -44 -90 -93 -90zM246 548c33 0 56 28 56 61c0 35 -23 61 -57 61c-32 0 -53 -28 -53 -62 c0 -30 23 -60 54 -60z"></glyph><glyph glyph-name="Abreve" unicode="Ă" d="M321 788c-47 0 -83 15 -107 45s-36 63 -37 100h26c0 -28 11 -53 32 -76s49 -35 86 -35s67 12 88 35s32 49 32 76h26c-1 -37 -13 -70 -37 -100c-25 -30 -61 -45 -109 -45zM581 0l-106 266h-323l-106 -266h-28l285 714h38l285 -714h-45zM162 292h303l-151 381z"></glyph><glyph glyph-name="Amacron" unicode="Ā" d="M474 237h-300l-93 -237h-51l272 674h48l270 -674h-51zM191 278h267l-95 237c-18 45 -27 74 -37 107h-2c-10 -34 -21 -64 -37 -104zM202 772h237v-40h-237v40z"></glyph><glyph glyph-name="Aogonek" unicode="Ą" d="M350 674l270 -674l-10 -4c-19 -15 -75 -64 -75 -109c0 -31 20 -49 51 -49c17 0 34 5 47 11l9 -29c-16 -12 -48 -18 -68 -18c-50 0 -84 27 -84 75c0 50 43 94 77 128l-93 232h-300l-93 -237h-51l272 674h48zM191 278h267l-95 237c-18 45 -27 74 -37 107h-2 c-10 -34 -21 -64 -37 -104z"></glyph><glyph glyph-name="i.dot" d="M137 0h-49v480h49v-480zM113 665c23 0 40 -20 40 -43c0 -22 -16 -43 -42 -43c-23 0 -39 21 -39 43s18 43 41 43z"></glyph><glyph glyph-name="Cacute" unicode="Ć" d="M590 66l15 -39c-38 -19 -114 -39 -211 -39c-182 0 -356 111 -356 346c0 176 130 352 383 352c102 0 159 -23 182 -34l-16 -41c-40 20 -100 34 -163 34c-219 0 -335 -133 -335 -315c0 -166 111 -300 323 -300c66 0 132 13 178 36zM453 829h76l-132 -115h-40z"></glyph><glyph glyph-name="Ccaron" unicode="Č" d="M590 66l15 -39c-38 -19 -114 -39 -211 -39c-182 0 -356 111 -356 346c0 176 130 352 383 352c102 0 159 -23 182 -34l-16 -41c-40 20 -100 34 -163 34c-219 0 -335 -133 -335 -315c0 -166 111 -300 323 -300c66 0 132 13 178 36zM404 715h-36l-113 115h54l77 -78h2l75 78 h50z"></glyph><glyph glyph-name="Ccircumflex" unicode="Ĉ" d="M590 66l15 -39c-38 -19 -114 -39 -211 -39c-182 0 -356 111 -356 346c0 176 130 352 383 352c102 0 159 -23 182 -34l-16 -41c-40 20 -100 34 -163 34c-219 0 -335 -133 -335 -315c0 -166 111 -300 323 -300c66 0 132 13 178 36zM361 830h36l113 -115h-54l-76 79h-2 l-76 -79h-50z"></glyph><glyph glyph-name="Cdotaccent" unicode="Ċ" d="M590 66l15 -39c-38 -19 -114 -39 -211 -39c-182 0 -356 111 -356 346c0 176 130 352 383 352c102 0 159 -23 182 -34l-16 -41c-40 20 -100 34 -163 34c-219 0 -335 -133 -335 -315c0 -166 111 -300 323 -300c66 0 132 13 178 36zM375 724c-21 0 -37 21 -37 41 c0 19 17 41 39 41s38 -22 38 -41c0 -20 -16 -41 -40 -41z"></glyph><glyph glyph-name="Dcaron" unicode="Ď" d="M88 0v665c60 8 127 15 202 15c143 0 252 -39 315 -108c56 -61 81 -133 81 -220c0 -77 -23 -171 -93 -246c-65 -69 -179 -112 -330 -112c-61 0 -117 1 -175 6zM137 626v-585c32 -5 80 -6 134 -6c256 0 365 141 365 316c2 165 -104 288 -350 288c-65 0 -114 -6 -149 -13z M358 714h-36l-113 115h54l77 -78h2l75 78h50z"></glyph><glyph glyph-name="Ebreve" unicode="Ĕ" d="M437 376v-41h-300v-294h334v-41h-383v674h366v-41h-317v-257h300zM142 825h36c6 -22 24 -53 84 -53c59 0 78 28 82 53h36c-2 -50 -33 -97 -121 -97c-84 0 -115 47 -117 97z"></glyph><glyph glyph-name="Ecaron" unicode="Ě" d="M437 376v-41h-300v-294h334v-41h-383v674h366v-41h-317v-257h300zM290 710h-36l-113 115h54l77 -78h2l75 78h50z"></glyph><glyph glyph-name="Edotaccent" unicode="Ė" d="M437 376v-41h-300v-294h334v-41h-383v674h366v-41h-317v-257h300zM254 724c-21 0 -37 21 -37 41c0 19 17 41 39 41s38 -22 38 -41c0 -20 -16 -41 -40 -41z"></glyph><glyph glyph-name="Emacron" unicode="Ē" d="M437 376v-41h-300v-294h334v-41h-383v674h366v-41h-317v-257h300zM155 772h237v-40h-237v40z"></glyph><glyph glyph-name="Eogonek" unicode="Ę" d="M466 -153l9 -32c-21 -9 -41 -13 -64 -13c-54 0 -88 26 -88 74c0 53 48 101 85 124h-320v674h366v-41h-317v-257h300v-41h-300v-294h334v-41h-11c-47 -30 -92 -76 -92 -115c0 -29 20 -45 53 -45c17 0 30 2 45 7z"></glyph><glyph glyph-name="Gbreve" unicode="Ğ" d="M631 333v-299c-36 -14 -116 -41 -226 -41c-103 0 -194 26 -269 96c-60 56 -98 147 -98 249c0 158 120 343 391 343c84 0 152 -21 180 -34l-16 -40c-41 19 -93 33 -166 33c-221 0 -338 -137 -338 -304c0 -175 119 -302 325 -302c83 0 137 12 168 28v231h-174v40h223z M255 825h36c6 -22 24 -53 84 -53c59 0 78 28 82 53h36c-2 -50 -33 -97 -121 -97c-84 0 -115 47 -117 97z"></glyph><glyph glyph-name="Gcircumflex" unicode="Ĝ" d="M631 333v-299c-36 -14 -116 -41 -226 -41c-103 0 -194 26 -269 96c-60 56 -98 147 -98 249c0 158 120 343 391 343c84 0 152 -21 180 -34l-16 -40c-41 19 -93 33 -166 33c-221 0 -338 -137 -338 -304c0 -175 119 -302 325 -302c83 0 137 12 168 28v231h-174v40h223z M368 829h36l113 -115h-54l-76 79h-2l-76 -79h-50z"></glyph><glyph glyph-name="Gcedilla" unicode="Ģ" d="M631 333v-299c-36 -14 -116 -41 -226 -41c-103 0 -194 26 -269 96c-60 56 -98 147 -98 249c0 158 120 343 391 343c84 0 152 -21 180 -34l-16 -40c-41 19 -93 33 -166 33c-221 0 -338 -137 -338 -304c0 -175 119 -302 325 -302c83 0 137 12 168 28v231h-174v40h223z M337 -210l-13 27c45 5 85 23 85 68c0 23 -17 47 -38 61l40 12c21 -12 42 -39 42 -71c0 -70 -70 -95 -116 -97z"></glyph><glyph glyph-name="Gdotaccent" unicode="Ġ" d="M631 333v-299c-36 -14 -116 -41 -226 -41c-103 0 -194 26 -269 96c-60 56 -98 147 -98 249c0 158 120 343 391 343c84 0 152 -21 180 -34l-16 -40c-41 19 -93 33 -166 33c-221 0 -338 -137 -338 -304c0 -175 119 -302 325 -302c83 0 137 12 168 28v231h-174v40h223z M388 724c-21 0 -37 21 -37 41c0 19 17 41 39 41s38 -22 38 -41c0 -20 -16 -41 -40 -41z"></glyph><glyph glyph-name="G_tildecomb" unicode="" d="M631 333v-299c-36 -14 -116 -41 -226 -41c-103 0 -194 26 -269 96c-60 56 -98 147 -98 249c0 158 120 343 391 343c84 0 152 -21 180 -34l-16 -40c-41 19 -93 33 -166 33c-221 0 -338 -137 -338 -304c0 -175 119 -302 325 -302c83 0 137 12 168 28v231h-174v40h223z M308 715h-34c-1 47 23 88 65 88c20 0 35 -8 61 -22c16 -8 35 -17 53 -17c14 0 25 5 27 38h34c0 -49 -19 -82 -61 -82c-18 0 -35 6 -63 20c-22 11 -38 20 -54 20c-18 0 -25 -20 -28 -45z"></glyph><glyph glyph-name="Hcircumflex" unicode="Ĥ" d="M88 674h49v-295h422v295h49v-674h-49v338h-422v-338h-49v674zM328 825h36l113 -115h-54l-76 79h-2l-76 -79h-50z"></glyph><glyph glyph-name="Ibreve" unicode="Ĭ" d="M88 674h49v-674h-49v674zM-6 818h36c6 -22 24 -53 84 -53c59 0 78 28 82 53h36c-2 -50 -33 -97 -121 -97c-84 0 -115 47 -117 97z"></glyph><glyph glyph-name="Idotaccent" unicode="İ" d="M88 674h49v-674h-49v674zM112 724c-21 0 -37 21 -37 41c0 19 17 41 39 41s38 -22 38 -41c0 -20 -16 -41 -40 -41z"></glyph><glyph glyph-name="Imacron" unicode="Ī" d="M88 674h49v-674h-49v674zM-5 772h237v-40h-237v40z"></glyph><glyph glyph-name="Iogonek" unicode="Į" d="M137 674v-674h-6c-19 -24 -55 -73 -55 -116c0 -33 20 -49 51 -49c19 0 34 4 47 10l9 -30c-16 -12 -48 -18 -70 -18c-48 0 -82 27 -82 75c0 50 33 94 57 128v674h49z"></glyph><glyph glyph-name="Itilde" unicode="Ĩ" d="M-31 822v19c18 38 45 57 80 57c18 0 42 -8 73 -25c30 -17 52 -25 66 -25c29 0 53 16 74 49v-19c-19 -37 -45 -56 -80 -56c-18 0 -42 8 -72 25c-31 16 -53 24 -68 24s-29 -5 -42 -15c-13 -11 -24 -22 -31 -34zM95 714h42v-714h-42v714z"></glyph><glyph glyph-name="Jcircumflex" unicode="Ĵ" d="M249 233v441h49v-454c0 -188 -100 -232 -196 -232c-36 0 -78 10 -96 19l12 40c19 -9 48 -17 84 -17c93 0 147 44 147 203zM249 825h36l113 -115h-54l-76 79h-2l-76 -79h-50z"></glyph><glyph glyph-name="Kcedilla" unicode="Ķ" d="M88 0v674h49v-345h4c20 26 42 48 61 68l269 277h62l-284 -287l314 -387h-61l-287 356l-78 -78v-278h-49zM216 -210l-13 27c45 5 85 23 85 68c0 23 -17 47 -38 61l40 12c21 -12 42 -39 42 -71c0 -70 -70 -95 -116 -97z"></glyph><glyph glyph-name="Lacute" unicode="Ĺ" d="M88 0v674h49v-633h334v-41h-383zM196 825h76l-132 -115h-40z"></glyph><glyph glyph-name="Lcaron" unicode="Ľ" d="M88 0v674h49v-633h334v-41h-383zM259 518l-13 27c45 5 85 23 85 68c0 23 -17 47 -38 61l40 12c21 -12 42 -39 42 -71c0 -70 -70 -95 -116 -97z"></glyph><glyph glyph-name="Lcedilla" unicode="Ļ" d="M88 0v674h49v-633h334v-41h-383zM206 -210l-13 27c45 5 85 23 85 68c0 23 -17 47 -38 61l40 12c21 -12 42 -39 42 -71c0 -70 -70 -95 -116 -97z"></glyph><glyph glyph-name="Lmiddledot" unicode="Ŀ" d="M88 0v674h49v-633h334v-41h-383zM348 328c-21 0 -37 21 -37 41c0 19 17 41 39 41s38 -22 38 -41c0 -20 -16 -41 -40 -41z"></glyph><glyph glyph-name="M_circumflexcomb" unicode="" d="M732 0l-21 318c-7 100 -16 230 -16 302h-2c-27 -72 -58 -150 -101 -252l-156 -368h-37l-146 363c-42 105 -73 185 -95 257h-2c-3 -78 -8 -201 -17 -312l-24 -308h-48l54 674h56l162 -402c34 -84 60 -154 80 -215h2c18 57 45 125 83 214l170 403h58l48 -674h-48zM402 825 h36l113 -115h-54l-76 79h-2l-76 -79h-50z"></glyph><glyph glyph-name="Nacute" unicode="Ń" d="M136 0h-48v674h46l305 -415c62 -84 102 -137 137 -197l2 2c-7 78 -8 158 -8 262v348h48v-674h-45l-295 401c-57 78 -109 149 -145 209l-3 -2c5 -76 6 -148 6 -248v-360zM411 825h76l-132 -115h-40z"></glyph><glyph glyph-name="Ncaron" unicode="Ň" d="M136 0h-48v674h46l305 -415c62 -84 102 -137 137 -197l2 2c-7 78 -8 158 -8 262v348h48v-674h-45l-295 401c-57 78 -109 149 -145 209l-3 -2c5 -76 6 -148 6 -248v-360zM373 700h-36l-113 115h54l77 -78h2l75 78h50z"></glyph><glyph glyph-name="N_circumflexcomb" unicode="" d="M136 0h-48v674h46l305 -415c62 -84 102 -137 137 -197l2 2c-7 78 -8 158 -8 262v348h48v-674h-45l-295 401c-57 78 -109 149 -145 209l-3 -2c5 -76 6 -148 6 -248v-360zM333 825h36l113 -115h-54l-76 79h-2l-76 -79h-50z"></glyph><glyph glyph-name="Ncedilla" unicode="Ņ" d="M136 0h-48v674h46l305 -415c62 -84 102 -137 137 -197l2 2c-7 78 -8 158 -8 262v348h48v-674h-45l-295 401c-57 78 -109 149 -145 209l-3 -2c5 -76 6 -148 6 -248v-360zM299 -210l-13 27c45 5 85 23 85 68c0 23 -17 47 -38 61l40 12c21 -12 42 -39 42 -71 c0 -70 -70 -95 -116 -97z"></glyph><glyph glyph-name="Obreve" unicode="Ŏ" d="M380 686c198 0 335 -146 335 -340c0 -233 -166 -358 -342 -358c-192 0 -335 143 -335 340c0 212 150 358 342 358zM378 646c-192 0 -289 -150 -289 -316c0 -159 109 -302 286 -302c178 0 289 135 289 314c0 146 -95 304 -286 304zM257 830h36c6 -22 24 -53 84 -53 c59 0 78 28 82 53h36c-2 -50 -33 -97 -121 -97c-84 0 -115 47 -117 97z"></glyph><glyph glyph-name="Odoubleacute" unicode="Ő" d="M380 686c198 0 335 -146 335 -340c0 -233 -166 -358 -342 -358c-192 0 -335 143 -335 340c0 212 150 358 342 358zM378 646c-192 0 -289 -150 -289 -316c0 -159 109 -302 286 -302c178 0 289 135 289 314c0 146 -95 304 -286 304zM384 830h69l-122 -115h-38zM514 830h69 l-122 -115h-38z"></glyph><glyph glyph-name="Omacron" unicode="Ō" d="M380 686c198 0 335 -146 335 -340c0 -233 -166 -358 -342 -358c-192 0 -335 143 -335 340c0 212 150 358 342 358zM378 646c-192 0 -289 -150 -289 -316c0 -159 109 -302 286 -302c178 0 289 135 289 314c0 146 -95 304 -286 304zM258 782h237v-40h-237v40z"></glyph><glyph glyph-name="Oslashacute" unicode="Ǿ" d="M91 -28l-29 26l74 87c-61 61 -98 149 -98 245c0 213 154 356 344 356c76 0 147 -24 205 -69l72 85l32 -25l-74 -87c62 -60 98 -148 98 -244c0 -242 -172 -358 -336 -358c-82 0 -156 26 -214 71zM167 121l392 462c-48 39 -107 63 -180 63c-192 0 -290 -155 -290 -308 c0 -103 34 -164 76 -219zM586 555l-392 -463c48 -40 100 -64 182 -64c180 0 288 142 288 314c0 72 -20 146 -75 213h-3zM449 838h76l-132 -115h-40z"></glyph><glyph glyph-name="Racute" unicode="Ŕ" d="M88 0v665c46 9 112 15 164 15c96 0 156 -20 197 -60c29 -27 48 -72 48 -118c0 -89 -57 -150 -139 -175v-2c55 -19 91 -70 107 -137c25 -106 39 -159 55 -188h-52c-11 19 -26 78 -45 162c-22 97 -66 142 -158 147h-128v-309h-49zM137 629v-280h130c111 0 181 58 181 145 c0 108 -89 146 -197 146c-55 0 -95 -6 -114 -11zM327 830h76l-132 -115h-40z"></glyph><glyph glyph-name="Rcaron" unicode="Ř" d="M88 0v665c46 9 112 15 164 15c96 0 156 -20 197 -60c29 -27 48 -72 48 -118c0 -89 -57 -150 -139 -175v-2c55 -19 91 -70 107 -137c25 -106 39 -159 55 -188h-52c-11 19 -26 78 -45 162c-22 97 -66 142 -158 147h-128v-309h-49zM137 629v-280h130c111 0 181 58 181 145 c0 108 -89 146 -197 146c-55 0 -95 -6 -114 -11zM290 715h-36l-113 115h54l77 -78h2l75 78h50z"></glyph><glyph glyph-name="Rcedilla" unicode="Ŗ" d="M88 0v665c46 9 112 15 164 15c96 0 156 -20 197 -60c29 -27 48 -72 48 -118c0 -89 -57 -150 -139 -175v-2c55 -19 91 -70 107 -137c25 -106 39 -159 55 -188h-52c-11 19 -26 78 -45 162c-22 97 -66 142 -158 147h-128v-309h-49zM137 629v-280h130c111 0 181 58 181 145 c0 108 -89 146 -197 146c-55 0 -95 -6 -114 -11zM220 -200l-13 27c45 5 85 23 85 68c0 23 -17 47 -38 61l40 12c21 -12 42 -39 42 -71c0 -70 -70 -95 -116 -97z"></glyph><glyph glyph-name="Sacute" unicode="Ś" d="M46 38l19 41c44 -30 102 -50 167 -50c109 0 175 58 175 141c0 77 -39 121 -152 157c-135 43 -189 98 -189 186c0 99 85 173 209 173c71 0 124 -17 150 -34l-19 -41c-19 13 -67 35 -133 35c-121 0 -159 -73 -159 -126c0 -72 43 -113 152 -148c123 -40 189 -88 189 -197 c0 -93 -68 -187 -229 -187c-64 0 -139 20 -180 50zM325 830h76l-132 -115h-40z"></glyph><glyph glyph-name="Scedilla" unicode="Ş" d="M46 38l19 41c44 -30 102 -50 167 -50c109 0 175 58 175 141c0 77 -39 121 -152 157c-135 43 -189 98 -189 186c0 99 85 173 209 173c71 0 124 -17 150 -34l-19 -41c-19 13 -67 35 -133 35c-121 0 -159 -73 -159 -126c0 -72 43 -113 152 -148c123 -40 189 -88 189 -197 c0 -83 -54 -165 -178 -184l-32 -45c39 -6 70 -33 70 -70c0 -51 -44 -74 -97 -74c-23 0 -49 7 -63 15l11 35c15 -7 32 -13 57 -13c27 0 48 12 48 35c0 29 -35 40 -80 45l45 69h-10c-64 0 -139 20 -180 50z"></glyph><glyph glyph-name="Scircumflex" unicode="Ŝ" d="M46 38l19 41c44 -30 102 -50 167 -50c109 0 175 58 175 141c0 77 -39 121 -152 157c-135 43 -189 98 -189 186c0 99 85 173 209 173c71 0 124 -17 150 -34l-19 -41c-19 13 -67 35 -133 35c-121 0 -159 -73 -159 -126c0 -72 43 -113 152 -148c123 -40 189 -88 189 -197 c0 -93 -68 -187 -229 -187c-64 0 -139 20 -180 50zM232 831h36l113 -115h-54l-76 79h-2l-76 -79h-50z"></glyph><glyph glyph-name="Scommaaccent" unicode="Ș" d="M46 38l19 41c44 -30 102 -50 167 -50c109 0 175 58 175 141c0 77 -39 121 -152 157c-135 43 -189 98 -189 186c0 99 85 173 209 173c71 0 124 -17 150 -34l-19 -41c-19 13 -67 35 -133 35c-121 0 -159 -73 -159 -126c0 -72 43 -113 152 -148c123 -40 189 -88 189 -197 c0 -93 -68 -187 -229 -187c-64 0 -139 20 -180 50zM198 -210l-13 27c45 5 85 23 85 68c0 23 -17 47 -38 61l40 12c21 -12 42 -39 42 -71c0 -70 -70 -95 -116 -97z"></glyph><glyph glyph-name="Tcaron" unicode="Ť" d="M231 0v633h-251v41h551v-41h-251v-633h-49zM275 710h-36l-113 115h54l77 -78h2l75 78h50z"></glyph><glyph glyph-name="Tcedilla" unicode="Ţ" d="M231 0v633h-251v41h551v-41h-251v-633h-49zM191 -210l-13 27c45 5 85 23 85 68c0 23 -17 47 -38 61l40 12c21 -12 42 -39 42 -71c0 -70 -70 -95 -116 -97z"></glyph><glyph glyph-name="Ubreve" unicode="Ŭ" d="M88 674h49v-389c0 -183 91 -256 203 -256c125 0 214 78 214 256v389h49v-385c0 -217 -123 -301 -266 -301c-131 0 -249 76 -249 296v390zM226 830h36c6 -22 24 -53 84 -53c59 0 78 28 82 53h36c-2 -50 -33 -97 -121 -97c-84 0 -115 47 -117 97z"></glyph><glyph glyph-name="Udoubleacute" unicode="Ű" d="M88 674h49v-389c0 -183 91 -256 203 -256c125 0 214 78 214 256v389h49v-385c0 -217 -123 -301 -266 -301c-131 0 -249 76 -249 296v390zM329 825h69l-122 -115h-38zM459 825h69l-122 -115h-38z"></glyph><glyph glyph-name="Umacron" unicode="Ū" d="M88 674h49v-389c0 -183 91 -256 203 -256c125 0 214 78 214 256v389h49v-385c0 -217 -123 -301 -266 -301c-131 0 -249 76 -249 296v390zM227 772h237v-40h-237v40z"></glyph><glyph glyph-name="Uogonek" unicode="Ų" d="M422 -151l9 -29c-16 -12 -48 -18 -68 -18c-50 0 -84 27 -84 75c0 42 30 80 60 111h-4c-133 4 -247 80 -247 296v390h49v-389c0 -183 91 -256 203 -256c125 0 214 78 214 256v389h49v-385c0 -193 -97 -281 -217 -297c-24 -24 -62 -67 -62 -105c0 -31 20 -48 51 -48 c17 0 34 4 47 10z"></glyph><glyph glyph-name="Uring" unicode="Ů" d="M88 674h49v-389c0 -183 91 -256 203 -256c125 0 214 78 214 256v389h49v-385c0 -217 -123 -301 -266 -301c-131 0 -249 76 -249 296v390zM347 868c53 0 90 -38 90 -86c0 -47 -40 -83 -91 -83c-54 0 -92 37 -92 83c0 47 37 86 93 86zM344 841c-30 0 -49 -27 -49 -59 c0 -28 21 -55 50 -55c30 0 51 25 51 57s-21 57 -52 57z"></glyph><glyph glyph-name="Utilde" unicode="Ũ" d="M220 822v19c18 38 45 57 80 57c18 0 42 -8 73 -25c30 -17 52 -25 66 -25c29 0 53 16 74 49v-19c-19 -37 -45 -56 -80 -56c-18 0 -42 8 -72 25c-31 16 -53 24 -68 24s-29 -5 -42 -15c-13 -11 -24 -22 -31 -34zM610 714h25v-464c0 -71 -27 -132 -80 -183 c-54 -51 -119 -77 -195 -77s-141 26 -194 77c-54 51 -81 112 -81 183v464h41v-464c0 -65 24 -120 71 -165c47 -46 104 -69 171 -69s124 23 171 68s70 101 70 166z"></glyph><glyph glyph-name="Wacute" unicode="Ẃ" d="M250 0h-48l-191 674h50l107 -387c24 -86 47 -169 61 -226h2c12 55 39 138 68 226l124 387h48l109 -386c23 -82 47 -168 58 -227h2c16 63 40 136 68 225l124 388h51l-223 -674h-48l-109 386c-30 106 -47 170 -57 231h-2c-12 -59 -33 -124 -68 -229zM513 825h76l-132 -115 h-40z"></glyph><glyph glyph-name="Wcircumflex" unicode="Ŵ" d="M250 0h-48l-191 674h50l107 -387c24 -86 47 -169 61 -226h2c12 55 39 138 68 226l124 387h48l109 -386c23 -82 47 -168 58 -227h2c16 63 40 136 68 225l124 388h51l-223 -674h-48l-109 386c-30 106 -47 170 -57 231h-2c-12 -59 -33 -124 -68 -229zM420 825h36l113 -115 h-54l-76 79h-2l-76 -79h-50z"></glyph><glyph glyph-name="Wdieresis" unicode="Ẅ" d="M250 0h-48l-191 674h50l107 -387c24 -86 47 -169 61 -226h2c12 55 39 138 68 226l124 387h48l109 -386c23 -82 47 -168 58 -227h2c16 63 40 136 68 225l124 388h51l-223 -674h-48l-109 386c-30 106 -47 170 -57 231h-2c-12 -59 -33 -124 -68 -229zM349 724 c-23 0 -37 20 -37 41s17 41 39 41s38 -19 38 -41c0 -21 -14 -41 -40 -41zM529 724c-23 0 -37 20 -37 41s17 41 39 41s38 -19 38 -41c0 -21 -14 -41 -40 -41z"></glyph><glyph glyph-name="Wgrave" unicode="Ẁ" d="M250 0h-48l-191 674h50l107 -387c24 -86 47 -169 61 -226h2c12 55 39 138 68 226l124 387h48l109 -386c23 -82 47 -168 58 -227h2c16 63 40 136 68 225l124 388h51l-223 -674h-48l-109 386c-30 106 -47 170 -57 231h-2c-12 -59 -33 -124 -68 -229zM301 825h76l96 -115 h-40z"></glyph><glyph glyph-name="Ycircumflex" unicode="Ŷ" d="M297 0h-49v288l-236 386h56l125 -210c32 -54 57 -94 82 -141h2c22 43 51 88 84 141l131 210h56l-251 -388v-286zM250 825h36l113 -115h-54l-76 79h-2l-76 -79h-50z"></glyph><glyph glyph-name="Ygrave" unicode="Ỳ" d="M552 714h31l-265 -408v-306h-42v306l-257 408h49l237 -381zM344 784h-33l-137 156h54z"></glyph><glyph glyph-name="Ymacron" unicode="Ȳ" d="M297 0h-49v288l-236 386h56l125 -210c32 -54 57 -94 82 -141h2c22 43 51 88 84 141l131 210h56l-251 -388v-286zM152 772h237v-40h-237v40z"></glyph><glyph glyph-name="Zacute" unicode="Ź" d="M37 0v33l461 597v3h-423v41h488v-34l-462 -596v-3h469v-41h-533zM375 825h76l-132 -115h-40z"></glyph><glyph glyph-name="Zdotaccent" unicode="Ż" d="M37 0v33l461 597v3h-423v41h488v-34l-462 -596v-3h469v-41h-533zM301 724c-21 0 -37 21 -37 41c0 19 17 41 39 41s38 -22 38 -41c0 -20 -16 -41 -40 -41z"></glyph><glyph glyph-name="AEacute" unicode="Ǽ" d="M41 0h-51l360 674h399v-41h-326l36 -258h273v-41h-267l42 -293h259v-41h-300l-40 279h-237zM210 319h211l-29 207c-4 28 -12 78 -14 111h-4c-13 -29 -32 -66 -51 -102zM526 825h76l-132 -115h-40z"></glyph><glyph glyph-name="abreve" unicode="ă" d="M383 754h26c-1 -37 -13 -70 -37 -100c-25 -30 -61 -45 -109 -45c-47 0 -83 15 -107 45s-36 63 -37 100h26c0 -28 11 -53 32 -76s49 -35 86 -35s67 12 88 35s32 49 32 76zM225 -10c-29 0 -57 5 -84 14s-51 27 -72 53c-21 25 -32 57 -32 95c0 53 18 94 55 123 c36 29 79 43 130 43c28 0 57 -5 87 -14c30 -10 53 -20 69 -30l23 -14v133c0 85 -43 127 -128 127c-25 0 -48 -3 -70 -10s-40 -16 -53 -26c-14 -11 -26 -21 -36 -31c-10 -11 -17 -20 -22 -27l-6 -10l-18 12c20 35 49 63 86 85s81 33 130 33c57 0 98 -14 122 -43 s36 -66 36 -111v-392h-41v53c-65 -42 -124 -63 -176 -63zM234 16c26 0 53 5 81 15s49 20 64 29l22 15v166l-22 12c-15 8 -35 17 -62 26s-54 14 -79 14c-43 0 -80 -12 -112 -35s-48 -58 -48 -104s16 -80 48 -103c31 -23 67 -35 108 -35z"></glyph><glyph glyph-name="amacron" unicode="ā" d="M416 290v-174c0 -39 2 -77 8 -116h-45l-8 74h-2c-25 -37 -86 -86 -174 -86c-109 0 -153 74 -153 132c0 109 101 180 325 177v11c0 36 -8 144 -136 143c-48 0 -98 -12 -138 -40l-16 35c53 35 112 46 158 46c163 0 181 -126 181 -202zM367 154v102 c-127 4 -273 -16 -273 -127c0 -68 49 -101 105 -101c93 0 143 55 162 98c4 10 6 20 6 28zM140 633h217v-41h-217v41z"></glyph><glyph glyph-name="aogonek" unicode="ą" d="M416 290v-174c0 -39 2 -77 8 -116h-7c-19 -22 -51 -70 -51 -110c0 -33 20 -49 51 -49c19 0 34 4 47 10l9 -30c-16 -12 -48 -18 -70 -18c-48 0 -82 27 -82 75c0 50 33 94 57 128l-7 68h-2c-25 -37 -86 -86 -174 -86c-109 0 -153 74 -153 132c0 109 101 180 325 177v11 c0 36 -8 144 -136 143c-48 0 -98 -12 -138 -40l-16 35c53 35 112 46 158 46c163 0 181 -126 181 -202zM367 154v102c-127 4 -273 -16 -273 -127c0 -68 49 -101 105 -101c93 0 143 55 162 98c4 10 6 20 6 28z"></glyph><glyph glyph-name="a.superior" d="M300 267h-40l-5 52h-2c-17 -23 -55 -56 -110 -56c-74 0 -106 46 -106 94c0 65 67 118 215 111v12c0 10 -7 75 -88 75c-31 0 -61 -7 -87 -28l-13 30c35 27 78 35 109 35c109 0 121 -83 121 -151v-95c0 -26 2 -51 6 -79zM252 371v63c-84 3 -171 -10 -171 -76 c0 -38 32 -59 70 -59c41 0 70 22 86 41c10 13 15 25 15 31z"></glyph><glyph glyph-name="cacute" unicode="ć" d="M444 62l14 -39c-21 -10 -79 -35 -161 -35c-153 0 -254 106 -254 245c0 160 119 259 273 259c71 0 126 -20 146 -34l-18 -40c-28 16 -70 32 -132 32c-143 0 -220 -94 -220 -211c0 -125 90 -209 212 -209c69 0 112 20 140 32zM332 692h74l-127 -140h-38z"></glyph><glyph glyph-name="ccaron" unicode="č" d="M444 62l14 -39c-21 -10 -79 -35 -161 -35c-153 0 -254 106 -254 245c0 160 119 259 273 259c71 0 126 -20 146 -34l-18 -40c-28 16 -70 32 -132 32c-143 0 -220 -94 -220 -211c0 -125 90 -209 212 -209c69 0 112 20 140 32zM304 552h-42l-100 140h51l69 -103h2l69 103h47 z"></glyph><glyph glyph-name="ccircumflex" unicode="ĉ" d="M444 62l14 -39c-21 -10 -79 -35 -161 -35c-153 0 -254 106 -254 245c0 160 119 259 273 259c71 0 126 -20 146 -34l-18 -40c-28 16 -70 32 -132 32c-143 0 -220 -94 -220 -211c0 -125 90 -209 212 -209c69 0 112 20 140 32zM260 692h38l100 -140h-51l-67 102h-2l-67 -102 h-47z"></glyph><glyph glyph-name="cdotaccent" unicode="ċ" d="M444 62l14 -39c-21 -10 -79 -35 -161 -35c-153 0 -254 106 -254 245c0 160 119 259 273 259c71 0 126 -20 146 -34l-18 -40c-28 16 -70 32 -132 32c-143 0 -220 -94 -220 -211c0 -125 90 -209 212 -209c69 0 112 20 140 32zM280 581c-22 0 -38 20 -38 42 c0 21 18 42 40 42s39 -20 39 -42s-15 -42 -41 -42z"></glyph><glyph glyph-name="dcaron" unicode="ď" d="M465 716h49v-600c0 -39 1 -77 4 -116h-45l-3 100h-2c-28 -60 -94 -112 -194 -112c-135 0 -231 108 -231 241c-1 156 107 263 242 263c100 0 157 -53 178 -92h2v316zM465 202v85c0 14 -2 33 -6 47c-21 65 -83 118 -173 118c-114 0 -194 -87 -194 -217 c0 -108 63 -207 193 -207c82 0 154 56 174 132c4 13 6 26 6 42zM581 547l-18 25c18 12 45 33 45 78c0 23 -17 47 -38 61l43 12c18 -10 39 -37 39 -71c0 -70 -57 -98 -71 -105z"></glyph><glyph glyph-name="ebreve" unicode="ĕ" d="M490 240h-399c0 -140 89 -210 203 -210c83 0 123 16 154 30l13 -39c-17 -8 -71 -33 -172 -33c-149 0 -246 101 -246 240c0 163 104 264 240 264c178 0 209 -158 209 -222c0 -15 0 -22 -2 -30zM94 279h347c1 50 -20 173 -164 173c-122 0 -173 -100 -183 -173zM147 681h38 c8 -42 38 -77 83 -77c56 0 79 44 83 77h38c-1 -72 -53 -117 -121 -117c-91 0 -120 67 -121 117z"></glyph><glyph glyph-name="ecaron" unicode="ě" d="M490 240h-399c0 -140 89 -210 203 -210c83 0 123 16 154 30l13 -39c-17 -8 -71 -33 -172 -33c-149 0 -246 101 -246 240c0 163 104 264 240 264c178 0 209 -158 209 -222c0 -15 0 -22 -2 -30zM94 279h347c1 50 -20 173 -164 173c-122 0 -173 -100 -183 -173zM291 552h-42 l-100 140h51l69 -103h2l69 103h47z"></glyph><glyph glyph-name="edotaccent" unicode="ė" d="M490 240h-399c0 -140 89 -210 203 -210c83 0 123 16 154 30l13 -39c-17 -8 -71 -33 -172 -33c-149 0 -246 101 -246 240c0 163 104 264 240 264c178 0 209 -158 209 -222c0 -15 0 -22 -2 -30zM94 279h347c1 50 -20 173 -164 173c-122 0 -173 -100 -183 -173zM267 581 c-22 0 -38 20 -38 42c0 21 18 42 40 42s39 -20 39 -42s-15 -42 -41 -42z"></glyph><glyph glyph-name="emacron" unicode="ē" d="M490 240h-399c0 -140 89 -210 203 -210c83 0 123 16 154 30l13 -39c-17 -8 -71 -33 -172 -33c-149 0 -246 101 -246 240c0 163 104 264 240 264c178 0 209 -158 209 -222c0 -15 0 -22 -2 -30zM94 279h347c1 50 -20 173 -164 173c-122 0 -173 -100 -183 -173zM160 633h217 v-41h-217v41z"></glyph><glyph glyph-name="eogonek" unicode="ę" d="M402 -150l9 -30c-18 -11 -41 -17 -67 -17c-50 0 -83 26 -83 75c0 46 40 89 75 111v1c-15 -1 -29 -2 -47 -2c-149 0 -246 101 -246 240c0 163 104 264 240 264c178 0 209 -158 209 -222c0 -15 0 -22 -2 -30h-399c0 -140 89 -210 203 -210c83 0 123 16 154 30l13 -39 c-18 -9 -49 -18 -57 -21c-40 -16 -98 -66 -98 -111c0 -33 22 -48 46 -48c15 0 37 3 50 9zM94 279h347c1 50 -20 173 -164 173c-122 0 -173 -100 -183 -173z"></glyph><glyph glyph-name="gbreve" unicode="ğ" d="M514 364v-293c0 -117 -29 -184 -74 -224c-50 -45 -122 -59 -180 -59c-60 0 -129 15 -171 47l18 39c39 -26 91 -46 161 -46c115 0 197 58 197 204v70h-2c-28 -51 -91 -102 -191 -102c-137 0 -229 113 -229 234c0 161 118 258 240 258c106 0 163 -55 185 -101h2l3 89h45 c-3 -39 -4 -77 -4 -116zM465 207v80c0 19 -2 35 -7 50c-23 64 -84 115 -170 115c-115 0 -196 -84 -196 -212c0 -96 60 -200 194 -200c76 0 143 49 169 115c6 15 10 34 10 52zM165 681h38c8 -42 38 -77 83 -77c56 0 79 44 83 77h38c-1 -72 -53 -117 -121 -117 c-91 0 -120 67 -121 117z"></glyph><glyph glyph-name="gcircumflex" unicode="ĝ" d="M514 364v-293c0 -117 -29 -184 -74 -224c-50 -45 -122 -59 -180 -59c-60 0 -129 15 -171 47l18 39c39 -26 91 -46 161 -46c115 0 197 58 197 204v70h-2c-28 -51 -91 -102 -191 -102c-137 0 -229 113 -229 234c0 161 118 258 240 258c106 0 163 -55 185 -101h2l3 89h45 c-3 -39 -4 -77 -4 -116zM465 207v80c0 19 -2 35 -7 50c-23 64 -84 115 -170 115c-115 0 -196 -84 -196 -212c0 -96 60 -200 194 -200c76 0 143 49 169 115c6 15 10 34 10 52zM280 698h38l100 -140h-51l-67 102h-2l-67 -102h-47z"></glyph><glyph glyph-name="gcedilla" unicode="ģ" d="M514 364v-293c0 -117 -29 -184 -74 -224c-50 -45 -122 -59 -180 -59c-60 0 -129 15 -171 47l18 39c39 -26 91 -46 161 -46c115 0 197 58 197 204v70h-2c-28 -51 -91 -102 -191 -102c-137 0 -229 113 -229 234c0 161 118 258 240 258c106 0 163 -55 185 -101h2l3 89h45 c-3 -39 -4 -77 -4 -116zM465 207v80c0 19 -2 35 -7 50c-23 64 -84 115 -170 115c-115 0 -196 -84 -196 -212c0 -96 60 -200 194 -200c76 0 143 49 169 115c6 15 10 34 10 52zM350 704l13 -27c-45 -5 -85 -23 -85 -68c0 -23 17 -47 38 -61l-40 -12c-21 12 -42 39 -42 71 c0 70 70 95 116 97z"></glyph><glyph glyph-name="gdotaccent" unicode="ġ" d="M514 364v-293c0 -117 -29 -184 -74 -224c-50 -45 -122 -59 -180 -59c-60 0 -129 15 -171 47l18 39c39 -26 91 -46 161 -46c115 0 197 58 197 204v70h-2c-28 -51 -91 -102 -191 -102c-137 0 -229 113 -229 234c0 161 118 258 240 258c106 0 163 -55 185 -101h2l3 89h45 c-3 -39 -4 -77 -4 -116zM465 207v80c0 19 -2 35 -7 50c-23 64 -84 115 -170 115c-115 0 -196 -84 -196 -212c0 -96 60 -200 194 -200c76 0 143 49 169 115c6 15 10 34 10 52zM300 587c-22 0 -38 20 -38 42c0 21 18 42 40 42s39 -20 39 -42s-15 -42 -41 -42z"></glyph><glyph glyph-name="g_tildecomb" unicode="" d="M514 364v-293c0 -117 -29 -184 -74 -224c-50 -45 -122 -59 -180 -59c-60 0 -129 15 -171 47l18 39c39 -26 91 -46 161 -46c115 0 197 58 197 204v70h-2c-28 -51 -91 -102 -191 -102c-137 0 -229 113 -229 234c0 161 118 258 240 258c106 0 163 -55 185 -101h2l3 89h45 c-3 -39 -4 -77 -4 -116zM465 207v80c0 19 -2 35 -7 50c-23 64 -84 115 -170 115c-115 0 -196 -84 -196 -212c0 -96 60 -200 194 -200c76 0 143 49 169 115c6 15 10 34 10 52zM220 576h-34c-1 56 23 90 61 90c20 0 36 -10 66 -25c16 -8 30 -15 42 -15c15 0 27 9 29 43h33 c0 -54 -17 -87 -60 -87c-18 0 -37 9 -60 21c-24 13 -37 19 -49 19c-17 0 -26 -20 -28 -46z"></glyph><glyph glyph-name="hcircumflex" unicode="ĥ" d="M88 0v716h49v-333h2c15 30 41 59 74 78c31 19 69 31 108 31c46 0 187 -20 187 -218v-274h-49v272c0 93 -40 177 -151 177c-76 0 -140 -54 -163 -113c-6 -15 -8 -29 -8 -51v-285h-49zM97 843h36l113 -115h-54l-76 79h-2l-76 -79h-50z"></glyph><glyph glyph-name="ibreve" unicode="ĭ" d="M137 0h-49v480h49v-480zM-2 681h38c8 -42 38 -77 83 -77c56 0 79 44 83 77h38c-1 -72 -53 -117 -121 -117c-91 0 -120 67 -121 117z"></glyph><glyph glyph-name="imacron" unicode="ī" d="M137 0h-49v480h49v-480zM5 633h217v-41h-217v41z"></glyph><glyph glyph-name="iogonek" unicode="į" d="M111 588c-23 0 -39 21 -39 43s18 43 41 43s40 -20 40 -43c0 -22 -16 -43 -42 -43zM137 480v-480h-6c-19 -24 -55 -73 -55 -116c0 -33 20 -49 51 -49c19 0 34 4 47 10l9 -30c-16 -12 -48 -18 -70 -18c-48 0 -82 27 -82 75c0 50 33 94 57 128v480h49z"></glyph><glyph glyph-name="itilde" unicode="ĩ" d="M-48 643v19c18 38 45 57 80 57c18 0 42 -8 73 -25c30 -17 52 -25 66 -25c29 0 53 16 74 49v-19c-19 -37 -45 -56 -80 -56c-18 0 -42 8 -72 25c-31 16 -53 24 -68 24s-29 -5 -42 -15c-13 -11 -24 -22 -31 -34zM78 0v535h41v-535h-41z"></glyph><glyph glyph-name="jcircumflex" unicode="ĵ" d="M-53 -212l-5 40c48 1 87 14 111 39c28 30 40 68 40 204v409h49v-445c0 -83 -10 -146 -55 -194c-38 -40 -105 -53 -140 -53zM91 682h38l100 -140h-51l-67 102h-2l-67 -102h-47z"></glyph><glyph glyph-name="kcedilla" unicode="ķ" d="M137 716v-467h2c13 15 36 39 53 55l187 176h62l-214 -198l245 -282h-61l-219 254l-55 -53v-201h-49v716h49zM175 -210l-13 27c45 5 85 23 85 68c0 23 -17 47 -38 61l40 12c21 -12 42 -39 42 -71c0 -70 -70 -95 -116 -97z"></glyph><glyph glyph-name="lacute" unicode="ĺ" d="M88 0v716h49v-716h-49zM162 861h76l-132 -115h-40z"></glyph><glyph glyph-name="lcaron" unicode="ľ" d="M88 0v716h49v-716h-49zM196 547l-18 25c18 12 45 33 45 78c0 23 -17 47 -38 61l43 12c18 -10 39 -37 39 -71c0 -70 -57 -98 -71 -105z"></glyph><glyph glyph-name="lcedilla" unicode="ļ" d="M88 0v716h49v-716h-49zM51 -210l-13 27c45 5 85 23 85 68c0 23 -17 47 -38 61l40 12c21 -12 42 -39 42 -71c0 -70 -70 -95 -116 -97z"></glyph><glyph glyph-name="lmiddledot" unicode="ŀ" d="M88 0v716h49v-716h-49zM226 349c-22 0 -37 20 -37 41s17 41 39 41s38 -19 38 -41c0 -21 -15 -41 -40 -41z"></glyph><glyph glyph-name="m_circumflexcomb" unicode="" d="M88 0v364c0 39 -1 77 -4 116h46l4 -93h2c35 60 85 105 173 105c76 0 130 -53 151 -114h2c14 29 32 51 50 67c35 30 71 47 131 47c45 0 172 -24 172 -224v-268h-49v267c0 121 -52 183 -140 183c-67 0 -119 -48 -140 -97c-5 -13 -10 -29 -10 -47v-306h-49v292 c0 94 -51 158 -132 158c-73 0 -128 -58 -149 -111c-5 -13 -9 -30 -9 -47v-292h-49zM427 692h38l100 -140h-51l-67 102h-2l-67 -102h-47z"></glyph><glyph glyph-name="nacute" unicode="ń" d="M88 0v364c0 39 -1 77 -4 116h46l4 -96h2c29 59 97 108 185 108c44 0 187 -20 187 -219v-273h-49v273c0 94 -41 177 -151 177c-77 0 -141 -53 -163 -114c-4 -11 -8 -28 -8 -43v-293h-49zM354 692h74l-127 -140h-38z"></glyph><glyph glyph-name="ncaron" unicode="ň" d="M88 0v364c0 39 -1 77 -4 116h46l4 -96h2c29 59 97 108 185 108c44 0 187 -20 187 -219v-273h-49v273c0 94 -41 177 -151 177c-77 0 -141 -53 -163 -114c-4 -11 -8 -28 -8 -43v-293h-49zM318 552h-42l-100 140h51l69 -103h2l69 103h47z"></glyph><glyph glyph-name="n_circumflexcomb" unicode="" d="M274 692h38l100 -140h-51l-67 102h-2l-67 -102h-47zM88 0v364c0 39 -1 77 -4 116h46l4 -96h2c29 59 97 108 185 108c44 0 187 -20 187 -219v-273h-49v273c0 94 -41 177 -151 177c-77 0 -141 -53 -163 -114c-4 -11 -8 -28 -8 -43v-293h-49z"></glyph><glyph glyph-name="ncedilla" unicode="ņ" d="M88 0v364c0 39 -1 77 -4 116h46l4 -96h2c29 59 97 108 185 108c44 0 187 -20 187 -219v-273h-49v273c0 94 -41 177 -151 177c-77 0 -141 -53 -163 -114c-4 -11 -8 -28 -8 -43v-293h-49zM241 -210l-13 27c45 5 85 23 85 68c0 23 -17 47 -38 61l40 12c21 -12 42 -39 42 -71 c0 -70 -70 -95 -116 -97z"></glyph><glyph glyph-name="obreve" unicode="ŏ" d="M297 492c154 0 251 -109 251 -246c0 -180 -140 -258 -258 -258c-143 0 -247 105 -247 247c0 160 120 257 254 257zM297 452c-136 0 -205 -102 -205 -214c0 -134 97 -210 201 -210c106 0 206 77 206 215c0 91 -61 209 -202 209zM174 681h38c8 -42 38 -77 83 -77 c56 0 79 44 83 77h38c-1 -72 -53 -117 -121 -117c-91 0 -120 67 -121 117z"></glyph><glyph glyph-name="odoubleacute" unicode="ő" d="M297 492c154 0 251 -109 251 -246c0 -180 -140 -258 -258 -258c-143 0 -247 105 -247 247c0 160 120 257 254 257zM297 452c-136 0 -205 -102 -205 -214c0 -134 97 -210 201 -210c106 0 206 77 206 215c0 91 -61 209 -202 209zM290 691h69l-122 -127h-38zM420 691h69 l-122 -127h-38z"></glyph><glyph glyph-name="omacron" unicode="ō" d="M297 492c154 0 251 -109 251 -246c0 -180 -140 -258 -258 -258c-143 0 -247 105 -247 247c0 160 120 257 254 257zM297 452c-136 0 -205 -102 -205 -214c0 -134 97 -210 201 -210c106 0 206 77 206 215c0 91 -61 209 -202 209zM187 633h217v-41h-217v41z"></glyph><glyph glyph-name="oslashacute" unicode="ǿ" d="M299 492c49 0 100 -14 141 -41l45 56l31 -23l-45 -57c50 -48 77 -113 77 -180c0 -180 -136 -259 -253 -259c-53 0 -105 14 -145 42l-47 -57l-28 27l45 55c-48 45 -77 108 -77 180c0 160 119 257 256 257zM149 88l265 328c-32 24 -72 36 -119 36 c-139 0 -203 -107 -203 -214c0 -56 17 -109 55 -150h2zM441 391l-264 -328c35 -26 73 -35 113 -35c114 0 209 79 209 216c0 40 -14 101 -56 147h-2zM354 692h74l-127 -140h-38z"></glyph><glyph glyph-name="racute" unicode="ŕ" d="M88 0v325c0 52 -1 103 -4 155h45l2 -104h3c24 67 76 116 147 116c8 0 16 -1 23 -3v-45c-9 2 -17 2 -28 2c-67 0 -118 -56 -134 -139c-3 -14 -5 -31 -5 -47v-260h-49zM231 692h74l-127 -140h-38z"></glyph><glyph glyph-name="rcaron" unicode="ř" d="M88 0v325c0 52 -1 103 -4 155h45l2 -104h3c24 67 76 116 147 116c8 0 16 -1 23 -3v-45c-9 2 -17 2 -28 2c-67 0 -118 -56 -134 -139c-3 -14 -5 -31 -5 -47v-260h-49zM208 552h-42l-100 140h51l69 -103h2l69 103h47z"></glyph><glyph glyph-name="rcedilla" unicode="ŗ" d="M88 0v325c0 52 -1 103 -4 155h45l2 -104h3c24 67 76 116 147 116c8 0 16 -1 23 -3v-45c-9 2 -17 2 -28 2c-67 0 -118 -56 -134 -139c-3 -14 -5 -31 -5 -47v-260h-49zM60 -210l-13 27c45 5 85 23 85 68c0 23 -17 47 -38 61l40 12c21 -12 42 -39 42 -71 c0 -70 -70 -95 -116 -97z"></glyph><glyph glyph-name="sacute" unicode="ś" d="M50 23l18 42c29 -18 72 -36 120 -36c84 0 121 44 121 93c0 56 -38 83 -113 107c-87 28 -130 73 -130 130c0 68 54 133 158 133c47 0 88 -13 116 -32l-19 -40c-16 11 -51 31 -106 31c-66 0 -101 -40 -101 -86c0 -54 41 -75 112 -99c88 -30 131 -68 131 -140 c0 -78 -64 -138 -173 -138c-51 0 -98 14 -134 35zM263 692h74l-127 -140h-38z"></glyph><glyph glyph-name="scedilla" unicode="ş" d="M50 23l18 42c29 -18 72 -36 120 -36c84 0 121 44 121 93c0 56 -38 83 -113 107c-87 28 -130 73 -130 130c0 68 54 133 158 133c47 0 88 -13 116 -32l-19 -40c-16 11 -51 31 -106 31c-66 0 -101 -40 -101 -86c0 -54 41 -75 112 -99c88 -30 131 -68 131 -140 c0 -66 -47 -120 -128 -134l-32 -46c37 -5 70 -29 70 -66c0 -56 -43 -78 -99 -78c-18 0 -45 6 -60 15l11 35c16 -9 37 -13 56 -13c26 0 51 9 50 36c-1 30 -36 40 -81 44l45 69h-5c-51 0 -98 14 -134 35z"></glyph><glyph glyph-name="scircumflex" unicode="ŝ" d="M50 23l18 42c29 -18 72 -36 120 -36c84 0 121 44 121 93c0 56 -38 83 -113 107c-87 28 -130 73 -130 130c0 68 54 133 158 133c47 0 88 -13 116 -32l-19 -40c-16 11 -51 31 -106 31c-66 0 -101 -40 -101 -86c0 -54 41 -75 112 -99c88 -30 131 -68 131 -140 c0 -78 -64 -138 -173 -138c-51 0 -98 14 -134 35zM185 692h38l100 -140h-51l-67 102h-2l-67 -102h-47z"></glyph><glyph glyph-name="scommaaccent" unicode="ș" d="M50 23l18 42c29 -18 72 -36 120 -36c84 0 121 44 121 93c0 56 -38 83 -113 107c-87 28 -130 73 -130 130c0 68 54 133 158 133c47 0 88 -13 116 -32l-19 -40c-16 11 -51 31 -106 31c-66 0 -101 -40 -101 -86c0 -54 41 -75 112 -99c88 -30 131 -68 131 -140 c0 -78 -64 -138 -173 -138c-51 0 -98 14 -134 35zM144 -210l-13 27c45 5 85 23 85 68c0 23 -17 47 -38 61l40 12c21 -12 42 -39 42 -71c0 -70 -70 -95 -116 -97z"></glyph><glyph glyph-name="tcaron" unicode="ť" d="M108 571l49 15v-106h152v-39h-152v-307c0 -59 18 -104 77 -104c29 0 49 4 63 9l6 -38c-17 -7 -42 -13 -74 -13c-38 0 -69 12 -89 36c-24 27 -32 71 -32 116v301h-88v39h88v91zM251 547l-18 25c18 12 45 33 45 78c0 23 -17 47 -38 61l43 12c18 -10 39 -37 39 -71 c0 -70 -57 -98 -71 -105z"></glyph><glyph glyph-name="tcedilla" unicode="ţ" d="M108 571l49 15v-106h152v-39h-152v-307c0 -59 18 -104 77 -104c29 0 49 4 63 9l6 -38c-17 -7 -42 -13 -74 -13c-38 0 -69 12 -89 36c-24 27 -32 71 -32 116v301h-88v39h88v91zM133 -220l-13 27c45 5 85 23 85 68c0 23 -17 47 -38 61l40 12c21 -12 42 -39 42 -71 c0 -70 -70 -95 -116 -97z"></glyph><glyph glyph-name="ubreve" unicode="ŭ" d="M498 480v-364c0 -39 1 -77 4 -116h-46l-3 97h-2c-29 -53 -90 -109 -187 -109c-55 0 -181 19 -181 223v269h49v-259c0 -112 39 -190 145 -190c73 0 134 46 160 102c6 15 12 35 12 56v291h49zM172 681h38c8 -42 38 -77 83 -77c56 0 79 44 83 77h38 c-1 -72 -53 -117 -121 -117c-91 0 -120 67 -121 117z"></glyph><glyph glyph-name="udoubleacute" unicode="ű" d="M498 480v-364c0 -39 1 -77 4 -116h-46l-3 97h-2c-29 -53 -90 -109 -187 -109c-55 0 -181 19 -181 223v269h49v-259c0 -112 39 -190 145 -190c73 0 134 46 160 102c6 15 12 35 12 56v291h49zM288 691h69l-122 -127h-38zM418 691h69l-122 -127h-38z"></glyph><glyph glyph-name="umacron" unicode="ū" d="M498 480v-364c0 -39 1 -77 4 -116h-46l-3 97h-2c-29 -53 -90 -109 -187 -109c-55 0 -181 19 -181 223v269h49v-259c0 -112 39 -190 145 -190c73 0 134 46 160 102c6 15 12 35 12 56v291h49zM185 633h217v-41h-217v41z"></glyph><glyph glyph-name="uogonek" unicode="ų" d="M498 480v-364c0 -39 1 -77 4 -116l-3 6c-19 -24 -55 -73 -55 -116c0 -33 20 -49 51 -49c19 0 34 4 47 10l9 -30c-16 -12 -48 -18 -70 -18c-48 0 -82 27 -82 75c0 50 33 94 57 128l-3 91h-2c-29 -53 -90 -109 -187 -109c-55 0 -181 19 -181 223v269h49v-259 c0 -112 39 -190 145 -190c73 0 135 46 160 102c7 15 12 35 12 56v291h49z"></glyph><glyph glyph-name="uring" unicode="ů" d="M498 480v-364c0 -39 1 -77 4 -116h-46l-3 97h-2c-29 -53 -90 -109 -187 -109c-55 0 -181 19 -181 223v269h49v-259c0 -112 39 -190 145 -190c73 0 134 46 160 102c6 15 12 35 12 56v291h49zM294 538c-54 0 -95 40 -95 90c0 51 40 92 96 92c52 0 92 -40 92 -92 c0 -51 -44 -90 -93 -90zM293 568c33 0 56 28 56 61c0 35 -23 61 -57 61c-32 0 -53 -28 -53 -62c0 -30 23 -60 54 -60z"></glyph><glyph glyph-name="utilde" unicode="ũ" d="M209 692c-15 0 -29 -5 -42 -15c-13 -11 -24 -22 -31 -34v19c18 38 45 57 80 57c18 0 42 -8 73 -25c30 -17 52 -25 66 -25c29 0 53 16 74 49v-19c-19 -37 -45 -56 -80 -56c-18 0 -42 8 -72 25c-31 16 -53 24 -68 24zM454 535h41v-535h-41v96c-53 -71 -125 -106 -214 -106 c-28 0 -53 4 -76 12c-23 7 -43 23 -60 46s-26 54 -26 91v396h41v-395c0 -40 12 -71 36 -93c23 -22 57 -33 100 -33c75 0 142 36 199 107v414z"></glyph><glyph glyph-name="wacute" unicode="ẃ" d="M24 480h51l88 -280c18 -58 32 -104 44 -148h2c13 42 31 90 53 148l107 280h49l102 -279c22 -60 38 -108 51 -149h2c11 42 27 90 47 148l96 280h50l-174 -480h-44l-98 265c-23 61 -43 117 -57 171h-2c-16 -56 -37 -113 -60 -172l-105 -264h-44zM451 692h74l-127 -140h-38z "></glyph><glyph glyph-name="wcircumflex" unicode="ŵ" d="M24 480h51l88 -280c18 -58 32 -104 44 -148h2c13 42 31 90 53 148l107 280h49l102 -279c22 -60 38 -108 51 -149h2c11 42 27 90 47 148l96 280h50l-174 -480h-44l-98 265c-23 61 -43 117 -57 171h-2c-16 -56 -37 -113 -60 -172l-105 -264h-44zM371 692h38l100 -140h-51 l-67 102h-2l-67 -102h-47z"></glyph><glyph glyph-name="wdieresis" unicode="ẅ" d="M24 480h51l88 -280c18 -58 32 -104 44 -148h2c13 42 31 90 53 148l107 280h49l102 -279c22 -60 38 -108 51 -149h2c11 42 27 90 47 148l96 280h50l-174 -480h-44l-98 265c-23 61 -43 117 -57 171h-2c-16 -56 -37 -113 -60 -172l-105 -264h-44zM301 581 c-23 0 -37 20 -37 41s17 41 39 41s38 -19 38 -41c0 -21 -14 -41 -40 -41zM480 581c-23 0 -37 20 -37 41s17 41 39 41s38 -19 38 -41c0 -21 -14 -41 -40 -41z"></glyph><glyph glyph-name="wgrave" unicode="ẁ" d="M24 480h51l88 -280c18 -58 32 -104 44 -148h2c13 42 31 90 53 148l107 280h49l102 -279c22 -60 38 -108 51 -149h2c11 42 27 90 47 148l96 280h50l-174 -480h-44l-98 265c-23 61 -43 117 -57 171h-2c-16 -56 -37 -113 -60 -172l-105 -264h-44zM271 692h74l91 -140h-38z "></glyph><glyph glyph-name="ycircumflex" unicode="ŷ" d="M9 480h53l143 -321c14 -31 30 -71 39 -101h2c11 30 24 66 40 105l134 317h53l-170 -388c-66 -152 -109 -227 -173 -273c-41 -30 -78 -41 -88 -43l-13 41c24 7 58 21 88 47c25 21 62 61 92 129c4 9 6 15 6 19s-2 11 -7 22zM219 692h38l100 -140h-51l-67 102h-2l-67 -102 h-47z"></glyph><glyph glyph-name="ygrave" unicode="ỳ" d="M157 -241l91 226l-225 550h44l201 -498l198 498h27l-308 -776h-28zM280 605l-137 156h54l116 -156h-33z"></glyph><glyph glyph-name="ymacron" unicode="ȳ" d="M9 480h53l143 -321c14 -31 30 -71 39 -101h2c11 30 24 66 40 105l134 317h53l-170 -388c-66 -152 -109 -227 -173 -273c-41 -30 -78 -41 -88 -43l-13 41c24 7 58 21 88 47c25 21 62 61 92 129c4 9 6 15 6 19s-2 11 -7 22zM132 633h217v-41h-217v41z"></glyph><glyph glyph-name="zacute" unicode="ź" d="M16 0v30l287 338c20 24 40 46 62 70v2h-328v40h388l-1 -34l-287 -338c-19 -23 -37 -44 -57 -66v-2h348v-40h-412zM279 692h74l-127 -140h-38z"></glyph><glyph glyph-name="zdotaccent" unicode="ż" d="M16 0v30l287 338c20 24 40 46 62 70v2h-328v40h388l-1 -34l-287 -338c-19 -23 -37 -44 -57 -66v-2h348v-40h-412zM219 581c-22 0 -38 20 -38 42c0 21 18 42 40 42s39 -20 39 -42s-15 -42 -41 -42z"></glyph><glyph glyph-name="aeacute" unicode="ǽ" d="M787 249h-372c-8 -135 75 -219 186 -219c82 0 126 20 145 30l14 -39c-28 -13 -84 -33 -161 -33c-94 0 -175 46 -203 127h-2c-30 -83 -110 -127 -200 -127c-110 0 -151 72 -151 127c0 105 100 178 325 173v20c0 17 -10 143 -138 143c-48 0 -106 -16 -137 -40l-16 35 c58 38 121 46 153 46c108 0 154 -55 170 -124h2c33 76 100 124 190 124c168 0 198 -166 198 -213c0 -13 0 -23 -3 -30zM368 174v75c-119 4 -275 -12 -275 -129c0 -55 47 -92 106 -92c93 -1 145 52 163 106c4 13 6 27 6 40zM415 288h324c3 41 -28 164 -151 164 c-116 0 -169 -101 -173 -164zM476 692h74l-127 -140h-38z"></glyph><glyph glyph-name="space_commaaccentcomb" unicode="" d="M96 -210l-13 27c45 5 85 23 85 68c0 23 -17 47 -38 61l40 12c21 -12 42 -39 42 -71c0 -70 -70 -95 -116 -97z"></glyph><glyph glyph-name="acute.cap" unicode="" d="M223 825h76l-132 -115h-40z"></glyph><glyph glyph-name="brevemod.cap" unicode="" d="M31 830h36c6 -22 24 -53 84 -53c59 0 78 28 82 53h36c-2 -50 -33 -97 -121 -97c-84 0 -115 47 -117 97z"></glyph><glyph glyph-name="caronmod.cap" unicode="" d="M170 710h-36l-113 115h54l77 -78h2l75 78h50z"></glyph><glyph glyph-name="cedilla.cap" unicode="" d="M142 0h39l-38 -54c39 -6 70 -33 70 -70c0 -51 -44 -74 -97 -74c-23 0 -49 7 -63 15l11 35c15 -7 32 -13 57 -13c27 0 48 12 48 35c0 29 -35 40 -80 45z"></glyph><glyph glyph-name="circumflexmod.cap" unicode="" d="M130 825h36l113 -115h-54l-76 79h-2l-76 -79h-50z"></glyph><glyph glyph-name="space_commaaccentcomb.cap" unicode="" d="M96 -210l-13 27c45 5 85 23 85 68c0 23 -17 47 -38 61l40 12c21 -12 42 -39 42 -71c0 -70 -70 -95 -116 -97z"></glyph><glyph glyph-name="dieresis.cap" unicode="" d="M59 724c-23 0 -37 20 -37 41s17 41 39 41s38 -19 38 -41c0 -21 -14 -41 -40 -41zM239 724c-23 0 -37 20 -37 41s17 41 39 41s38 -19 38 -41c0 -21 -14 -41 -40 -41z"></glyph><glyph glyph-name="dotaccentmod.cap" unicode="" d="M149 724c-21 0 -37 21 -37 41c0 19 17 41 39 41s38 -22 38 -41c0 -20 -16 -41 -40 -41z"></glyph><glyph glyph-name="grave.cap" unicode="" d="M1 825h76l96 -115h-40z"></glyph><glyph glyph-name="doubleacutemod.cap" unicode="" d="M158 825h69l-122 -115h-38zM288 825h69l-122 -115h-38z"></glyph><glyph glyph-name="macron.cap" unicode="" d="M32 772h237v-40h-237v40z"></glyph><glyph glyph-name="ogonekmod.cap" unicode="" d="M151 5h43c-19 -19 -75 -72 -75 -118c0 -31 20 -48 51 -48c17 0 34 4 47 10l9 -29c-16 -12 -48 -18 -68 -18c-50 0 -84 27 -84 75c0 50 43 95 77 128z"></glyph><glyph glyph-name="ringmod.cap" unicode="" d="M202 868c53 0 90 -38 90 -86c0 -47 -40 -83 -91 -83c-54 0 -92 37 -92 83c0 47 37 86 93 86zM199 841c-30 0 -49 -27 -49 -59c0 -28 21 -55 50 -55c30 0 51 25 51 57s-21 57 -52 57z"></glyph><glyph glyph-name="tildemod.cap" unicode="" d="M64 715h-34c-1 47 23 88 65 88c20 0 35 -8 61 -22c16 -8 35 -17 53 -17c14 0 25 5 27 38h34c0 -49 -19 -82 -61 -82c-18 0 -35 6 -63 20c-22 11 -38 20 -54 20c-18 0 -25 -20 -28 -45z"></glyph><glyph glyph-name="Alpha-grek" unicode="Α" d="M474 237h-300l-93 -237h-51l272 674h48l270 -674h-51zM191 278h267l-95 237c-18 45 -27 74 -37 107h-2c-10 -34 -21 -64 -37 -104z"></glyph><glyph glyph-name="Beta-grek" unicode="Β" d="M88 0v665c41 9 95 15 151 15c92 0 150 -19 190 -59c28 -28 42 -64 42 -111c0 -67 -51 -127 -119 -150v-3c49 -10 147 -55 147 -169c0 -55 -20 -96 -51 -127c-47 -47 -124 -67 -233 -67c-52 0 -97 4 -127 6zM137 631v-255h118c106 0 166 59 166 132 c0 103 -85 131 -185 131c-53 0 -82 -4 -99 -8zM137 336v-295c23 -5 55 -6 95 -6c106 0 216 31 216 151c0 106 -96 150 -210 150h-101z"></glyph><glyph glyph-name="Gamma-grek" unicode="Γ" d="M88 674h366v-41h-317v-633h-49v674z"></glyph><glyph glyph-name="Delta-grek" unicode="Δ" d="M31 0v34l275 640h48l273 -640v-34h-596zM81 41h495l-183 428c-21 49 -48 113 -63 154h-2c-11 -29 -34 -84 -55 -132z"></glyph><glyph glyph-name="Epsilon-grek" unicode="Ε" d="M437 376v-41h-300v-294h334v-41h-383v674h366v-41h-317v-257h300z"></glyph><glyph glyph-name="Zeta-grek" unicode="Ζ" d="M37 0v33l461 597v3h-423v41h488v-34l-462 -596v-3h469v-41h-533z"></glyph><glyph glyph-name="Eta-grek" unicode="Η" d="M88 674h49v-295h422v295h49v-674h-49v338h-422v-338h-49v674z"></glyph><glyph glyph-name="Theta-grek" unicode="Θ" d="M373 -12c-192 0 -335 143 -335 340c0 212 150 358 342 358c198 0 335 -146 335 -340c0 -233 -166 -358 -342 -358zM375 28c178 0 289 135 289 314c0 146 -95 304 -286 304c-192 0 -289 -150 -289 -316c0 -159 109 -302 286 -302zM199 370h355v-41h-355v41z"></glyph><glyph glyph-name="Iota-grek" unicode="Ι" d="M88 674h49v-674h-49v674z"></glyph><glyph glyph-name="Kappa-grek" unicode="Κ" d="M88 0v674h49v-345h4c20 26 42 48 61 68l269 277h62l-284 -287l314 -387h-61l-287 356l-78 -78v-278h-49z"></glyph><glyph glyph-name="Lamda-grek" unicode="Λ" d="M620 0h-51l-206 515c-18 45 -27 74 -37 107h-2c-10 -34 -21 -64 -37 -104l-206 -518h-51l272 674h48z"></glyph><glyph glyph-name="Mu-grek" unicode="Μ" d="M732 0l-21 318c-7 100 -16 230 -16 302h-2c-27 -72 -58 -150 -101 -252l-156 -368h-37l-146 363c-42 105 -73 185 -95 257h-2c-3 -78 -8 -201 -17 -312l-24 -308h-48l54 674h56l162 -402c34 -84 60 -154 80 -215h2c18 57 45 125 83 214l170 403h58l48 -674h-48z"></glyph><glyph glyph-name="Nu-grek" unicode="Ν" d="M136 0h-48v674h46l305 -415c62 -84 102 -137 137 -197l2 2c-7 78 -8 158 -8 262v348h48v-674h-45l-295 401c-57 78 -109 149 -145 209l-3 -2c5 -76 6 -148 6 -248v-360z"></glyph><glyph glyph-name="Xi-grek" unicode="Ξ" d="M59 674h479v-41h-479v41zM99 370h399v-41h-399v41zM50 41h497v-41h-497v41z"></glyph><glyph glyph-name="Omicron-grek" unicode="Ο" d="M373 -12c-192 0 -335 143 -335 340c0 212 150 358 342 358c198 0 335 -146 335 -340c0 -233 -166 -358 -342 -358zM375 28c178 0 289 135 289 314c0 146 -95 304 -286 304c-192 0 -289 -150 -289 -316c0 -159 109 -302 286 -302z"></glyph><glyph glyph-name="Pi-grek" unicode="Π" d="M591 674v-674h-49v633h-405v-633h-49v674h503z"></glyph><glyph glyph-name="Rho-grek" unicode="Ρ" d="M88 0v667c43 7 98 13 160 13c90 0 155 -22 195 -60c34 -32 54 -76 54 -131c0 -59 -18 -105 -52 -139c-46 -48 -123 -73 -212 -73c-35 0 -68 1 -96 10v-287h-49zM137 630v-300c28 -9 64 -12 102 -12c134 0 209 61 209 165c0 116 -92 156 -201 156c-51 0 -90 -5 -110 -9z "></glyph><glyph glyph-name="Sigma-grek" unicode="Σ" d="M93 44v-3h465v-41h-533v31l278 305l-264 304v34h481v-41h-415v-3l255 -293z"></glyph><glyph glyph-name="Tau-grek" unicode="Τ" d="M231 0v633h-251v41h551v-41h-251v-633h-49z"></glyph><glyph glyph-name="Upsilon-grek" unicode="Υ" d="M12 642l11 38c52 -6 128 -53 173 -109c52 -63 97 -148 113 -254h2c21 113 83 204 135 260c47 49 110 91 161 103l10 -36c-63 -25 -202 -111 -264 -313c-11 -36 -22 -86 -22 -145v-186h-49v188c0 52 -8 105 -19 145c-55 203 -180 294 -251 309z"></glyph><glyph glyph-name="Phi-grek" unicode="Φ" d="M399 21v-51h-49v51c-154 8 -312 109 -312 311c0 213 172 318 314 323v49h49v-49c153 -7 312 -110 312 -320c0 -200 -156 -308 -314 -314zM351 58v560c-115 -3 -261 -100 -261 -281c0 -171 124 -269 261 -279zM400 618v-560c130 6 261 107 261 277 c0 179 -128 274 -261 283z"></glyph><glyph glyph-name="Chi-grek" unicode="Χ" d="M568 0h-58l-112 159c-51 72 -79 112 -103 148h-2c-23 -37 -47 -73 -98 -149l-105 -158h-58l236 341l-226 333h58l120 -182c33 -50 57 -86 78 -118h2c22 34 46 67 81 117l128 183h59l-242 -330z"></glyph><glyph glyph-name="Psi-grek" unicode="Ψ" d="M657 674v-194c0 -163 -114 -259 -279 -263v-217h-49v217c-129 0 -279 55 -279 236v221h49v-210c0 -145 98 -201 230 -206v416h49v-416c113 4 230 63 230 222v194h49z"></glyph><glyph glyph-name="Omega-grek" unicode="Ω" d="M565 44v-3h172v-41h-250v34c91 50 182 162 182 317c0 133 -96 295 -284 295c-186 0 -291 -148 -291 -299c0 -148 91 -263 182 -313v-34h-250v41h171v3c-81 58 -154 164 -154 301c0 199 151 341 342 341c202 0 335 -149 335 -332c0 -144 -72 -249 -155 -310z"></glyph><glyph glyph-name="Alphatonos-grek" unicode="Ά" d="M474 237h-300l-93 -237h-51l272 674h48l270 -674h-51zM191 278h267l-95 237c-18 45 -27 74 -37 107h-2c-10 -34 -21 -64 -37 -104zM112 674h56l-36 -145h-32z"></glyph><glyph glyph-name="Epsilontonos-grek" unicode="Έ" d="M487 376v-41h-300v-294h334v-41h-383v674h366v-41h-317v-257h300zM12 674h56l-36 -145h-32z"></glyph><glyph glyph-name="Etatonos-grek" unicode="Ή" d="M138 674h49v-295h422v295h49v-674h-49v338h-422v-338h-49v674zM12 674h56l-36 -145h-32z"></glyph><glyph glyph-name="Iotatonos-grek" unicode="Ί" d="M138 674h49v-674h-49v674zM12 674h56l-36 -145h-32z"></glyph><glyph glyph-name="Iotadialytika-grek" unicode="Ϊ" d="M20 710c-23 0 -37 20 -37 41s17 41 39 41s38 -19 38 -41c0 -21 -14 -41 -40 -41zM200 710c-23 0 -37 20 -37 41s17 41 39 41s38 -19 38 -41c0 -21 -14 -41 -40 -41zM88 674h49v-674h-49v674z"></glyph><glyph glyph-name="Omicrontonos-grek" unicode="Ό" d="M391 -12c-192 0 -335 143 -335 340c0 212 150 358 342 358c198 0 335 -146 335 -340c0 -233 -166 -358 -342 -358zM393 28c178 0 289 135 289 314c0 146 -95 304 -286 304c-192 0 -289 -150 -289 -316c0 -159 109 -302 286 -302zM12 674h56l-36 -145h-32z"></glyph><glyph glyph-name="Upsilontonos-grek" unicode="Ύ" d="M119 642l11 38c52 -6 128 -53 173 -109c52 -63 97 -148 113 -254h2c21 113 83 204 135 260c47 49 110 91 161 103l10 -36c-63 -25 -202 -111 -264 -313c-11 -36 -22 -86 -22 -145v-186h-49v188c0 52 -8 105 -19 145c-55 203 -180 294 -251 309zM12 674h56l-36 -145h-32z "></glyph><glyph glyph-name="Upsilondialytika-grek" unicode="Ϋ" d="M222 695c-23 0 -37 20 -37 41s17 41 39 41s38 -19 38 -41c0 -21 -14 -41 -40 -41zM402 695c-23 0 -37 20 -37 41s17 41 39 41s38 -19 38 -41c0 -21 -14 -41 -40 -41zM12 642l11 38c52 -6 128 -53 173 -109c52 -63 97 -148 113 -254h2c21 113 83 204 135 260 c47 49 110 91 161 103l10 -36c-63 -25 -202 -111 -264 -313c-11 -36 -22 -86 -22 -145v-186h-49v188c0 52 -8 105 -19 145c-55 203 -180 294 -251 309z"></glyph><glyph glyph-name="Omegatonos-grek" unicode="Ώ" d="M581 44v-3h171v-41h-250v34c92 48 182 160 182 315c0 133 -96 297 -284 297c-186 0 -291 -150 -291 -301c0 -148 90 -263 182 -311v-34h-250v41h171v3c-83 58 -154 162 -154 299c0 199 151 343 342 343c202 0 335 -151 335 -334c0 -146 -69 -250 -154 -308zM12 674h56 l-36 -145h-32z"></glyph><glyph glyph-name="alpha-grek" unicode="α" d="M618 30l9 -19c-21 -14 -45 -21 -72 -21c-57 0 -92 56 -104 169c-16 -45 -33 -79 -50 -102c-33 -45 -77 -67 -131 -67c-18 0 -36 2 -54 7c-19 5 -39 13 -60 26s-40 29 -56 49c-17 19 -30 46 -41 80c-11 33 -16 71 -16 114c0 89 21 158 64 207c43 48 97 72 164 72 c65 0 112 -29 141 -86c21 -39 37 -94 47 -164c4 25 14 105 30 240h39c-17 -127 -36 -231 -58 -313c7 -57 15 -99 22 -125c11 -48 34 -74 70 -77c19 -2 37 1 56 10zM269 15c48 0 86 17 113 52s48 85 63 152c-5 48 -10 88 -17 121c-7 32 -16 63 -29 92s-30 51 -51 66 c-22 15 -49 22 -80 22c-55 0 -100 -22 -133 -67s-50 -108 -50 -189c0 -80 17 -141 50 -184s77 -65 134 -65z"></glyph><glyph glyph-name="beta-grek" unicode="β" d="M341 442c22 -4 43 -11 64 -21c21 -11 41 -25 60 -42s34 -40 46 -67c11 -28 17 -59 17 -93c0 -63 -19 -116 -58 -161s-95 -68 -168 -68c-51 0 -112 15 -184 44v-275h-40v835c0 55 15 99 46 130s76 46 137 46c67 0 119 -17 156 -51c37 -35 55 -75 55 -120 c0 -37 -13 -70 -40 -99s-57 -49 -91 -58zM297 17c35 0 66 7 93 21c26 14 46 32 59 55c13 22 22 44 28 66c6 21 9 43 9 65c0 60 -21 108 -63 144c-42 35 -94 56 -157 62v22c43 -3 81 10 114 40c33 29 50 65 50 108c0 39 -14 73 -43 102s-70 43 -125 43 c-96 0 -144 -50 -144 -150v-537c16 -7 42 -16 77 -26s69 -15 102 -15z"></glyph><glyph glyph-name="gamma-grek" unicode="γ" d="M262 -200h-51c2 76 8 178 -16 272c-41 164 -146 346 -196 408h59c54 -69 149 -249 186 -407h3c54 77 158 244 158 382v25h47c2 -8 2 -19 2 -30c0 -127 -92 -289 -190 -425c-6 -7 -5 -13 -5 -23c3 -67 3 -135 3 -202z"></glyph><glyph glyph-name="delta-grek" unicode="δ" d="M489 679l-18 -37c-24 18 -86 46 -148 46c-77 0 -114 -29 -114 -60c0 -36 36 -56 94 -96l88 -60c97 -65 150 -133 150 -237c0 -150 -113 -247 -246 -247c-129 0 -252 85 -252 250c0 123 91 213 216 268v5l-29 19c-27 19 -68 49 -68 94c0 50 52 104 165 104 c68 0 133 -25 162 -49zM364 437l-69 47c-99 -44 -203 -118 -203 -248c0 -138 107 -208 205 -208c101 0 195 73 195 207c0 77 -40 142 -128 202z"></glyph><glyph glyph-name="epsilon-grek" unicode="ε" d="M181 256v4c-77 12 -110 57 -110 103c0 62 65 129 197 129c64 0 119 -14 156 -41l-15 -36c-19 15 -87 38 -144 38c-83 0 -145 -32 -145 -90s74 -85 159 -85h83v-40h-86c-106 0 -182 -33 -182 -102s76 -108 166 -108c66 0 139 26 171 48l14 -36c-29 -24 -107 -52 -190 -52 c-98 0 -210 37 -210 146c0 55 48 111 136 122z"></glyph><glyph glyph-name="zeta-grek" unicode="ζ" d="M361 -142l-35 10c11 17 34 90 35 120c-43 5 -94 14 -134 25c-109 30 -183 100 -183 231c0 141 102 318 294 429v3h-96c-48 0 -92 0 -131 9l5 36c35 -5 80 -5 120 -5h175l7 -40c-201 -101 -326 -278 -326 -425c0 -129 69 -175 165 -202c54 -15 97 -19 147 -24 c5 -1 9 -5 9 -9c0 -58 -35 -134 -52 -158z"></glyph><glyph glyph-name="eta-grek" unicode="η" d="M134 384h2c29 59 97 108 185 108c44 0 187 -20 187 -219v-273c0 -54 1 -156 13 -200h-48c-12 37 -14 135 -14 200v273c0 94 -41 177 -151 177c-77 0 -141 -53 -163 -114c-4 -11 -8 -28 -8 -43v-293h-49v364c0 39 -2 84 -13 116h46c10 -21 14 -58 13 -96z"></glyph><glyph glyph-name="theta-grek" unicode="θ" d="M287 -12c-153 0 -244 140 -244 375c0 185 81 365 244 365c169 0 236 -164 236 -365c0 -199 -67 -375 -236 -375zM92 392h382c0 160 -60 296 -193 296c-117 0 -189 -147 -189 -296zM474 353h-382c0 -213 88 -325 196 -325c122 0 186 136 186 325z"></glyph><glyph glyph-name="iota-grek" unicode="ι" d="M137 480v-378c0 -52 7 -75 53 -73l-4 -38c-7 -2 -16 -3 -26 -3c-37 0 -72 19 -72 107v385h49z"></glyph><glyph glyph-name="kappa-grek" unicode="κ" d="M205 259v-3c51 -9 122 -75 186 -143l105 -113h-60l-98 103c-70 72 -131 120 -191 120h-10v-223h-49v394c0 25 -2 68 -10 86h47c8 -11 12 -44 12 -76v-145h6c121 92 203 161 282 221h63v-3c-82 -60 -179 -140 -283 -218z"></glyph><glyph glyph-name="lamda-grek" unicode="λ" d="M414 0l-133 318c-15 36 -28 69 -39 101h-4c-8 -26 -26 -66 -39 -97l-137 -322h-52l196 446c5 11 7 18 7 22s0 10 -7 25c-40 94 -75 194 -155 194c-5 0 -10 0 -15 -1l5 39c8 2 17 3 25 3c90 0 130 -92 194 -242l207 -486h-53z"></glyph><glyph glyph-name="mu-grek" unicode="μ" d="M454 535h41v-535h-41v96c-53 -71 -125 -106 -214 -106c-53 0 -94 14 -122 41v-272h-40v776h41v-395c0 -40 12 -71 36 -93c23 -22 57 -33 100 -33c75 0 142 36 199 107v414z"></glyph><glyph glyph-name="nu-grek" unicode="ν" d="M6 480h52l124 -296c23 -52 39 -94 57 -136h3c45 71 172 256 172 379c0 21 0 38 -1 53h46c2 -10 4 -24 4 -36c0 -144 -109 -299 -206 -444h-46z"></glyph><glyph glyph-name="xi-grek" unicode="ξ" d="M368 442v-40h-29c-177 0 -246 -87 -246 -177c0 -96 68 -147 184 -176c60 -15 118 -21 152 -24c5 0 9 -5 9 -10c0 -50 -32 -133 -51 -157l-35 10c11 17 35 91 36 120c-149 17 -344 54 -344 237c0 99 82 175 169 195v4c-84 21 -123 71 -123 140c0 72 64 164 211 164 c53 0 101 -12 126 -30l-15 -38c-19 13 -64 29 -118 29c-101 0 -155 -59 -155 -125c0 -78 73 -122 158 -122h71z"></glyph><glyph glyph-name="omicron-grek" unicode="ο" d="M290 -12c-143 0 -247 105 -247 247c0 160 120 257 254 257c154 0 251 -109 251 -246c0 -180 -140 -258 -258 -258zM293 28c106 0 206 77 206 215c0 91 -61 209 -202 209c-136 0 -205 -102 -205 -214c0 -134 97 -210 201 -210z"></glyph><glyph glyph-name="rho-grek" unicode="ρ" d="M133 84h-3v-84c0 -54 1 -156 9 -200h-46c-10 37 -12 111 -12 200v189c0 118 26 172 61 215c34 43 99 88 190 88c145 0 231 -108 231 -238c0 -168 -111 -266 -242 -266c-75 0 -149 31 -188 96zM130 215v-22c0 -13 2 -26 5 -38c20 -68 92 -127 182 -127 c120 0 197 89 197 221c0 109 -70 203 -190 203c-89 0 -194 -67 -194 -237z"></glyph><glyph glyph-name="sigma-grek" unicode="σ" d="M417 454v-3c71 -36 121 -109 121 -202c0 -180 -140 -261 -249 -261c-142 0 -246 105 -246 247c0 160 113 257 265 257h112h48c33 0 94 -1 109 1l-1 -41c-24 0 -58 -1 -159 2zM291 28c98 0 198 80 198 218c0 91 -63 206 -199 206c-129 0 -198 -102 -198 -214 c0 -134 97 -210 199 -210z"></glyph><glyph glyph-name="tau-grek" unicode="τ" d="M321 32l-3 -36c-7 -5 -26 -8 -38 -8c-57 0 -97 33 -97 140v312h-64c-63 0 -93 -4 -118 -7l-6 27c15 9 52 20 120 20h304l-9 -40h-178v-313c0 -80 31 -97 66 -97c9 0 16 1 23 2z"></glyph><glyph glyph-name="upsilon-grek" unicode="υ" d="M419 480h48c15 -27 36 -110 36 -185c0 -132 -41 -307 -225 -307c-107 0 -195 64 -195 204v128c0 99 -3 138 -10 160h45c7 -7 14 -31 14 -84v-191c0 -131 82 -174 150 -174c106 0 172 89 172 257c0 94 -25 175 -35 192z"></glyph><glyph glyph-name="phi-grek" unicode="φ" d="M220 499l17 -30c-61 -31 -145 -100 -145 -223c0 -108 66 -200 211 -218v328c0 94 47 136 108 136c90 0 199 -91 199 -237c0 -167 -123 -255 -258 -267v-188h-49v188c-131 7 -260 86 -260 257c0 145 109 227 177 254zM352 360v-332c125 15 209 93 209 228 c0 102 -73 196 -151 196c-34 0 -58 -31 -58 -92z"></glyph><glyph glyph-name="chi-grek" unicode="χ" d="M29 480h54l158 -288h4c18 34 40 74 69 126l90 162h51l-189 -323l200 -349l-45 -16l-182 324h-3c-16 -29 -35 -64 -55 -102l-118 -222l-42 17l192 345z"></glyph><glyph glyph-name="psi-grek" unicode="ψ" d="M323 -200v188c-140 7 -240 71 -240 248v141c0 40 -3 85 -10 103h46c7 -8 13 -31 13 -84v-160c0 -149 94 -205 191 -209v589h49v-589c101 4 195 83 195 257c0 100 -28 179 -44 196h51c22 -27 42 -101 42 -192c0 -129 -62 -293 -244 -300v-188h-49z"></glyph><glyph glyph-name="omega-grek" unicode="ω" d="M392 368l-2 -199c-1 -87 54 -140 117 -140c62 0 136 73 136 228c0 100 -40 193 -92 233v2h52c50 -38 89 -122 89 -235c0 -192 -104 -269 -185 -269c-68 0 -119 36 -140 97h-3c-25 -63 -76 -97 -140 -97c-79 0 -181 68 -181 264c0 100 42 197 91 240h49v-2 c-51 -46 -91 -137 -91 -243c0 -163 83 -218 140 -218c58 0 114 57 113 138l-2 201h49z"></glyph><glyph glyph-name="finalsigma-grek" unicode="ς" d="M427 469l-15 -39c-29 14 -57 22 -106 22c-129 0 -214 -96 -214 -209c0 -116 68 -170 178 -197c58 -14 90 -17 136 -21c8 -1 11 -4 11 -16c0 -51 -32 -127 -47 -151l-38 10c11 17 34 92 36 119c-45 5 -92 13 -127 21c-111 26 -198 99 -198 230c0 120 94 254 268 254 c45 0 90 -8 116 -23z"></glyph><glyph glyph-name="alphatonos-grek" unicode="ά" d="M313 682h66l-96 -140h-36zM470 480h41c-4 -39 -13 -229 -13 -349c0 -69 13 -101 57 -103l-6 -39c-6 -1 -15 -1 -19 -1c-37 0 -74 31 -74 119h-3c-37 -66 -101 -119 -194 -119c-132 0 -216 104 -216 243c0 149 106 261 234 261c93 0 157 -53 182 -120h4c1 51 4 80 7 108z M92 230c0 -103 60 -202 178 -202c81 0 154 73 176 145c7 24 7 43 7 79c0 19 0 37 -5 55c-18 70 -81 145 -171 145c-105 0 -185 -87 -185 -222z"></glyph><glyph glyph-name="epsilontonos-grek" unicode="έ" d="M289 682h66l-96 -140h-36zM181 256v4c-77 12 -110 57 -110 103c0 62 65 129 197 129c64 0 119 -14 156 -42l-15 -35c-19 15 -87 38 -144 38c-83 0 -145 -32 -145 -90s74 -85 159 -85h83v-40h-86c-106 0 -182 -33 -182 -102s76 -108 166 -108c66 0 139 26 171 48l14 -36 c-29 -24 -107 -52 -190 -52c-98 0 -210 37 -210 146c0 55 48 111 136 122z"></glyph><glyph glyph-name="etatonos-grek" unicode="ή" d="M345 682h66l-96 -140h-36zM134 384h2c29 59 97 108 185 108c44 0 187 -20 187 -219v-273c0 -54 1 -156 13 -200h-48c-12 37 -14 135 -14 200v273c0 94 -41 177 -151 177c-77 0 -141 -53 -163 -114c-4 -11 -8 -28 -8 -43v-293h-49v364c0 39 -2 84 -13 116h46 c10 -21 14 -58 13 -96z"></glyph><glyph glyph-name="iotatonos-grek" unicode="ί" d="M148 682h66l-96 -140h-36zM137 480v-378c0 -52 7 -75 53 -73l-4 -38c-7 -2 -16 -3 -26 -3c-37 0 -72 19 -72 107v385h49z"></glyph><glyph glyph-name="iotadialytika-grek" unicode="ϊ" d="M24 564c-23 0 -37 20 -37 41s17 41 39 41s38 -19 38 -41c0 -21 -14 -41 -40 -41zM204 564c-23 0 -37 20 -37 41s17 41 39 41s38 -19 38 -41c0 -21 -14 -41 -40 -41zM137 480v-378c0 -52 7 -75 53 -73l-4 -38c-7 -2 -16 -3 -26 -3c-37 0 -72 19 -72 107v385h49z"></glyph><glyph glyph-name="omicrontonos-grek" unicode="ό" d="M329 682h66l-96 -140h-36zM290 -12c-143 0 -247 105 -247 247c0 160 120 257 254 257c154 0 251 -109 251 -246c0 -180 -140 -258 -258 -258zM293 28c106 0 206 77 206 215c0 91 -61 209 -202 209c-136 0 -205 -102 -205 -214c0 -134 97 -210 201 -210z"></glyph><glyph glyph-name="upsilontonos-grek" unicode="ύ" d="M308 682h66l-96 -140h-36zM419 480h48c15 -27 36 -110 36 -185c0 -132 -41 -307 -225 -307c-107 0 -195 64 -195 204v128c0 99 -3 138 -10 160h45c7 -7 14 -31 14 -84v-191c0 -131 82 -174 150 -174c106 0 172 89 172 257c0 94 -25 175 -35 192z"></glyph><glyph glyph-name="upsilondialytika-grek" unicode="ϋ" d="M185 564c-23 0 -37 20 -37 41s17 41 39 41s38 -19 38 -41c0 -21 -14 -41 -40 -41zM365 564c-23 0 -37 20 -37 41s17 41 39 41s38 -19 38 -41c0 -21 -14 -41 -40 -41zM419 480h48c15 -27 36 -110 36 -185c0 -132 -41 -307 -225 -307c-107 0 -195 64 -195 204v128 c0 99 -3 138 -10 160h45c7 -7 14 -31 14 -84v-191c0 -131 82 -174 150 -174c106 0 172 89 172 257c0 94 -25 175 -35 192z"></glyph><glyph glyph-name="omegatonos-grek" unicode="ώ" d="M395 682h66l-96 -140h-36zM392 368l-2 -199c-1 -87 54 -140 117 -140c62 0 136 73 136 228c0 100 -40 193 -92 233v2h52c50 -38 89 -122 89 -235c0 -192 -104 -269 -185 -269c-68 0 -119 36 -140 97h-3c-25 -63 -76 -97 -140 -97c-79 0 -181 68 -181 264 c0 100 42 197 91 240h49v-2c-51 -46 -91 -137 -91 -243c0 -163 83 -218 140 -218c58 0 114 57 113 138l-2 201h49z"></glyph><glyph glyph-name="iotadialytikatonos-grek" unicode="ΐ" d="M137 480v-378c0 -52 7 -75 53 -73l-4 -38c-7 -2 -16 -3 -26 -3c-37 0 -72 19 -72 107v385h49zM112 686h56l-50 -148h-30zM7 566c-22 0 -35 19 -35 39s16 39 37 39s36 -18 36 -39c0 -20 -13 -39 -38 -39zM231 566c-22 0 -35 19 -35 39s16 39 37 39s36 -18 36 -39 c0 -20 -13 -39 -38 -39z"></glyph><glyph glyph-name="upsilondialytikatonos-grek" unicode="ΰ" d="M419 480h48c15 -27 36 -110 36 -185c0 -132 -41 -307 -225 -307c-107 0 -195 64 -195 204v128c0 99 -3 138 -10 160h45c7 -7 14 -31 14 -84v-191c0 -131 82 -174 150 -174c106 0 172 89 172 257c0 94 -25 175 -35 192zM273 686h56l-50 -148h-30zM168 566 c-22 0 -35 19 -35 39s16 39 37 39s36 -18 36 -39c0 -20 -13 -39 -38 -39zM392 566c-22 0 -35 19 -35 39s16 39 37 39s36 -18 36 -39c0 -20 -13 -39 -38 -39z"></glyph><glyph glyph-name="greekquestionmark" unicode=";" d="M73 -121l-39 -5c14 42 36 150 42 212l64 5c-13 -70 -53 -184 -67 -212zM102 343c-25 0 -43 23 -43 48c0 29 19 50 45 50s44 -21 44 -50c0 -25 -18 -48 -46 -48z"></glyph><glyph glyph-name="greekanoteleia" unicode="·" d="M90 273c-25 0 -44 23 -43 48c0 29 19 50 45 50s44 -21 44 -50c0 -25 -18 -48 -46 -48z"></glyph><glyph glyph-name="tonosmod-grek" unicode="΄" d="M155 692h66l-96 -140h-36z"></glyph><glyph glyph-name="greekdialytikatonosmod" unicode="΅" d="M134 704h56l-50 -148h-30zM30 582c-23 0 -37 20 -37 41s17 41 39 41s38 -19 38 -41c0 -21 -14 -41 -40 -41zM252 582c-23 0 -37 20 -37 41s17 41 39 41s38 -19 38 -41c0 -21 -14 -41 -40 -41z"></glyph><glyph glyph-name="dieresis_acutecomb" unicode="" d="M35 584c-22 0 -36 20 -36 41s17 41 39 41s38 -19 38 -41c0 -24 -16 -41 -41 -41zM250 584c-22 0 -36 20 -36 41s17 41 39 41s38 -19 38 -41c0 -24 -16 -41 -41 -41zM166 702h74l-127 -140h-38z"></glyph><glyph glyph-name="dieresis_gravecomb" unicode="" d="M43 584c-22 0 -36 20 -36 41s17 41 39 41s38 -19 38 -41c0 -24 -16 -41 -41 -41zM247 584c-22 0 -36 20 -36 41s17 41 39 41s38 -19 38 -41c0 -24 -16 -41 -41 -41zM56 702h74l91 -140h-38z"></glyph><glyph glyph-name="space_doublegravecomb" unicode="" d="M29 682h74l91 -140h-38zM165 682h74l91 -140h-38z"></glyph><glyph glyph-name="dieresis_acutecomb.cap" unicode="" d="M33 724c-22 0 -36 20 -36 41s17 41 39 41s38 -19 38 -41c0 -24 -16 -41 -41 -41zM262 724c-22 0 -36 20 -36 41s17 41 39 41s38 -19 38 -41c0 -24 -16 -41 -41 -41zM158 825h76l-120 -115h-40z"></glyph><glyph glyph-name="dieresis_gravecomb.cap" unicode="" d="M33 724c-22 0 -36 20 -36 41s17 41 39 41s38 -19 38 -41c0 -24 -16 -41 -41 -41zM262 724c-22 0 -36 20 -36 41s17 41 39 41s38 -19 38 -41c0 -24 -16 -41 -41 -41zM65 825h76l84 -115h-40z"></glyph><glyph glyph-name="space_doublegravecomb.cap" unicode="" d="M-17 825h76l96 -115h-40zM135 825h76l96 -115h-40z"></glyph><glyph glyph-name="o.superior" d="M176 592c102 0 167 -75 167 -163c-2 -116 -93 -166 -168 -166c-96 0 -167 69 -167 161c0 104 85 168 168 168zM174 556c-83 0 -124 -67 -124 -130c0 -84 67 -127 125 -127c64 0 125 42 125 129c0 54 -37 128 -126 128z"></glyph><glyph glyph-name="Io-cyrl" unicode="Ё" d="M437 376v-41h-300v-294h334v-41h-383v674h366v-41h-317v-257h300zM176 724c-23 0 -37 20 -37 41s17 41 39 41s38 -19 38 -41c0 -21 -14 -41 -40 -41zM356 724c-23 0 -37 20 -37 41s17 41 39 41s38 -19 38 -41c0 -21 -14 -41 -40 -41z"></glyph><glyph glyph-name="Dje-cyrl" unicode="Ђ" d="M-20 674h548v-41h-282v-234h2c41 27 103 55 167 55c81 0 136 -33 175 -86c38 -51 52 -118 52 -183c0 -92 -26 -171 -64 -222c-45 -61 -110 -88 -168 -97l-9 34c45 10 99 34 135 82c36 47 56 115 56 193c0 63 -13 120 -41 161c-32 47 -76 76 -143 76 c-62 0 -119 -24 -162 -57v-355h-49v633h-217v41z"></glyph><glyph glyph-name="Gje-cyrl" unicode="Ѓ" d="M88 674h359v-41h-310v-633h-49v674zM310 825h76l-132 -115h-40z"></glyph><glyph glyph-name="Ieukrainian-cyrl" unicode="Є" d="M594 650l-16 -39c-39 20 -94 34 -156 34c-183 0 -314 -106 -331 -279h422v-40h-422c1 -178 134 -297 318 -297c66 0 121 12 172 35l11 -38c-39 -21 -104 -38 -200 -38c-171 0 -354 107 -354 346c0 212 169 352 381 352c104 0 152 -23 175 -36z"></glyph><glyph glyph-name="Dze-cyrl" unicode="Ѕ" d="M46 38l19 41c44 -30 102 -50 167 -50c109 0 175 58 175 141c0 77 -39 121 -152 157c-135 43 -189 98 -189 186c0 99 85 173 209 173c71 0 124 -17 150 -34l-19 -41c-19 13 -67 35 -133 35c-121 0 -159 -73 -159 -126c0 -72 43 -113 152 -148c123 -40 189 -88 189 -197 c0 -93 -68 -187 -229 -187c-64 0 -139 20 -180 50z"></glyph><glyph glyph-name="Ibyelorussianukrainian-cyrl" unicode="І" d="M88 674h49v-674h-49v674z"></glyph><glyph glyph-name="Yi-cyrl" unicode="Ї" d="M88 674h49v-674h-49v674zM22 724c-23 0 -37 20 -37 41s17 41 39 41s38 -19 38 -41c0 -21 -14 -41 -40 -41zM202 724c-23 0 -37 20 -37 41s17 41 39 41s38 -19 38 -41c0 -21 -14 -41 -40 -41z"></glyph><glyph glyph-name="Je-cyrl" unicode="Ј" d="M249 233v441h49v-454c0 -188 -100 -232 -196 -232c-36 0 -78 10 -96 19l12 40c19 -9 48 -17 84 -17c93 0 147 44 147 203z"></glyph><glyph glyph-name="Lje-cyrl" unicode="Љ" d="M140 674h371v-257c21 3 74 5 95 5c137 0 275 -50 275 -208c0 -63 -21 -109 -53 -143c-55 -57 -145 -77 -237 -77c-53 0 -99 4 -129 6v633h-275v-221c0 -111 4 -307 -92 -381c-21 -16 -64 -37 -94 -37l-9 38c29 5 64 26 81 43c69 67 67 247 67 333v266zM511 376v-337 c25 -4 53 -5 94 -5c116 0 226 50 226 177c0 132 -114 170 -229 170c-24 0 -63 -2 -91 -5z"></glyph><glyph glyph-name="Nje-cyrl" unicode="Њ" d="M88 674h49v-277h337v277h49v-272c21 3 69 5 115 5c128 0 255 -50 255 -196c0 -65 -21 -109 -53 -142c-55 -58 -137 -75 -234 -75c-56 0 -102 4 -132 6v356h-337v-356h-49v674zM523 361v-321c25 -4 53 -6 94 -6c113 0 226 43 226 174c0 121 -110 158 -219 158 c-44 0 -78 -2 -101 -5z"></glyph><glyph glyph-name="Tshe-cyrl" unicode="Ћ" d="M-20 674h534v-41h-273v-224h2c45 27 113 55 178 55c62 0 102 -18 133 -46c41 -39 60 -94 60 -167v-251h-49v247c0 62 -13 104 -43 135c-28 27 -62 41 -110 41c-53 0 -128 -25 -171 -56v-367h-49v633h-212v41z"></glyph><glyph glyph-name="Kje-cyrl" unicode="Ќ" d="M88 674h49v-310h41l290 310h58l-299 -314c138 -11 189 -82 235 -184c31 -69 51 -121 81 -176h-52c-28 48 -53 109 -76 163c-43 102 -100 162 -246 162h-32v-325h-49v674zM349 820h76l-132 -115h-40z"></glyph><glyph glyph-name="Ushort-cyrl" unicode="Ў" d="M-2 674h56l177 -328c17 -32 36 -71 54 -109h2c16 39 31 72 49 112l144 325h52l-178 -389c-39 -86 -86 -177 -129 -225c-47 -52 -93 -71 -140 -71c-18 0 -31 1 -36 3l8 41c4 -1 12 -2 24 -2c89 1 137 85 168 144c10 19 7 29 -4 49zM142 820h46c6 -27 14 -65 74 -65 c59 0 68 35 72 65h46c-2 -55 -33 -102 -121 -102c-84 0 -115 47 -117 102z"></glyph><glyph glyph-name="Dzhe-cyrl" unicode="Џ" d="M88 674h49v-633h402v633h49v-674h-222l-8 -180h-41l-8 180h-221v674z"></glyph><glyph glyph-name="A-cyrl" unicode="А" d="M474 237h-300l-93 -237h-51l272 674h48l270 -674h-51zM191 278h267l-95 237c-18 45 -27 74 -37 107h-2c-10 -34 -21 -64 -37 -104z"></glyph><glyph glyph-name="Be-cyrl" unicode="Б" d="M88 674h365v-41h-316v-216c21 3 74 5 95 5c61 0 122 -10 170 -34c62 -31 105 -86 105 -174c0 -63 -21 -109 -53 -143c-55 -57 -145 -77 -237 -77c-53 0 -99 4 -129 6v674zM137 376v-336c25 -4 53 -6 94 -6c68 0 142 21 184 65c26 27 42 64 42 112c0 68 -30 111 -76 137 c-42 24 -96 33 -153 33c-24 0 -63 -2 -91 -5z"></glyph><glyph glyph-name="Ve-cyrl" unicode="В" d="M88 0v665c41 9 95 15 151 15c92 0 150 -19 190 -59c28 -28 42 -64 42 -111c0 -67 -51 -127 -119 -150v-3c49 -10 147 -55 147 -169c0 -55 -20 -96 -51 -127c-47 -47 -124 -67 -233 -67c-52 0 -97 4 -127 6zM137 631v-255h118c106 0 166 59 166 132 c0 103 -85 131 -185 131c-53 0 -82 -4 -99 -8zM137 336v-295c23 -5 55 -6 95 -6c106 0 216 31 216 151c0 106 -96 150 -210 150h-101z"></glyph><glyph glyph-name="Ghe-cyrl" unicode="Г" d="M88 674h359v-41h-310v-633h-49v674z"></glyph><glyph glyph-name="De-cyrl" unicode="Д" d="M169 674h375v-633h59l-6 -206h-40l-5 165h-491l-5 -165h-40l-6 206h49c22 38 52 81 70 131c29 81 40 183 40 328v174zM215 633v-161c0 -135 -12 -234 -42 -313c-17 -45 -43 -89 -62 -118h384v592h-280z"></glyph><glyph glyph-name="Ie-cyrl" unicode="Е" d="M437 376v-41h-300v-294h334v-41h-383v674h366v-41h-317v-257h300z"></glyph><glyph glyph-name="Zhe-cyrl" unicode="Ж" d="M36 674h57l260 -310h41v310h47v-310h42l258 310h58l-270 -315c125 -10 171 -73 215 -181c25 -59 43 -120 72 -178h-51c-27 48 -44 109 -66 160c-45 110 -83 165 -217 165h-41v-325h-47v325h-43c-134 0 -172 -55 -218 -165c-21 -51 -40 -112 -64 -160h-51 c30 58 47 119 72 178c44 108 91 171 215 181z"></glyph><glyph glyph-name="Ze-cyrl" unicode="З" d="M79 598l-16 37c51 34 105 51 168 51c100 0 184 -50 184 -160c0 -84 -67 -153 -149 -169v-2c105 -8 177 -69 177 -174c0 -139 -115 -193 -236 -193c-61 0 -118 12 -172 44l18 38c44 -26 104 -43 156 -43c121 0 183 69 183 154c0 122 -122 153 -223 153h-26v38h28 c110 0 193 69 193 148c0 86 -59 127 -139 127c-55 0 -107 -22 -146 -49z"></glyph><glyph glyph-name="I-cyrl" unicode="И" d="M88 674h48v-348c0 -104 -1 -184 -8 -262l2 -2c35 60 76 113 138 197l305 415h45v-674h-48v360c0 100 1 172 6 248l-3 2c-36 -60 -89 -131 -146 -209l-295 -401h-44v674z"></glyph><glyph glyph-name="Ishort-cyrl" unicode="Й" d="M88 674h48v-348c0 -104 -1 -184 -8 -262l2 -2c35 60 76 113 138 197l305 415h45v-674h-48v360c0 100 1 172 6 248l-3 2c-36 -60 -89 -131 -146 -209l-295 -401h-44v674zM234 815h46c6 -27 14 -65 74 -65c59 0 68 35 72 65h46c-2 -55 -33 -102 -121 -102 c-84 0 -115 47 -117 102z"></glyph><glyph glyph-name="Ka-cyrl" unicode="К" d="M88 674h49v-310h41l290 310h58l-299 -314c138 -11 189 -82 235 -184c31 -69 51 -121 81 -176h-52c-28 48 -53 109 -76 163c-43 102 -100 162 -246 162h-32v-325h-49v674z"></glyph><glyph glyph-name="El-cyrl" unicode="Л" d="M136 674h396v-674h-49v633h-298v-221c0 -111 4 -307 -92 -381c-21 -16 -64 -37 -98 -37l-5 38c27 5 62 26 79 43c69 67 67 247 67 333v266z"></glyph><glyph glyph-name="Em-cyrl" unicode="М" d="M732 0l-21 318c-7 100 -16 230 -16 302h-2c-27 -72 -58 -150 -101 -252l-156 -368h-37l-146 363c-42 105 -73 185 -95 257h-2c-3 -78 -8 -201 -17 -312l-24 -308h-48l54 674h56l162 -402c34 -84 60 -154 80 -215h2c18 57 45 125 83 214l170 403h58l48 -674h-48z"></glyph><glyph glyph-name="En-cyrl" unicode="Н" d="M88 674h49v-295h422v295h49v-674h-49v338h-422v-338h-49v674z"></glyph><glyph glyph-name="O-cyrl" unicode="О" d="M380 686c198 0 335 -146 335 -340c0 -233 -166 -358 -342 -358c-192 0 -335 143 -335 340c0 212 150 358 342 358zM378 646c-192 0 -289 -150 -289 -316c0 -159 109 -302 286 -302c178 0 289 135 289 314c0 146 -95 304 -286 304z"></glyph><glyph glyph-name="Pe-cyrl" unicode="П" d="M88 674h503v-674h-49v633h-405v-633h-49v674z"></glyph><glyph glyph-name="Er-cyrl" unicode="Р" d="M88 0v667c43 7 98 13 160 13c90 0 155 -22 195 -60c34 -32 54 -76 54 -131c0 -59 -18 -105 -52 -139c-46 -48 -123 -73 -212 -73c-35 0 -68 1 -96 10v-287h-49zM137 630v-300c28 -9 64 -12 102 -12c134 0 209 61 209 165c0 116 -92 156 -201 156c-51 0 -90 -5 -110 -9z "></glyph><glyph glyph-name="Es-cyrl" unicode="С" d="M590 66l15 -39c-38 -19 -114 -39 -211 -39c-182 0 -356 111 -356 346c0 176 130 352 383 352c102 0 159 -23 182 -34l-16 -41c-40 20 -100 34 -163 34c-219 0 -335 -133 -335 -315c0 -166 111 -300 323 -300c66 0 132 13 178 36z"></glyph><glyph glyph-name="Te-cyrl" unicode="Т" d="M231 0v633h-251v41h551v-41h-251v-633h-49z"></glyph><glyph glyph-name="U-cyrl" unicode="У" d="M-2 674h56l177 -328c17 -32 36 -71 54 -109h2c16 39 31 72 49 112l144 325h52l-178 -389c-39 -86 -86 -177 -129 -225c-47 -52 -93 -71 -140 -71c-18 0 -31 1 -36 3l8 41c4 -1 12 -2 24 -2c89 1 137 85 168 144c10 19 7 29 -4 49z"></glyph><glyph glyph-name="Ef-cyrl" unicode="Ф" d="M358 704h49v-64c157 -2 318 -88 318 -305c0 -207 -158 -293 -320 -299v-66h-49v66c-158 8 -318 87 -318 296c0 225 174 303 320 308v64zM357 73v530c-119 -3 -267 -69 -267 -266c0 -178 126 -254 267 -264zM406 603v-530c134 6 267 82 267 262c0 195 -130 264 -267 268z "></glyph><glyph glyph-name="Ha-cyrl" unicode="Х" d="M568 0h-58l-112 159c-51 72 -79 112 -103 148h-2c-23 -37 -47 -73 -98 -149l-105 -158h-58l236 341l-226 333h58l120 -182c33 -50 57 -86 78 -118h2c22 34 46 67 81 117l128 183h59l-242 -330z"></glyph><glyph glyph-name="Tse-cyrl" unicode="Ц" d="M88 674h49v-633h400v633h49v-633h59l-6 -206h-41l-4 165h-506v674z"></glyph><glyph glyph-name="Che-cyrl" unicode="Ч" d="M85 674h49v-225c0 -112 62 -174 180 -174c64 0 132 23 176 54v345h49v-674h-49v287h-2c-50 -35 -120 -54 -189 -54c-70 0 -214 16 -214 214v227z"></glyph><glyph glyph-name="Sha-cyrl" unicode="Ш" d="M88 674h49v-633h280v633h49v-633h280v633h49v-674h-707v674z"></glyph><glyph glyph-name="Shcha-cyrl" unicode="Щ" d="M88 674h49v-633h280v633h49v-633h280v633h49v-633h59l-6 -206h-41l-4 165h-715v674z"></glyph><glyph glyph-name="Signhard-cyrl" unicode="Ъ" d="M-20 674h235v-257c21 3 64 5 90 5c132 0 270 -50 270 -208c0 -63 -21 -109 -53 -143c-55 -57 -145 -77 -232 -77c-48 0 -94 4 -124 6v633h-186v41zM215 376v-336c25 -4 53 -6 89 -6c119 0 221 50 221 177c0 132 -114 170 -219 170c-29 0 -63 -2 -91 -5z"></glyph><glyph glyph-name="Yeru-cyrl" unicode="Ы" d="M88 674h49v-258c21 4 74 6 95 6c144 0 275 -50 275 -208c0 -63 -21 -109 -53 -143c-55 -57 -145 -77 -237 -77c-53 0 -99 4 -129 6v674zM137 376v-336c25 -4 53 -6 94 -6c118 0 226 50 226 177c0 132 -114 170 -229 170c-47 0 -84 -4 -91 -5zM595 674h49v-674h-49v674z "></glyph><glyph glyph-name="Signsoft-cyrl" unicode="Ь" d="M88 674h49v-258c21 4 74 6 95 6c137 0 275 -50 275 -208c0 -63 -21 -109 -53 -143c-55 -57 -145 -77 -237 -77c-53 0 -99 4 -129 6v674zM137 376v-336c25 -4 53 -6 94 -6c116 0 226 48 226 177c0 132 -114 170 -229 170c-24 0 -63 -2 -91 -5z"></glyph><glyph glyph-name="E-cyrl" unicode="Э" d="M158 326v40h367c-16 173 -127 279 -289 279c-65 0 -117 -18 -175 -44l-16 39c63 28 124 46 194 46c200 0 339 -134 339 -352c0 -239 -171 -346 -335 -346c-74 0 -140 12 -208 41l14 42c51 -24 121 -42 177 -42c178 0 298 113 301 297h-369z"></glyph><glyph glyph-name="Yu-cyrl" unicode="Ю" d="M88 674h49v-310h122c13 197 134 322 317 322c194 0 311 -146 311 -340c0 -238 -151 -358 -317 -358c-186 0 -310 135 -312 335h-121v-323h-49v674zM571 28c165 0 265 135 265 314c0 146 -84 304 -262 304c-179 0 -267 -150 -267 -316c0 -159 99 -302 264 -302z"></glyph><glyph glyph-name="Ya-cyrl" unicode="Я" d="M74 0h-54c8 14 17 29 24 46c35 80 58 184 121 245c17 16 38 28 59 34v2c-99 12 -167 82 -167 167c0 55 19 98 53 128c38 34 101 58 197 58c52 0 113 -6 159 -15v-665h-49v309h-97c-53 0 -90 -10 -118 -39c-52 -53 -77 -160 -107 -230c-7 -15 -13 -26 -21 -40zM417 350 v279c-19 5 -59 11 -111 11c-100 0 -200 -27 -200 -142c0 -93 86 -148 207 -149c43 0 83 0 104 1z"></glyph><glyph glyph-name="a-cyrl" unicode="а" d="M416 290v-174c0 -39 2 -77 8 -116h-45l-8 74h-2c-25 -37 -86 -86 -174 -86c-109 0 -153 74 -153 132c0 109 101 180 325 177v11c0 36 -8 144 -136 143c-48 0 -98 -12 -138 -40l-16 35c53 35 112 46 158 46c163 0 181 -126 181 -202zM367 154v102 c-127 4 -273 -16 -273 -127c0 -68 49 -101 105 -101c93 0 143 55 162 98c4 10 6 20 6 28z"></glyph><glyph glyph-name="be-cyrl" unicode="б" d="M454 728l-1 -45c-23 -10 -63 -20 -91 -24c-98 -16 -171 -47 -217 -115c-37 -53 -55 -132 -60 -195h2c38 93 122 131 195 131c125 0 222 -83 222 -236c0 -147 -69 -256 -230 -256c-187 0 -231 182 -231 336c0 93 19 171 62 239c52 83 130 114 244 135c36 7 71 17 105 30z M455 238c0 88 -42 202 -179 202c-71 0 -123 -37 -151 -91c-16 -30 -25 -65 -25 -103c0 -102 61 -219 178 -219c127 0 177 101 177 211z"></glyph></font>
</defs>
</svg>
